<?xml version="1.0" standalone="no"?>
<!DOCTYPE svg PUBLIC "-//W3C//DTD SVG 1.1//EN" "http://www.w3.org/Graphics/SVG/1.1/DTD/svg11.dtd" >
<svg xmlns="http://www.w3.org/2000/svg" xmlns:xlink="http://www.w3.org/1999/xlink" version="1.1">
<metadata>
Created by FontForge 20201107 at Tue Aug 31 23:41:11 2021
 By 
Copyright 2011 The Dosis Project Authors (https://github.com/googlefonts/dosis-vf)
</metadata>
<defs>
<font id="Dosis-Bold" horiz-adv-x="574" >
  <font-face 
    font-family="Dosis"
    font-weight="700"
    font-stretch="normal"
    units-per-em="1000"
    panose-1="0 0 0 0 0 0 0 0 0 0"
    ascent="800"
    descent="-200"
    x-height="475"
    cap-height="731"
    bbox="-133 -237 1102 1108"
    underline-thickness="50"
    underline-position="-125"
    unicode-range="U+000D-FB02"
  />
<missing-glyph horiz-adv-x="388" 
d="M89 28q-20 0 -36 13t-16 33q0 7 1.5 13.5t6.5 13.5l91 135l-91 135q-5 7 -6.5 14t-1.5 13q0 20 16 33.5t36 13.5q24 0 38 -20l67 -112l68 112q13 20 37 20q20 0 36.5 -13.5t16.5 -33.5q0 -6 -2 -13t-7 -14l-91 -135l91 -135q5 -7 7 -13.5t2 -13.5q0 -20 -16.5 -33
t-36.5 -13q-24 0 -37 19l-68 112l-67 -112q-14 -19 -38 -19z" />
    <glyph glyph-name="fi" unicode="fi" horiz-adv-x="566" 
d="M114 0q-27 0 -45 11.5t-18 28.5v493q0 59 29.5 109t85 80t132.5 30q42 0 81.5 -9t64.5 -25t25 -37q0 -8 -5 -26.5t-15 -33.5t-26 -15q-12 0 -25.5 9t-36 18.5t-62.5 9.5q-28 0 -50 -7t-37.5 -20t-23.5 -32.5t-8 -45.5v-63h102q17 0 25.5 -14.5t8.5 -32.5t-8.5 -32.5
t-25.5 -14.5h-102v-341q0 -17 -19.5 -28.5t-46.5 -11.5zM451 0q-28 0 -45.5 13t-17.5 28v394q0 18 17.5 29t45.5 11q27 0 46.5 -11t19.5 -29v-394q0 -15 -19.5 -28t-46.5 -13z" />
    <glyph glyph-name="fl" unicode="fl" horiz-adv-x="577" 
d="M114 0q-27 0 -45 11.5t-18 28.5v493q0 70 37 119.5t97 74.5t129 25q36 0 75 -6.5t74 -20.5t55 -36v-648q0 -15 -19 -28t-47 -13q-27 0 -45 13t-18 28v583q-13 10 -35.5 15.5t-44.5 5.5q-32 0 -61.5 -11.5t-48.5 -35.5t-19 -60v-63h102q17 0 25.5 -14.5t8.5 -32.5
t-8.5 -32.5t-25.5 -14.5h-102v-341q0 -17 -19.5 -28.5t-46.5 -11.5z" />
    <glyph glyph-name=".notdef" horiz-adv-x="388" 
d="M89 28q-20 0 -36 13t-16 33q0 7 1.5 13.5t6.5 13.5l91 135l-91 135q-5 7 -6.5 14t-1.5 13q0 20 16 33.5t36 13.5q24 0 38 -20l67 -112l68 112q13 20 37 20q20 0 36.5 -13.5t16.5 -33.5q0 -6 -2 -13t-7 -14l-91 -135l91 -135q5 -7 7 -13.5t2 -13.5q0 -20 -16.5 -33
t-36.5 -13q-24 0 -37 19l-68 112l-67 -112q-14 -19 -38 -19z" />
    <glyph glyph-name=".null" horiz-adv-x="0" 
 />
    <glyph glyph-name="nonmarkingreturn" horiz-adv-x="333" 
 />
    <glyph glyph-name="NULL" horiz-adv-x="0" 
 />
    <glyph glyph-name="NULL" horiz-adv-x="0" 
 />
    <glyph glyph-name="CR" unicode="&#xd;" horiz-adv-x="200" 
 />
    <glyph glyph-name="space" unicode=" " horiz-adv-x="200" 
 />
    <glyph glyph-name="exclam" unicode="!" horiz-adv-x="221" 
d="M111 202q-20 0 -35 9t-15 29q0 66 -3 143t-6.5 154t-3.5 143q0 26 18 40.5t45 14.5q25 0 43.5 -14.5t18.5 -40.5q0 -66 -3 -143t-6.5 -154t-3.5 -143q0 -20 -17 -29t-32 -9zM112 -6q-29 0 -48.5 20.5t-19.5 47.5q0 28 19.5 48t48.5 20q27 0 47 -20t20 -48
q0 -27 -20 -47.5t-47 -20.5z" />
    <glyph glyph-name="quotedbl" unicode="&#x22;" horiz-adv-x="302" 
d="M226 564q-20 0 -28.5 10.5t-8.5 22.5l-10 138q0 15 14.5 24t32.5 9t33.5 -9t15.5 -24l-10 -138q0 -12 -9 -22.5t-30 -10.5zM75 564q-20 0 -29 10.5t-9 22.5l-10 138q0 15 15 24t33 9t33 -9t15 -24l-10 -138q0 -12 -9 -22.5t-29 -10.5z" />
    <glyph glyph-name="numbersign" unicode="#" horiz-adv-x="680" 
d="M177 30q-21 0 -42 12.5t-21 35.5l24 142h-78q-17 0 -27 13t-10 34t10.5 35.5t26.5 14.5h97l22 123h-78q-17 0 -27 13t-10 34t10 35t26 14h98l27 150q2 13 18.5 20t34.5 7q23 0 41 -11t18 -38l-22 -128h110l26 150q3 13 19.5 20t34.5 7q22 0 40.5 -11t19.5 -38l-24 -128
h78q15 0 26.5 -13.5t11.5 -34.5q0 -20 -11.5 -34t-25.5 -14h-96l-23 -123h78q14 0 26 -14t12 -34q0 -22 -11.5 -35.5t-26.5 -13.5h-97l-28 -160q-3 -13 -19 -21.5t-32 -8.5q-13 0 -28 5.5t-25.5 16t-10.5 26.5l25 142h-108l-29 -160q-3 -13 -19 -21.5t-31 -8.5zM274 317h109
l22 123h-108z" />
    <glyph glyph-name="dollar" unicode="$" horiz-adv-x="529" 
d="M275 -52q-14 0 -24 7.5t-10 17.5v28q-61 1 -109 20.5t-76 47.5t-28 56q0 14 8 30.5t21 28t28 11.5q14 0 28 -10t31 -24t40.5 -25.5t56.5 -15.5v199q-34 13 -68.5 28t-63 37t-46 55t-17.5 81t16 82.5t43.5 57.5t62.5 36.5t73 18.5v28q0 10 10 17.5t24 7.5q12 0 22.5 -7.5
t10.5 -17.5v-26q25 -1 54.5 -5.5t56 -13.5t44 -23.5t17.5 -36.5q0 -11 -6 -27.5t-17 -29t-30 -12.5q-14 0 -28.5 8t-35 17.5t-55.5 11.5v-176q34 -12 67.5 -28.5t61 -40t44.5 -59t17 -86.5q0 -92 -52.5 -145.5t-137.5 -66.5v-31q0 -10 -10.5 -17.5t-22.5 -7.5zM301 121
q33 7 54 27t21 55q0 25 -10 41.5t-27 29t-38 21.5v-174zM249 452v151q-25 -3 -43 -12.5t-28 -24t-10 -33.5q0 -21 10.5 -36.5t29 -25.5t41.5 -19z" />
    <glyph glyph-name="percent" unicode="%" horiz-adv-x="793" 
d="M221 -40q-21 0 -34 14t-13 30q0 9 4 17l360 729q10 21 36 21q17 0 33.5 -12.5t16.5 -32.5q0 -10 -4 -18l-360 -726q-4 -10 -15 -16t-24 -6zM171 328q-61 0 -101.5 29.5t-40.5 99.5v145q0 71 40.5 100t101.5 29q41 0 73 -12.5t51 -40.5t19 -76v-145q0 -47 -19 -75.5
t-51 -41t-73 -12.5zM171 403q26 0 41.5 13.5t15.5 40.5v145q0 28 -15 41t-42 13q-26 0 -41 -13t-15 -41v-145q0 -27 15 -40.5t41 -13.5zM621 -3q-60 0 -101 29t-41 100v145q0 70 41 99.5t101 29.5q41 0 73 -12.5t51 -41t19 -75.5v-145q0 -47 -19 -75.5t-51 -41t-73 -12.5z
M622 72q26 0 41 13t15 41v145q0 27 -15 40.5t-41 13.5q-27 0 -41.5 -13.5t-14.5 -40.5v-145q0 -28 14.5 -41t41.5 -13z" />
    <glyph glyph-name="ampersand" unicode="&#x26;" horiz-adv-x="642" 
d="M274 -10q-77 0 -133.5 30.5t-87 81t-30.5 108.5q0 46 17.5 85.5t46 70t61.5 47.5q-29 33 -49.5 69t-20.5 85q0 58 28 98t76 61.5t105 21.5q61 0 105 -19.5t68 -46.5t24 -51q0 -22 -19.5 -41t-42.5 -19q-16 0 -28 11t-25 25.5t-31.5 25.5t-48.5 11q-38 0 -63.5 -21.5
t-25.5 -61.5q0 -30 17 -58.5t41 -54t45 -47.5l161 -170q16 39 18 74.5t4 59.5q2 19 13 29t45 10q33 0 44 -16t11 -44q0 -25 -6 -57.5t-18 -67.5t-32 -69l80 -84q5 -6 7 -11.5t2 -10.5q0 -20 -19 -36.5t-41 -16.5q-9 0 -16 3.5t-17 11.5l-61 64q-38 -35 -88.5 -57.5
t-115.5 -22.5zM289 103q39 0 66.5 13t45.5 33l-181 188q-16 -12 -31.5 -28.5t-25 -38t-9.5 -49.5q0 -33 15.5 -59.5t45.5 -42.5t74 -16z" />
    <glyph glyph-name="quotesingle" unicode="'" horiz-adv-x="151" 
d="M75 564q-20 0 -29 10.5t-9 22.5l-10 138q0 15 15 24t33 9t33 -9t15 -24l-10 -138q0 -12 -9 -22.5t-29 -10.5z" />
    <glyph glyph-name="parenleft" unicode="(" horiz-adv-x="341" 
d="M258 -20q-37 0 -74 10.5t-68 33t-49.5 58.5t-18.5 84v402q0 45 19 82t50 63.5t68.5 40.5t75.5 14q39 0 51.5 -16.5t12.5 -39.5q0 -26 -11 -41.5t-29 -15.5q-34 0 -58 -13t-36.5 -33t-12.5 -41v-402q0 -30 17 -45.5t42 -21.5t48 -6q25 0 32.5 -18t7.5 -39q0 -25 -12 -40.5
t-55 -15.5z" />
    <glyph glyph-name="parenright" unicode=")" horiz-adv-x="341" 
d="M82 -20q-42 0 -54.5 15.5t-12.5 40.5q0 21 8 39t33 18q24 0 48.5 6t41 21.5t16.5 45.5v402q0 21 -12 41t-36 33t-58 13q-18 0 -29.5 15.5t-11.5 41.5q0 23 13.5 39.5t50.5 16.5q39 0 76.5 -14t68.5 -40.5t49.5 -63.5t18.5 -82v-402q0 -48 -18 -84t-49 -58.5t-68 -33
t-75 -10.5z" />
    <glyph glyph-name="asterisk" unicode="*" horiz-adv-x="475" 
d="M139 326q-10 0 -22.5 5.5t-22 15.5t-9.5 24q0 15 10 27l70 98l-110 32q-15 4 -22 15.5t-7 27.5q0 18 13 33t34 15q1 0 4.5 -0.5t7.5 -2.5l112 -37l-5 111q0 21 14 31t32 10t31 -10t14 -31l-4 -112l112 38q7 3 13 3q19 0 31.5 -17t12.5 -36q0 -13 -7 -23.5t-22 -14.5
l-109 -27l74 -104q6 -8 6 -24q0 -21 -16.5 -34t-35.5 -13q-7 0 -16 3t-16 14l-68 103l-69 -104q-6 -10 -13.5 -13t-16.5 -3z" />
    <glyph glyph-name="plus" unicode="+" horiz-adv-x="449" 
d="M225 84q-23 0 -38.5 11t-15.5 29v107h-107q-18 0 -29.5 15t-11.5 38t11.5 38.5t29.5 15.5h107v106q0 16 15.5 28.5t38.5 12.5q24 0 38.5 -12.5t14.5 -28.5v-106h106q16 0 28.5 -15.5t12.5 -38.5t-12.5 -38t-28.5 -15h-106v-107q0 -18 -14.5 -29t-38.5 -11z" />
    <glyph glyph-name="comma" unicode="," horiz-adv-x="191" 
d="M81 -100q-14 0 -28.5 8.5t-14.5 25.5q0 7 3 14l24 53q-17 10 -27 25.5t-10 35.5q0 28 19.5 48t47.5 20t48 -19.5t20 -47.5q0 -4 -1.5 -10.5t-6.5 -20.5t-16.5 -41.5t-30.5 -73.5q-4 -9 -12 -13t-15 -4z" />
    <glyph glyph-name="hyphen" unicode="-" horiz-adv-x="411" 
d="M76 187q-18 0 -29.5 15t-11.5 38t11.5 38.5t29.5 15.5h260q15 0 28 -15.5t13 -38.5t-13 -38t-28 -15h-260z" />
    <glyph glyph-name="period" unicode="." horiz-adv-x="191" 
d="M96 -6q-29 0 -48.5 20.5t-19.5 47.5q0 28 19.5 48t48.5 20q27 0 47 -20t20 -48q0 -27 -20 -47.5t-47 -20.5z" />
    <glyph glyph-name="slash" unicode="/" horiz-adv-x="486" 
d="M65 -40q-20 0 -33.5 14t-13.5 30q0 9 4 17l360 729q10 21 36 21q18 0 34 -12.5t16 -32.5q0 -10 -4 -18l-360 -726q-4 -10 -15.5 -16t-23.5 -6z" />
    <glyph glyph-name="zero" unicode="0" horiz-adv-x="559" 
d="M279 -6q-66 0 -119 22.5t-84 73t-31 133.5v279q0 83 31 133.5t84 73t119 22.5t119.5 -22.5t84.5 -73t31 -133.5v-279q0 -83 -31 -133.5t-84.5 -73t-119.5 -22.5zM279 108q49 0 77 28t28 87v279q0 59 -28 87t-77 28t-76.5 -28t-27.5 -87v-279q0 -59 27.5 -87t76.5 -28z
M279 315q-21 0 -33.5 13.5t-12.5 33.5q0 21 12.5 33.5t33.5 12.5q22 0 34.5 -12.5t12.5 -33.5q0 -20 -12.5 -33.5t-34.5 -13.5z" />
    <glyph glyph-name="one" unicode="1" horiz-adv-x="287" 
d="M165 0q-24 0 -44.5 10.5t-20.5 30.5v534l-32 -32q-6 -4 -12 -6.5t-11 -2.5q-19 0 -30.5 16.5t-11.5 35.5q0 14 6 26.5t18 20.5l118 90q6 5 12.5 7.5t15.5 2.5q20 0 38.5 -11.5t18.5 -30.5v-650q0 -20 -20 -30.5t-45 -10.5z" />
    <glyph glyph-name="two" unicode="2" horiz-adv-x="505" 
d="M83 0q-17 0 -37 11.5t-20 29.5v97q0 40 23 74.5t60 65.5t78 60t77.5 59t60 61t23.5 66q0 21 -9.5 41.5t-30 34t-53.5 13.5q-36 0 -62.5 -20.5t-26.5 -67.5q0 -18 -18 -33t-50 -15q-26 0 -42 15t-16 55q0 57 30 98.5t79.5 63.5t104.5 22q58 0 109.5 -24.5t83 -69.5
t31.5 -109q0 -53 -23 -96t-59 -78t-76.5 -63.5t-76.5 -53t-59 -48.5t-23 -51v-24h278q17 0 29 -16.5t12 -39.5t-12 -40.5t-29 -17.5h-356z" />
    <glyph glyph-name="three" unicode="3" horiz-adv-x="521" 
d="M249 -6q-61 0 -104.5 17t-71.5 44t-40.5 59t-12.5 62t13.5 40.5t47.5 10.5q40 0 53.5 -10.5t13.5 -35.5q0 -17 7 -30.5t20.5 -23t33 -14.5t43.5 -5q56 0 81.5 25t25.5 83v19q0 55 -30.5 75t-78.5 20q-22 0 -31 16t-9 35t9 35t30 16q25 0 46 6.5t33.5 27.5t12.5 64
q0 50 -23.5 69t-64.5 19q-24 0 -41 -4.5t-28 -13.5t-15.5 -21t-4.5 -28q0 -22 -12.5 -36t-48.5 -14q-30 0 -44 5t-19 17.5t-5 33.5q0 27 11 57t36 57t67 43.5t105 16.5q61 0 108.5 -17t75.5 -56t28 -106q0 -59 -21 -104t-58 -62q44 -17 73 -53t29 -98v-19
q0 -81 -32.5 -129.5t-87 -70.5t-120.5 -22z" />
    <glyph glyph-name="four" unicode="4" horiz-adv-x="502" 
d="M348 0q-25 0 -45 10.5t-20 30.5v118h-240q-19 0 -32 12.5t-13 33.5q0 6 2 13t5 13l237 466q10 19 24.5 26.5t30.5 7.5q12 0 27 -6t26.5 -17t11.5 -27q0 -6 -5 -17l-192 -384h118v105q0 22 20 31.5t45 9.5q24 0 44.5 -9.5t20.5 -31.5v-105h46q21 0 31.5 -19t10.5 -42
q0 -22 -13 -41t-29 -19h-46v-118q0 -20 -20.5 -30.5t-44.5 -10.5z" />
    <glyph glyph-name="five" unicode="5" horiz-adv-x="508" 
d="M253 -6q-76 0 -129 26t-80 67.5t-27 87.5q0 35 17 47t48 12q41 0 53 -14.5t12 -35.5q0 -24 13.5 -41t37 -26t52.5 -9q50 0 78 27t28 84v19q0 57 -28 84.5t-77 27.5h-148q-30 0 -41 14t-11 37q0 7 0.5 13t1.5 13l25 263q1 19 7.5 30t17.5 11h308q20 0 29.5 -17.5
t9.5 -39.5q0 -21 -9.5 -39t-29.5 -18h-225l-12 -165h77q66 0 119 -20.5t84.5 -68t31.5 -125.5v-19q0 -81 -31.5 -131t-84.5 -72t-117 -22z" />
    <glyph glyph-name="six" unicode="6" horiz-adv-x="549" 
d="M280 -6q-66 0 -119 22.5t-84.5 73t-31.5 133.5v279q0 83 32 133.5t86.5 73t123.5 22.5q59 0 102 -16.5t71 -43.5t41 -59.5t13 -63.5q0 -30 -15 -42t-46 -12q-26 0 -46.5 10t-20.5 39q0 23 -14.5 39.5t-37.5 25.5t-51 9q-51 0 -79.5 -28t-28.5 -87v-109q24 29 58.5 40
t73.5 11q57 0 103.5 -19t75 -64t28.5 -124v-14q0 -83 -31 -133.5t-84 -73t-119 -22.5zM280 100q49 0 76.5 27.5t27.5 87.5v13q0 62 -27.5 88t-77.5 26q-47 0 -75.5 -24t-28.5 -81v-22q0 -60 28 -87.5t77 -27.5z" />
    <glyph glyph-name="seven" unicode="7" horiz-adv-x="497" 
d="M170 -5q-19 0 -38.5 8.5t-31 23.5t-11.5 33q0 12 6 23l261 468v66h-209v-81q0 -17 -20 -29.5t-46 -12.5t-45 12.5t-19 29.5v154q0 15 18 28t39 13h355q19 0 38 -13t19 -28v-114q0 -15 -8 -36.5t-18 -39.5l-252 -486q-10 -19 -38 -19z" />
    <glyph glyph-name="eight" unicode="8" horiz-adv-x="533" 
d="M267 -6q-66 0 -119 20.5t-84.5 66t-31.5 119.5v12q0 77 33 123t86 65q-42 15 -69 53t-27 101q0 64 27.5 102.5t75.5 56.5t109 18q62 0 109.5 -18t74.5 -56.5t27 -102.5q0 -63 -26.5 -101t-69.5 -53q54 -19 86.5 -65t32.5 -123v-12q0 -74 -31 -119.5t-84 -66t-119 -20.5z
M267 100q50 0 77 28.5t27 86.5v20q0 57 -27.5 83.5t-76.5 26.5t-77 -26.5t-28 -83.5v-20q0 -60 28.5 -87.5t76.5 -27.5zM267 451q41 0 63.5 20t22.5 67q0 46 -22.5 66.5t-63.5 20.5t-63.5 -20.5t-22.5 -66.5q0 -47 22.5 -67t63.5 -20z" />
    <glyph glyph-name="nine" unicode="9" horiz-adv-x="550" 
d="M264 -6q-60 0 -103 16.5t-71 43.5t-41 59.5t-13 63.5t15.5 42.5t45.5 11.5q27 0 47.5 -9.5t20.5 -39.5q0 -23 14 -39.5t37 -25.5t51 -9q51 0 80 28t29 87v109q-25 -29 -59.5 -40t-73.5 -11q-57 0 -104 19t-75 64t-28 124v14q0 83 31 133.5t84 73t119 22.5t119.5 -22.5
t85 -73t31.5 -133.5v-279q0 -83 -32.5 -133.5t-87 -73t-122.5 -22.5zM271 383q48 0 76.5 24.5t28.5 80.5v22q0 60 -28 87.5t-78 27.5q-49 0 -76.5 -27.5t-27.5 -87.5v-13q0 -62 27.5 -88t77.5 -26z" />
    <glyph glyph-name="colon" unicode=":" horiz-adv-x="218" 
d="M110 286q-30 0 -49.5 20.5t-19.5 47.5q0 28 19.5 48t49.5 20q27 0 47 -20t20 -48q0 -27 -20 -47.5t-47 -20.5zM110 -6q-30 0 -49.5 20.5t-19.5 47.5q0 28 19.5 48t49.5 20q27 0 47 -20t20 -48q0 -27 -20 -47.5t-47 -20.5z" />
    <glyph glyph-name="semicolon" unicode=";" horiz-adv-x="218" 
d="M92 -100q-14 0 -28.5 8.5t-14.5 25.5q0 7 4 14l23 53q-16 10 -26.5 25.5t-10.5 35.5q0 28 20 48t47 20q28 0 48 -19.5t20 -47.5q0 -4 -1 -10.5t-6.5 -20.5t-16.5 -41.5t-31 -73.5q-4 -9 -12 -13t-15 -4zM112 286q-29 0 -48.5 20.5t-19.5 47.5q0 28 19.5 48t48.5 20
q27 0 47 -20t20 -48q0 -27 -20 -47.5t-47 -20.5z" />
    <glyph glyph-name="less" unicode="&#x3c;" horiz-adv-x="420" 
d="M323 56q-11 0 -17 5l-258 168q-14 9 -20.5 23t-6.5 25t6.5 25t20.5 23l258 169q6 4 17 4q20 0 39 -17.5t19 -43.5q0 -24 -16 -33l-194 -127l194 -126q16 -10 16 -34q0 -26 -19 -43.5t-39 -17.5z" />
    <glyph glyph-name="equal" unicode="=" horiz-adv-x="444" 
d="M93 327q-18 0 -29 15t-11 38t11 38.5t29 15.5h258q16 0 28.5 -15.5t12.5 -38.5t-12.5 -38t-28.5 -15h-258zM93 124q-18 0 -29 15t-11 38t11 38.5t29 15.5h258q16 0 28.5 -15.5t12.5 -38.5t-12.5 -38t-28.5 -15h-258z" />
    <glyph glyph-name="greater" unicode="&#x3e;" horiz-adv-x="420" 
d="M97 56q-19 0 -38.5 17.5t-19.5 43.5q0 24 17 34l193 126l-193 127q-17 9 -17 33q0 26 19.5 43.5t38.5 17.5q11 0 17 -4l258 -169q14 -9 20.5 -23t6.5 -25t-6.5 -25t-20.5 -23l-258 -168q-6 -5 -17 -5z" />
    <glyph glyph-name="question" unicode="?" horiz-adv-x="438" 
d="M194 202q-26 0 -36.5 11.5t-10.5 44.5q0 47 9 77t23.5 49.5t27.5 31.5q13 13 30 26t32.5 29t25.5 36t10 45q0 43 -28.5 64.5t-74.5 21.5q-36 0 -55.5 -10.5t-29.5 -24.5t-19.5 -24t-26.5 -10q-16 0 -33 12t-17 36t21 51.5t62 47t102 19.5q63 0 109.5 -22.5t71.5 -60.5
t25 -86q0 -38 -14.5 -69.5t-34 -56.5t-39.5 -42t-31 -28q-24 -19 -34.5 -39t-12.5 -42t-2 -51q0 -13 -10 -24.5t-40 -11.5zM194 -6q-28 0 -47.5 20.5t-19.5 47.5q0 28 20 48t47 20q29 0 48.5 -20t19.5 -48q0 -27 -19.5 -47.5t-48.5 -20.5z" />
    <glyph glyph-name="at" unicode="@" horiz-adv-x="743" 
d="M337 -132q-57 0 -110.5 21t-95.5 63t-66 106.5t-24 150.5q0 101 36.5 183t112.5 130t193 48q105 0 179 -40t113.5 -114.5t39.5 -176.5q0 -62 -16 -113.5t-48.5 -82.5t-83.5 -31q-43 0 -71 21t-34 52q-25 -31 -54.5 -49.5t-70.5 -18.5q-31 0 -60 12t-47 37.5t-18 65.5
q0 48 26 74.5t71.5 37.5t103.5 11h31v15q0 35 -19.5 52.5t-61.5 17.5q-30 0 -48.5 -7t-29.5 -13.5t-19 -6.5q-9 0 -16.5 9t-11.5 20.5t-4 18.5q0 20 22 34.5t54.5 23.5t66.5 9q43 0 79.5 -15t59 -44.5t22.5 -74.5v-169q4 -26 13.5 -37t22.5 -11q20 0 31.5 15t17 37.5t7.5 47
t2 42.5q0 133 -60 205t-189 72q-75 0 -125.5 -22.5t-79.5 -63t-41.5 -92t-12.5 -108.5q0 -53 11 -101.5t37 -85.5t70.5 -59t109.5 -22q41 0 66 6.5t41 13t26 6.5q16 0 24 -14t8 -24q0 -16 -18.5 -27.5t-47.5 -19t-59.5 -11.5t-54.5 -4zM361 86q23 0 43 12t32.5 30.5
t12.5 39.5v31h-24q-34 0 -59 -6t-38 -20.5t-13 -38.5t12.5 -36t33.5 -12z" />
    <glyph glyph-name="A" unicode="A" 
d="M91 0q-18 0 -37 7t-32 19t-13 28q0 3 1 10l193 629q7 22 31.5 33t52.5 11q29 0 53 -11t31 -33l193 -629q2 -7 2 -10q0 -15 -13.5 -27.5t-32.5 -19.5t-37 -7q-16 0 -27.5 5.5t-15.5 20.5l-38 133h-230l-37 -133q-4 -15 -16 -20.5t-28 -5.5zM200 261h174l-87 307z" />
    <glyph glyph-name="B" unicode="B" horiz-adv-x="562" 
d="M117 0q-26 0 -41.5 12t-15.5 28v650q0 20 18 30.5t39 10.5h194q51 0 97 -14.5t75 -52.5t29 -109q0 -61 -23 -101.5t-62 -57.5q31 -11 54 -30.5t36 -51t13 -81.5v-21q0 -78 -26.5 -124.5t-72 -67t-101.5 -20.5h-213zM189 114h113q46 0 72 26t26 83v16q0 59 -26 82.5
t-72 23.5h-113v-231zM189 447h113q41 0 60.5 24t19.5 62q0 27 -10 45.5t-28 28.5t-43 10h-112v-170z" />
    <glyph glyph-name="C" unicode="C" horiz-adv-x="551" 
d="M283 -6q-62 0 -115 22.5t-84 73t-31 133.5v279q0 83 31 133.5t84 73t116 22.5q70 0 123.5 -23.5t84 -65.5t30.5 -101q0 -39 -16 -51.5t-49 -12.5q-27 0 -45.5 9.5t-19.5 31.5q0 12 -3.5 28.5t-13.5 32.5t-30.5 27t-56.5 11q-51 0 -78.5 -28.5t-27.5 -86.5v-279
q0 -59 28 -87t80 -28q34 0 54 11t29.5 27.5t13 34.5t5.5 34q2 23 20 32t44 9q34 0 50 -13t16 -51q0 -60 -30.5 -105t-84.5 -69t-124 -24z" />
    <glyph glyph-name="D" unicode="D" horiz-adv-x="581" 
d="M117 0q-26 0 -41.5 12t-15.5 28v651q0 16 15.5 28t41.5 12h177q67 0 120 -22.5t84.5 -73t31.5 -133.5v-273q0 -83 -31.5 -133.5t-84.5 -73t-120 -22.5h-177zM190 114h104q50 0 78 28.5t28 86.5v273q0 58 -28 86.5t-77 28.5h-105v-503z" />
    <glyph glyph-name="E" unicode="E" horiz-adv-x="530" 
d="M117 0q-21 0 -39 10.5t-18 30.5v649q0 20 18 30.5t39 10.5h356q22 0 31.5 -18t9.5 -38q0 -24 -10.5 -41t-30.5 -17h-283v-200h152q20 0 30.5 -15.5t10.5 -36.5q0 -17 -9.5 -33.5t-31.5 -16.5h-152v-201h283q20 0 30.5 -17t10.5 -41q0 -20 -9.5 -38t-31.5 -18h-356z" />
    <glyph glyph-name="F" unicode="F" horiz-adv-x="509" 
d="M125 0q-24 0 -44.5 10.5t-20.5 30.5v649q0 20 18 30.5t39 10.5h349q22 0 31.5 -18t9.5 -38q0 -24 -10.5 -41t-30.5 -17h-276v-200h153q20 0 30.5 -15.5t10.5 -36.5q0 -17 -9.5 -33.5t-31.5 -16.5h-153v-274q0 -20 -20 -30.5t-45 -10.5z" />
    <glyph glyph-name="G" unicode="G" horiz-adv-x="564" 
d="M287 -6q-66 0 -119 22.5t-84 73t-31 133.5v279q0 83 31 133.5t83.5 73t115.5 22.5q70 0 123.5 -23t84.5 -66t31 -103q0 -37 -16 -49.5t-49 -12.5q-26 0 -45 9t-20 32q-1 24 -9.5 46.5t-30 37.5t-65.5 15q-49 0 -77 -28.5t-28 -86.5v-279q0 -58 28 -86.5t77 -28.5t77 28.5
t28 86.5v59h-81q-19 0 -29.5 16t-10.5 35t10.5 35t29.5 16h170q20 0 30.5 -12.5t10.5 -29.5v-119q0 -83 -31 -133.5t-84.5 -73t-119.5 -22.5z" />
    <glyph glyph-name="H" unicode="H" horiz-adv-x="606" 
d="M125 0q-24 0 -44.5 10.5t-20.5 30.5v650q0 21 20.5 30.5t44.5 9.5q25 0 45 -9.5t20 -30.5v-261h225v261q0 21 20.5 30.5t44.5 9.5q25 0 45 -9.5t20 -30.5v-650q0 -20 -20 -30.5t-45 -10.5q-24 0 -44.5 10.5t-20.5 30.5v287h-225v-287q0 -20 -20 -30.5t-45 -10.5z" />
    <glyph glyph-name="I" unicode="I" horiz-adv-x="251" 
d="M125 0q-24 0 -44.5 10.5t-20.5 30.5v650q0 21 20.5 30.5t44.5 9.5q25 0 45 -9.5t20 -30.5v-650q0 -20 -20 -30.5t-45 -10.5z" />
    <glyph glyph-name="J" unicode="J" horiz-adv-x="537" 
d="M249 -6q-68 0 -122.5 24t-85.5 69t-31 106q0 38 16.5 50.5t49.5 12.5q25 0 44 -8.5t20 -32.5q2 -24 10.5 -49t30.5 -41.5t63 -16.5q51 0 78.5 28.5t27.5 86.5v394h-103q-19 0 -29.5 17t-10.5 41q0 20 9.5 38t30.5 18h175q22 0 40 -10.5t18 -30.5v-467q0 -83 -31.5 -133.5
t-83.5 -73t-116 -22.5z" />
    <glyph glyph-name="K" unicode="K" horiz-adv-x="553" 
d="M125 0q-24 0 -44.5 10.5t-20.5 30.5v650q0 21 20.5 30.5t44.5 9.5q25 0 45 -9.5t20 -30.5v-273l217 294q13 19 35 19q17 0 34.5 -10t29.5 -25t12 -32q0 -5 -2 -12t-7 -13l-178 -224l218 -332q7 -11 7 -23q0 -16 -11.5 -31t-29.5 -24.5t-37 -9.5q-14 0 -25.5 6t-20.5 19
l-188 285l-54 -68v-196q0 -20 -20 -30.5t-45 -10.5z" />
    <glyph glyph-name="L" unicode="L" horiz-adv-x="483" 
d="M117 0q-21 0 -39 10.5t-18 30.5v650q0 21 20.5 30.5t44.5 9.5q25 0 45 -9.5t20 -30.5v-577h245q19 0 28.5 -17.5t9.5 -39.5q0 -21 -9.5 -39t-28.5 -18h-318z" />
    <glyph glyph-name="M" unicode="M" horiz-adv-x="699" 
d="M125 0q-24 0 -44.5 10.5t-20.5 30.5v625q0 36 20.5 50.5t44.5 14.5t40.5 -5t31 -20t30.5 -44l122 -224l123 224q18 29 31.5 44t30.5 20t40 5q25 0 45 -14.5t20 -50.5v-625q0 -20 -20.5 -30.5t-44.5 -10.5t-44.5 10.5t-20.5 30.5v430l-116 -208q-9 -14 -21 -20t-24 -6
q-11 0 -22.5 5.5t-20.5 20.5l-115 216v-438q0 -20 -20 -30.5t-45 -10.5z" />
    <glyph glyph-name="N" unicode="N" horiz-adv-x="606" 
d="M125 0q-24 0 -44.5 10.5t-20.5 30.5v649q0 21 20.5 31t44.5 10t39.5 -5t29 -19.5t28.5 -44.5l193 -373v402q0 21 20.5 30.5t44.5 9.5q25 0 45 -9.5t20 -30.5v-650q0 -20 -20 -30.5t-45 -10.5q-23 0 -42.5 9t-31.5 32l-216 402v-402q0 -20 -20 -30.5t-45 -10.5z" />
    <glyph glyph-name="O" unicode="O" 
d="M287 -6q-66 0 -119 22.5t-84 73t-31 133.5v279q0 83 31 133.5t83.5 73t119.5 22.5q66 0 119.5 -22.5t84.5 -73t31 -133.5v-279q0 -83 -31 -133.5t-84.5 -73t-119.5 -22.5zM287 108q49 0 77 28t28 87v279q0 59 -28 87t-77 28t-77 -28t-28 -87v-279q0 -59 28 -87t77 -28z
" />
    <glyph glyph-name="P" unicode="P" horiz-adv-x="557" 
d="M125 0q-24 0 -44.5 10.5t-20.5 30.5v650q0 16 14 28t36 12h200q64 0 115.5 -22t81.5 -71.5t30 -131.5v-6q0 -82 -31 -132t-84.5 -72.5t-119.5 -22.5h-112v-232q0 -20 -20 -30.5t-45 -10.5zM190 375h112q50 0 77.5 28.5t27.5 86.5v12q0 58 -27.5 86.5t-77.5 28.5h-112
v-242z" />
    <glyph glyph-name="Q" unicode="Q" 
d="M287 -109q-16 0 -29 10.5t-13 30.5v65q-55 6 -99 31t-68.5 73t-24.5 122v279q0 84 31 134t84 72.5t119 22.5t119.5 -22.5t84.5 -72.5t31 -134v-279q0 -74 -25 -122t-69 -73t-100 -31v-65q0 -20 -13 -30.5t-28 -10.5zM245 116v53q0 21 13 30.5t29 9.5q15 0 28 -9.5
t13 -30.5v-53q30 10 47 36.5t17 70.5v279q0 58 -28 86.5t-77 28.5t-77 -28.5t-28 -86.5v-279q0 -44 16.5 -70.5t46.5 -36.5z" />
    <glyph glyph-name="R" unicode="R" horiz-adv-x="568" 
d="M461 -5q-13 0 -25.5 8t-19.5 23l-142 276h-84v-261q0 -20 -20 -30.5t-45 -10.5q-24 0 -44.5 10.5t-20.5 30.5v650q0 16 11.5 28t30.5 12h198q66 0 119.5 -19t85.5 -64.5t32 -125.5q0 -58 -17 -98.5t-46.5 -65t-67.5 -36.5l132 -243q2 -4 3 -8.5t1 -7.5q0 -16 -12 -32
t-30.5 -26t-38.5 -10zM190 404h110q49 0 78 24t29 82q0 60 -29 83.5t-78 23.5h-110v-213z" />
    <glyph glyph-name="S" unicode="S" horiz-adv-x="522" 
d="M255 -9q-65 0 -117.5 19t-83 47.5t-30.5 57.5q0 14 7.5 30.5t20.5 28t29 11.5t30 -11.5t32 -27t44 -27t64 -11.5q30 0 55.5 9.5t41 28.5t15.5 49q0 32 -17 54t-46 38t-63 31t-68.5 32t-63 41t-46 59t-17.5 86q0 56 21.5 94t57 61.5t78.5 34t86 10.5q23 0 54.5 -3.5
t63 -12.5t52 -24.5t20.5 -39.5q0 -12 -5.5 -28t-17 -28.5t-29.5 -12.5q-16 0 -31.5 9.5t-40 19t-66.5 9.5q-35 0 -61 -9.5t-39 -26t-13 -41.5q0 -26 17.5 -44t46 -32t62.5 -28t68.5 -32.5t63.5 -44.5t46 -64.5t17 -94.5q0 -71 -31 -119.5t-84.5 -73t-122.5 -24.5z" />
    <glyph glyph-name="T" unicode="T" horiz-adv-x="523" 
d="M262 0q-25 0 -45 10.5t-20 30.5v573h-147q-19 0 -30 18t-11 41q0 21 10 39.5t31 18.5h423q22 0 31.5 -18.5t9.5 -39.5q0 -23 -10.5 -41t-30.5 -18h-146v-573q0 -20 -20.5 -30.5t-44.5 -10.5z" />
    <glyph glyph-name="U" unicode="U" horiz-adv-x="594" 
d="M297 -6q-68 0 -122 22.5t-86 73t-32 133.5v468q0 21 20 30.5t45 9.5q24 0 44.5 -9.5t20.5 -30.5v-468q0 -58 29 -86.5t81 -28.5q51 0 80.5 28.5t29.5 86.5v468q0 21 19.5 30.5t45.5 9.5q24 0 44.5 -9.5t20.5 -30.5v-468q0 -83 -32 -133.5t-86.5 -73t-121.5 -22.5z" />
    <glyph glyph-name="V" unicode="V" 
d="M287 -6q-28 0 -52.5 11t-30.5 33l-194 629q-2 7 -2 10q0 16 13 28t32.5 19t37.5 7q16 0 28 -5.5t15 -20.5l153 -542l152 542q5 15 16.5 20.5t27.5 5.5q18 0 37 -7t32 -19t13 -28q0 -2 -0.5 -4.5t-0.5 -5.5l-193 -629q-6 -22 -30.5 -33t-53.5 -11z" />
    <glyph glyph-name="W" unicode="W" horiz-adv-x="881" 
d="M293 -6q-28 0 -53 11t-32 33l-198 629q-2 6 -2 12q0 15 13 26.5t32.5 18.5t37.5 7q15 0 27.5 -6t15.5 -20l158 -542l85 348q5 18 23.5 27t39.5 9q23 0 41.5 -9t22.5 -27l85 -348l158 542q4 14 16 20t27 6q19 0 38 -7t32 -18.5t13 -26.5q0 -6 -2 -12l-198 -629
q-8 -22 -32 -33t-53 -11q-28 0 -53 11t-30 33l-65 270l-64 -270q-5 -22 -30 -33t-53 -11z" />
    <glyph glyph-name="X" unicode="X" horiz-adv-x="559" 
d="M98 -5q-18 0 -38 9t-34 23.5t-14 32.5q0 11 8 24l173 282l-167 281q-9 14 -9 28q0 17 13 31t32.5 22t37.5 8q16 0 26.5 -7.5t16.5 -20.5l136 -245l137 245q7 13 17.5 20.5t25.5 7.5q18 0 37.5 -8t32.5 -22t13 -31q0 -14 -9 -28l-167 -281l173 -282q8 -13 8 -24
q0 -18 -14 -32.5t-33.5 -23.5t-38.5 -9q-11 0 -20.5 6t-14.5 15l-147 257l-146 -257q-5 -9 -14.5 -15t-20.5 -6z" />
    <glyph glyph-name="Y" unicode="Y" horiz-adv-x="572" 
d="M286 0q-24 0 -44.5 10.5t-20.5 30.5v252q0 7 -3 13l-207 358q-2 4 -2.5 7.5t-0.5 5.5q0 16 14 28t34 19t38 7q16 0 24 -6.5t15 -19.5l153 -289l152 289q8 13 16 19.5t24 6.5q18 0 37.5 -7t34 -19t14.5 -28q0 -2 -0.5 -5.5t-2.5 -7.5l-207 -358q-3 -6 -3 -13v-252
q0 -20 -20.5 -30.5t-44.5 -10.5z" />
    <glyph glyph-name="Z" unicode="Z" horiz-adv-x="520" 
d="M52 0q-20 0 -29.5 10t-9.5 26q0 21 14 45l297 536h-253q-19 0 -29.5 17t-10.5 40q0 21 9.5 39t30.5 18h380q20 0 29.5 -10t9.5 -25q0 -21 -15 -47l-296 -535h288q20 0 30.5 -18.5t10.5 -38.5t-10.5 -38.5t-30.5 -18.5h-415z" />
    <glyph glyph-name="bracketleft" unicode="[" horiz-adv-x="340" 
d="M112 -21q-21 0 -39 10.5t-18 30.5v707q0 20 18 30.5t39 10.5h172q21 0 31 -18t10 -38q0 -24 -10.5 -41t-30.5 -17h-99v-561h99q20 0 30.5 -17t10.5 -41q0 -20 -10 -38t-31 -18h-172z" />
    <glyph glyph-name="backslash" unicode="\" horiz-adv-x="373" 
d="M305 -1q-14 0 -25 7.5t-15 20.5l-242 670q-3 7 -3 14q0 17 14.5 30.5t34.5 13.5q13 0 23.5 -6t15.5 -20l242 -672q2 -3 2 -6v-6q0 -17 -14 -31.5t-33 -14.5z" />
    <glyph glyph-name="bracketright" unicode="]" horiz-adv-x="340" 
d="M56 -21q-21 0 -31 18t-10 38q0 24 11 41t30 17h99v561h-99q-19 0 -30 17t-11 41q0 20 10 38t31 18h171q23 0 40.5 -10.5t17.5 -30.5v-707q0 -20 -18 -30.5t-40 -10.5h-171z" />
    <glyph glyph-name="asciicircum" unicode="^" horiz-adv-x="285" 
d="M28 576q-12 0 -20 12.5t-8 27.5q0 11 5 21t17 16l104 56q9 5 17 5q7 0 17 -5l104 -55q12 -6 16.5 -16.5t4.5 -22.5q0 -14 -7.5 -26.5t-20.5 -12.5q-2 0 -5 1t-5 2l-104 56l-104 -56l-6 -2t-5 -1z" />
    <glyph glyph-name="underscore" unicode="_" horiz-adv-x="314" 
d="M-3 -107q-18 0 -29 15t-11 38t11 38.5t29 15.5h320q16 0 29 -15.5t13 -38.5t-13 -38t-29 -15h-320z" />
    <glyph glyph-name="grave" unicode="`" horiz-adv-x="202" 
d="M162 568q-4 0 -7 1.5t-7 2.5l-130 63q-18 9 -18 30q0 17 11.5 33t28.5 16q6 0 13 -2l132 -64q17 -9 17 -31q0 -16 -11.5 -32.5t-28.5 -16.5z" />
    <glyph glyph-name="a" unicode="a" horiz-adv-x="471" 
d="M152 -9q-53 0 -91.5 32.5t-38.5 100.5q0 57 29.5 89t82 45t121.5 13h41v13q0 22 -8.5 43t-27 35t-52.5 14q-38 0 -58.5 -7.5t-31.5 -15.5t-24 -8q-21 0 -32.5 21t-11.5 43q0 21 25.5 37.5t62.5 25.5t72 9q78 0 125 -28t68.5 -72t21.5 -95v-245q0 -17 -18 -29t-45 -12
q-25 0 -41.5 12t-16.5 29v29q-27 -31 -63.5 -55t-88.5 -24zM204 87q21 0 42 14t35.5 36t14.5 46v21h-15q-33 0 -63 -4t-48.5 -17.5t-18.5 -41.5t15.5 -41t37.5 -13z" />
    <glyph glyph-name="b" unicode="b" horiz-adv-x="519" 
d="M311 -9q-47 0 -85 24t-54 55v-29q0 -15 -16.5 -28t-41.5 -13q-27 0 -45 13t-18 28v671q0 18 18 29t45 11q28 0 47 -11t19 -29v-307q16 29 49 52.5t79 23.5q49 0 89.5 -27.5t64.5 -73.5t24 -102v-82q0 -53 -24 -100t-64 -76t-87 -29zM270 104q24 0 44 13.5t31.5 34.5
t11.5 44v82q0 23 -11.5 43t-31.5 33.5t-45 13.5q-21 0 -41.5 -11t-34 -31t-13.5 -48v-100q0 -10 12 -27.5t32.5 -32t45.5 -14.5z" />
    <glyph glyph-name="c" unicode="c" horiz-adv-x="433" 
d="M251 -9q-76 0 -124 27t-71 73.5t-23 104.5v80q0 58 22.5 104.5t71 73.5t122.5 27q47 0 83 -11t57 -29t21 -38q0 -11 -6.5 -26t-18 -26t-26.5 -11q-11 0 -22.5 7t-29.5 14t-48 7q-51 0 -74 -24.5t-23 -67.5v-80q0 -43 23 -67.5t75 -24.5q31 0 48 8t28.5 15t23.5 7
q18 0 30.5 -10t19 -24.5t6.5 -26.5q0 -20 -21.5 -39t-59 -31t-84.5 -12z" />
    <glyph glyph-name="d" unicode="d" horiz-adv-x="519" 
d="M208 -9q-47 0 -87 29t-64 76t-24 100v82q0 56 24 102t64 73.5t89 27.5q47 0 80 -23.5t49 -52.5v307q0 18 19 29t47 11q27 0 45 -11t18 -29v-671q0 -15 -18 -28t-45 -13q-24 0 -41 13t-17 28v29q-15 -31 -53.5 -55t-85.5 -24zM249 104q26 0 46 14.5t32 32t12 27.5v100
q0 28 -13.5 48t-34 31t-41.5 11q-24 0 -44.5 -13.5t-32 -33.5t-11.5 -43v-82q0 -23 11.5 -44t31.5 -34.5t44 -13.5z" />
    <glyph glyph-name="e" unicode="e" horiz-adv-x="485" 
d="M274 -9q-71 0 -125.5 25.5t-85.5 72t-31 107.5v85q0 54 29.5 99.5t79 73t110.5 27.5q56 0 102.5 -24t75.5 -66t29 -98q0 -43 -14 -61.5t-35.5 -23t-44.5 -4.5h-203v-15q0 -43 32.5 -69.5t84.5 -26.5q33 0 55 10t38 19t30 9q15 0 26 -10t17 -23.5t6 -23.5
q0 -17 -21.5 -36.5t-61 -33t-93.5 -13.5zM161 280h146q17 0 23.5 5.5t6.5 21.5q0 23 -12 41t-32 28t-44 10q-23 0 -43 -9.5t-32.5 -27t-12.5 -41.5v-28z" />
    <glyph glyph-name="f" unicode="f" horiz-adv-x="340" 
d="M114 0q-27 0 -45 11.5t-18 28.5v516q0 56 24 100.5t64 70t88 25.5h59q24 0 36.5 -17t12.5 -37q0 -22 -12.5 -38.5t-36.5 -16.5h-32q-21 0 -38 -9t-26.5 -25t-9.5 -39v-95h122q16 0 24.5 -14.5t8.5 -32.5t-8.5 -32.5t-24.5 -14.5h-122v-341q0 -17 -19.5 -28.5t-46.5 -11.5
z" />
    <glyph glyph-name="g" unicode="g" horiz-adv-x="471" 
d="M237 -221q-59 0 -109.5 16.5t-81 48.5t-30.5 76q0 38 21 64.5t52 41.5q-19 9 -30.5 24t-11.5 40q0 28 14.5 45.5t36.5 32.5q-30 23 -46 55.5t-16 71.5v21q0 49 24 86t68.5 58t102.5 21q33 0 62 -7.5t52 -21.5q17 40 32 54t29 14q24 0 37.5 -14t13.5 -26q0 -9 -4.5 -16
t-12.5 -12q-9 -6 -22 -14.5t-24 -23.5q18 -20 26.5 -44.5t8.5 -53.5v-21q0 -48 -25 -85.5t-70 -59.5t-103 -22q-36 0 -65 9q-5 -4 -8.5 -9t-3.5 -11q0 -17 22 -24t56 -11t72.5 -10.5t72.5 -20.5t56 -41.5t22 -73.5q0 -56 -31.5 -90.5t-81 -50.5t-105.5 -16zM235 -138
q39 0 66.5 19t27.5 51q0 21 -12 34t-32.5 19.5t-44.5 10t-48 6.5q-24 -11 -39 -28t-15 -41q0 -33 28.5 -52t68.5 -19zM233 206q33 0 52 25t19 64v21q0 37 -18.5 62t-53.5 25q-34 0 -52.5 -25t-18.5 -62v-20q0 -38 18.5 -64t53.5 -26z" />
    <glyph glyph-name="h" unicode="h" horiz-adv-x="524" 
d="M115 0q-28 0 -46 13t-18 28v671q0 18 18 29t46 11q27 0 46 -11t19 -29v-307q15 29 47 52.5t79 23.5t86 -27.5t62.5 -73.5t23.5 -102v-237q0 -20 -20 -30.5t-45 -10.5q-22 0 -43 10.5t-21 30.5v237q0 23 -12 43t-31.5 33.5t-43.5 13.5q-20 0 -39 -11t-31 -31t-12 -48v-237
q0 -15 -19 -28t-46 -13z" />
    <glyph glyph-name="i" unicode="i" horiz-adv-x="228" 
d="M114 581q-29 0 -50 19.5t-21 43.5q0 26 21 44.5t50 18.5q30 0 50 -18.5t20 -44.5q0 -24 -20 -43.5t-50 -19.5zM114 0q-28 0 -46 13t-18 28v394q0 18 18 29t46 11q27 0 46 -11t19 -29v-394q0 -15 -19 -28t-46 -13z" />
    <glyph glyph-name="j" unicode="j" horiz-adv-x="229" 
d="M28 -221q-40 0 -53.5 16.5t-13.5 36.5q0 26 14.5 41t34.5 15q18 0 26.5 10t11 28.5t2.5 41.5v467q0 18 18 29t45 11q28 0 47 -11t19 -29v-467q0 -55 -17 -98t-50.5 -67t-83.5 -24zM114 581q-29 0 -50 19.5t-21 43.5q0 26 21 44.5t50 18.5q30 0 50 -18.5t20 -44.5
q0 -24 -20 -43.5t-50 -19.5z" />
    <glyph glyph-name="k" unicode="k" horiz-adv-x="493" 
d="M114 0q-27 0 -45 13t-18 28v671q0 18 18 29t45 11q28 0 47 -11t19 -29v-419l189 177q10 10 25 10t29.5 -9.5t24 -23.5t9.5 -29q0 -6 -2.5 -12.5t-8.5 -11.5l-118 -107l148 -210q7 -11 7 -21q0 -15 -12 -30t-29 -24.5t-33 -9.5q-20 0 -32 17l-134 199l-63 -57v-110
q0 -15 -19 -28t-47 -13z" />
    <glyph glyph-name="l" unicode="l" horiz-adv-x="247" 
d="M123 0q-28 0 -46 13t-18 28v671q0 18 18 29t46 11q27 0 46 -11t19 -29v-671q0 -15 -19 -28t-46 -13z" />
    <glyph glyph-name="m" unicode="m" horiz-adv-x="803" 
d="M114 0q-28 0 -46 13t-18 28v394q0 18 18 29t46 11q24 0 40.5 -11t16.5 -29v-30q17 29 50 52.5t83 23.5q43 0 76 -28t49 -72q26 51 66.5 75.5t83.5 24.5q46 0 86.5 -23.5t66 -69t25.5 -110.5v-237q0 -15 -19 -28t-46 -13q-26 0 -45 13t-19 28v237q0 30 -11.5 50
t-30.5 30.5t-39 10.5t-37.5 -10.5t-29.5 -30.5t-12 -49v-239q0 -21 -20.5 -30.5t-44.5 -9.5q-22 0 -43 9.5t-21 30.5v238q0 28 -11.5 48t-30 31t-39.5 11q-20 0 -38 -10t-29.5 -30t-11.5 -50v-237q0 -15 -19 -28t-46 -13z" />
    <glyph glyph-name="n" unicode="n" horiz-adv-x="523" 
d="M114 0q-28 0 -46 13t-18 28v394q0 18 18 29t46 11q24 0 40.5 -11t16.5 -29v-30q15 29 49.5 52.5t84.5 23.5q47 0 86 -27.5t62.5 -73.5t23.5 -102v-237q0 -20 -20 -30.5t-45 -10.5q-22 0 -43 10.5t-21 30.5v237q0 23 -11.5 43t-31.5 33.5t-44 13.5q-20 0 -39 -11t-31 -31
t-12 -48v-237q0 -15 -19 -28t-46 -13z" />
    <glyph glyph-name="o" unicode="o" horiz-adv-x="497" 
d="M248 -9q-58 0 -107 28.5t-79 75.5t-30 101v82q0 54 29 100.5t78.5 74.5t108.5 28t108.5 -27.5t79 -73.5t29.5 -102v-82q0 -53 -30 -100t-79.5 -76t-107.5 -29zM248 104q24 0 44 13t32 34.5t12 44.5v82q0 23 -12 43t-31.5 33.5t-44.5 13.5q-24 0 -44 -13t-31.5 -33.5
t-11.5 -43.5v-82q0 -23 11.5 -44.5t31.5 -34.5t44 -13z" />
    <glyph glyph-name="p" unicode="p" horiz-adv-x="519" 
d="M114 -221q-27 0 -45 13t-18 28v615q0 18 18 29t44 11t42.5 -11t16.5 -29v-30q17 29 52 52.5t83 23.5q50 0 91 -27.5t64.5 -73.5t23.5 -102v-82q0 -53 -24 -100t-64 -76t-87 -29q-44 0 -80 24t-51 55v-250q0 -15 -19 -28t-47 -13zM269 104q24 0 43.5 13.5t32 34.5t12.5 44
v82q0 23 -12 43t-32.5 33.5t-45.5 13.5q-22 0 -41.5 -11t-32.5 -31t-13 -48v-100q0 -10 11.5 -27.5t31.5 -32t46 -14.5z" />
    <glyph glyph-name="q" unicode="q" horiz-adv-x="519" 
d="M405 -221q-28 0 -47 13t-19 28v250q-14 -31 -50.5 -55t-80.5 -24q-47 0 -87 29t-64 76t-24 100v82q0 56 23.5 102t64.5 73.5t91 27.5q48 0 83 -23.5t52 -52.5v30q0 18 16.5 29t42.5 11t44 -11t18 -29v-615q0 -15 -18 -28t-45 -13zM250 104q26 0 46 14.5t31.5 32
t11.5 27.5v100q0 28 -12.5 48t-32.5 31t-42 11q-25 0 -45.5 -13.5t-32.5 -33.5t-12 -43v-82q0 -23 12.5 -44t32.5 -34.5t43 -13.5z" />
    <glyph glyph-name="r" unicode="r" horiz-adv-x="375" 
d="M113 0q-27 0 -45 13t-18 28v394q0 18 18 29t45 11q25 0 41.5 -11t16.5 -29v-41q11 22 29.5 41.5t42.5 32.5t51 13h31q19 0 33 -16.5t14 -39.5q0 -24 -14 -40.5t-33 -16.5h-31q-28 0 -54.5 -18.5t-43.5 -51t-17 -78.5v-179q0 -15 -19 -28t-47 -13z" />
    <glyph glyph-name="s" unicode="s" horiz-adv-x="417" 
d="M205 -9q-50 0 -91.5 12.5t-65 32.5t-23.5 41q0 10 5.5 23.5t15 23.5t22.5 10q14 0 29.5 -11.5t39 -22.5t65.5 -11q45 0 59.5 14t14.5 29q0 22 -17.5 34t-44.5 20t-57.5 16.5t-57.5 23t-44 40t-17 66.5q0 36 17 70t56 56.5t106 22.5q41 0 77.5 -8.5t59.5 -23.5t23 -33
q0 -9 -6 -23.5t-16.5 -26.5t-25.5 -12q-11 0 -26.5 7.5t-35.5 14.5t-48 7q-25 0 -40 -7t-22 -17t-7 -21q0 -18 17 -28t44.5 -17t58 -15.5t58 -25t44.5 -43.5t17 -72q0 -66 -47.5 -106t-136.5 -40z" />
    <glyph glyph-name="t" unicode="t" horiz-adv-x="344" 
d="M233 0q-90 0 -137.5 39t-47.5 123v485q0 18 21 29t43 11q24 0 44.5 -11t20.5 -29v-172h118q16 0 24.5 -14.5t8.5 -32.5t-8.5 -32.5t-24.5 -14.5h-118v-219q0 -29 12.5 -41t43.5 -12h39q28 0 41.5 -17t13.5 -37q0 -21 -13.5 -38t-41.5 -17h-39z" />
    <glyph glyph-name="u" unicode="u" horiz-adv-x="524" 
d="M263 -9q-60 0 -109.5 28.5t-79 75t-29.5 99.5v240q0 15 19.5 28t45.5 13t45 -13t19 -28v-240q0 -23 12 -43t32 -33.5t44 -13.5q25 0 44.5 13t31.5 34t12 43v241q0 16 19.5 28t44.5 12q29 0 47 -12t18 -28v-241q0 -54 -29.5 -100.5t-79 -74.5t-107.5 -28z" />
    <glyph glyph-name="v" unicode="v" horiz-adv-x="479" 
d="M240 -11q-20 0 -37 6t-22 17l-171 396q-2 3 -3.5 8.5t-1.5 9.5q0 15 14.5 27.5t34.5 20t37 7.5q12 0 22.5 -5t14.5 -17l112 -290l111 288q4 13 14 18.5t23 5.5t33.5 -7.5t36.5 -20.5t16 -28q0 -5 -1 -9t-3 -8l-172 -396q-5 -11 -22 -17t-36 -6z" />
    <glyph glyph-name="w" unicode="w" horiz-adv-x="692" 
d="M215 -11q-17 0 -31 5t-19 19l-155 395q-2 7 -3 11.5t-1 7.5q0 16 13.5 27.5t33.5 18.5t36 7q13 0 23.5 -5t14.5 -16l100 -284l75 247q5 17 17 21.5t27 4.5t27 -4.5t17 -21.5l74 -248l101 285q7 21 36 21q16 0 36 -7t34 -19t14 -28q0 -4 -1 -9t-3 -9l-155 -396
q-5 -13 -19 -18t-31 -5q-18 0 -33 6t-20 17l-77 218l-77 -217q-3 -12 -19 -18t-35 -6z" />
    <glyph glyph-name="x" unicode="x" horiz-adv-x="469" 
d="M102 -9q-13 0 -32.5 9.5t-34.5 24.5t-15 30q0 11 8 22l118 165l-110 153q-2 3 -5 9t-3 12q0 15 14.5 30t34.5 25t37 10q5 0 14 -2.5t15 -11.5l91 -146l92 145q5 9 14 12t17 3q15 0 35 -10t34.5 -24.5t14.5 -30.5q0 -9 -8 -21l-111 -154l119 -164q3 -3 5.5 -9t2.5 -13
q0 -14 -14 -28.5t-33 -25t-37 -10.5q-8 0 -16.5 3t-13.5 11l-101 152l-100 -152q-5 -7 -14.5 -10.5t-17.5 -3.5z" />
    <glyph glyph-name="y" unicode="y" horiz-adv-x="474" 
d="M64 -221q-25 0 -42 9.5t-17 45.5q0 22 7.5 38t25.5 16q17 0 39.5 6t45.5 22.5t39 45t19 73.5l-172 368q-4 9 -4 17q0 17 14.5 31t34.5 22.5t37 8.5q12 0 22.5 -5t14.5 -17l120 -299l96 299q5 12 15 17t20 5q15 0 36 -8.5t36.5 -23t15.5 -32.5q0 -9 -3 -15l-146 -373
q-18 -45 -35 -89.5t-42.5 -81t-67.5 -58.5t-109 -22z" />
    <glyph glyph-name="z" unicode="z" horiz-adv-x="434" 
d="M64 0q-24 0 -34 14.5t-10 31.5q0 15 6.5 28.5t15.5 23.5l196 272h-172q-16 0 -27.5 15.5t-11.5 37.5q0 21 11 36.5t28 15.5h294q17 0 29 -11t12 -33q0 -27 -20 -54l-197 -272h195q16 0 27.5 -15.5t11.5 -37.5q0 -21 -10.5 -36.5t-28.5 -15.5h-315z" />
    <glyph glyph-name="braceleft" unicode="{" horiz-adv-x="359" 
d="M272 -20q-51 0 -99 20.5t-78.5 57t-30.5 83.5q0 11 2 28.5t4.5 39.5t4.5 43t4 36.5t2 22.5q0 15 -9 20.5t-21 9t-21 13t-9 32.5t9 32.5t21 13t21 8t9 19.5q0 8 -3 25.5t-5.5 38.5t-5.5 41t-3 32q0 34 18 65t48.5 55t67.5 38t76 14q42 0 57 -18.5t15 -38.5
q0 -19 -10.5 -36t-30.5 -17t-46 -8t-45.5 -25.5t-19.5 -45.5q0 -10 3 -28.5t5.5 -40.5t5.5 -40t3 -27q0 -21 -13.5 -38.5t-22.5 -20.5q11 -3 23.5 -20t12.5 -38q0 -9 -3 -33t-5.5 -52.5t-5.5 -52t-3 -32.5q0 -20 12 -32.5t30 -20t36.5 -10.5t32.5 -3q17 0 25.5 -9t12 -21.5
t3.5 -23.5q0 -29 -19 -42.5t-55 -13.5z" />
    <glyph glyph-name="bar" unicode="|" horiz-adv-x="240" 
d="M119 -21q-28 0 -46 13t-18 28v708q0 17 18 28.5t46 11.5q27 0 46 -11.5t19 -28.5v-708q0 -15 -19 -28t-46 -13z" />
    <glyph glyph-name="braceright" unicode="}" horiz-adv-x="359" 
d="M87 -20q-35 0 -54 13.5t-19 42.5q0 11 3.5 23.5t12.5 21.5t24 9q14 0 33 3t36.5 10.5t29.5 20t12 32.5q0 9 -2.5 32.5t-5.5 52t-5.5 52.5t-2.5 33q0 21 12.5 38t22.5 20q-9 3 -22 20.5t-13 38.5q0 9 2.5 27t5.5 40t5.5 40.5t2.5 28.5q0 28 -19 45.5t-45 25.5t-47 8
q-20 0 -30 17t-10 36q0 20 14.5 38.5t57.5 18.5q39 0 76.5 -14t67 -38t47.5 -55t18 -65q0 -12 -2.5 -32t-5.5 -41l-5.5 -38.5t-2.5 -25.5q0 -15 9 -19.5t21 -8t21 -13t9 -32.5t-9 -32.5t-21 -13t-21 -9t-9 -20.5q0 -7 1.5 -22.5t4 -36.5t5 -43t4 -39.5t1.5 -28.5
q0 -47 -30.5 -83.5t-78 -57t-99.5 -20.5z" />
    <glyph glyph-name="asciitilde" unicode="~" horiz-adv-x="409" 
d="M291 199q-33 0 -56 7.5t-42.5 14.5t-44.5 7q-21 0 -35.5 -6t-25 -12t-21.5 -6q-12 0 -19.5 8t-10.5 18.5t-3 15.5q0 23 10.5 36.5t24.5 20.5t28.5 9t22.5 2q30 0 51.5 -7t43 -14.5t47.5 -7.5q22 0 36 6t24.5 12t21.5 6q13 0 20 -8.5t9.5 -18.5t2.5 -15q0 -24 -10 -37
t-24 -20t-28 -9t-22 -2z" />
    <glyph glyph-name="uni00A0" unicode="&#xa0;" horiz-adv-x="200" 
 />
    <glyph glyph-name="exclamdown" unicode="&#xa1;" horiz-adv-x="221" 
d="M110 -6q-25 0 -43.5 14.5t-18.5 39.5q0 67 3.5 144t6.5 154t3 143q0 20 17 29t32 9q20 0 35 -9t15 -29q0 -66 3.5 -143t6.5 -154t3 -144q0 -25 -18 -39.5t-45 -14.5zM110 598q-28 0 -48 20.5t-20 48.5q0 27 20 47.5t48 20.5t47.5 -20.5t19.5 -47.5q0 -28 -19.5 -48.5
t-47.5 -20.5z" />
    <glyph glyph-name="cent" unicode="&#xa2;" horiz-adv-x="439" 
d="M247 39q-15 0 -26 11.5t-11 25.5v81q-96 9 -139.5 66t-43.5 138v18q0 54 19.5 97.5t60 72t103.5 34.5v77q0 15 11 25t26 10t27 -10t12 -25v-79q34 -4 61 -15.5t42.5 -26.5t15.5 -32q0 -12 -6.5 -26.5t-18 -23.5t-26.5 -9q-8 0 -17 5t-20.5 11.5t-30.5 9.5v-207
q18 4 29.5 11t20.5 12t18 5q26 0 41 -19.5t15 -38.5q0 -18 -17 -34t-44.5 -27.5t-62.5 -17.5v-82q0 -14 -12 -25.5t-27 -11.5zM210 265v209q-36 -8 -53 -32.5t-17 -62.5v-18q0 -38 17 -62.5t53 -33.5z" />
    <glyph glyph-name="sterling" unicode="&#xa3;" horiz-adv-x="542" 
d="M60 0q-19 0 -29 18t-10 39q0 22 10 39.5t29 17.5h53l35 252h-55q-17 0 -25.5 14.5t-8.5 32.5q0 17 8.5 32t25.5 15h69l13 95q10 62 47 110.5t92 75.5t116 27h36q21 0 32 -17.5t11 -38.5t-11 -39t-32 -18h-41q-36 0 -61.5 -13.5t-40 -36t-19.5 -50.5l-13 -95h119
q16 0 24.5 -15t8.5 -32q0 -18 -8.5 -32.5t-24.5 -14.5h-133l-36 -252h229q20 0 29.5 -17.5t9.5 -39.5q0 -21 -9.5 -39t-29.5 -18h-410z" />
    <glyph glyph-name="currency" unicode="&#xa4;" horiz-adv-x="451" 
d="M226 290q-31 0 -59.5 11t-51.5 31l-26 -24q-6 -5 -13 -5q-11 0 -19.5 9t-8.5 19q0 7 5 13l28 26q-15 22 -23.5 48t-8.5 54t8.5 54t23.5 48l-26 25q-6 5 -6 13q0 10 8.5 19t19.5 9q8 0 14 -5l24 -23q23 18 51 29t60 11q30 0 58 -10.5t51 -28.5l25 23q6 5 14 5
q10 0 18.5 -9t8.5 -19q0 -7 -5 -13l-27 -25q16 -21 25.5 -47.5t9.5 -54.5q0 -29 -9.5 -55.5t-25.5 -48.5l27 -25q5 -7 5 -13q0 -10 -8.5 -19t-18.5 -9q-8 0 -14 5l-25 23q-23 -19 -51 -30t-58 -11zM226 362q29 0 53.5 15.5t39 41t14.5 52.5q0 28 -14.5 53t-38.5 40.5
t-54 15.5t-54 -15t-38 -40t-14 -53t14 -53.5t38 -41t54 -15.5z" />
    <glyph glyph-name="yen" unicode="&#xa5;" horiz-adv-x="564" 
d="M281 0q-24 0 -44.5 10.5t-20.5 30.5v114h-90q-18 0 -29 12.5t-11 31.5q0 20 11 33.5t29 13.5h90v64h-90q-18 0 -29 12.5t-11 31.5q0 20 11 33.5t29 13.5h61l-161 266q-3 4 -3.5 8.5t-0.5 7.5q0 13 12 25.5t30 20t35 7.5q14 0 22 -8.5t15 -21.5l145 -271l148 271
q7 13 15 21.5t21 8.5q17 0 35 -8t30 -20t12 -25q0 -9 -4 -16l-163 -266h65q15 0 28 -13t13 -33q0 -19 -13 -32t-28 -13h-94v-64h94q15 0 28 -13t13 -33t-13 -32.5t-28 -12.5h-94v-114q0 -20 -20 -30.5t-45 -10.5z" />
    <glyph glyph-name="brokenbar" unicode="&#xa6;" horiz-adv-x="240" 
d="M120 436q-29 0 -47 13t-18 29v250q0 17 18 28.5t47 11.5q26 0 45.5 -11.5t19.5 -28.5v-250q0 -16 -19.5 -29t-45.5 -13zM120 -21q-29 0 -47 13t-18 28v250q0 18 18 29.5t47 11.5q26 0 45.5 -11.5t19.5 -29.5v-250q0 -15 -19.5 -28t-45.5 -13z" />
    <glyph glyph-name="section" unicode="&#xa7;" horiz-adv-x="480" 
d="M235 -68q-63 0 -107 25t-65.5 63t-21.5 79q0 30 14.5 40.5t40.5 10.5q32 0 43.5 -10.5t11.5 -25.5q0 -11 3 -24t10.5 -24.5t22.5 -19t41 -7.5q44 0 63.5 21t19.5 51q0 26 -14.5 42.5t-38.5 29t-52.5 24.5t-56.5 27.5t-51.5 38.5t-38 57.5t-14.5 86.5v107q0 63 18.5 103
t48 63t63.5 32t65 9q61 0 101.5 -24.5t60 -62.5t19.5 -80q0 -31 -13.5 -41t-35.5 -10q-31 0 -43 12.5t-12 30.5q0 14 -5.5 30.5t-21.5 28t-46 11.5q-25 0 -43 -9.5t-27.5 -26t-9.5 -39.5q0 -26 15 -43t39.5 -29.5t54.5 -24.5t59 -27t54 -38t40 -58t15 -86v-107
q0 -61 -18.5 -101t-49.5 -63t-67 -32.5t-71 -9.5zM335 240v21q0 32 -13.5 52t-35 33t-46.5 22.5t-48 19t-40 24.5v-21q0 -32 13.5 -52t35 -33t46.5 -22.5t48 -19t40 -24.5z" />
    <glyph glyph-name="dieresis" unicode="&#xa8;" horiz-adv-x="251" 
d="M201 577q-21 0 -36.5 16t-15.5 37t15.5 36.5t36.5 15.5q20 0 35 -15.5t15 -36.5t-15 -37t-35 -16zM51 577q-21 0 -36 16t-15 37t15 36.5t36 15.5t35.5 -15.5t14.5 -36.5t-14.5 -37t-35.5 -16z" />
    <glyph glyph-name="copyright" unicode="&#xa9;" horiz-adv-x="690" 
d="M342 35q-53 0 -106.5 20t-98.5 60t-72 101t-27 142q0 84 28.5 145.5t74.5 101.5t100.5 60t106.5 20q53 0 106.5 -20t98.5 -60t72 -101t27 -142q0 -84 -28.5 -145.5t-74.5 -101.5t-100.5 -60t-106.5 -20zM342 97q74 0 129.5 33.5t87 93.5t31.5 138q0 76 -29.5 135
t-84 92.5t-128.5 33.5q-73 0 -129 -33.5t-87 -93t-31 -138.5q0 -75 29.5 -134.5t83.5 -93t128 -33.5zM346 170q-49 0 -84 29t-35 99v138q0 70 35.5 99t83.5 29q54 0 88.5 -28.5t34.5 -77.5q0 -22 -8.5 -29t-26.5 -7q-14 0 -24.5 5.5t-11.5 17.5q0 9 -3 21.5t-13 22.5t-33 10
q-51 0 -51 -63v-138q0 -63 51 -63q22 0 32 10t13 23.5t4 25.5q1 13 11 17.5t25 4.5q18 0 26.5 -7t8.5 -29q0 -51 -34.5 -80.5t-88.5 -29.5z" />
    <glyph glyph-name="ordfeminine" unicode="&#xaa;" horiz-adv-x="331" 
d="M137 436q-7 -1 -15 -2t-15 0q-33 1 -57.5 22t-24.5 65q0 57 43.5 77.5t112.5 20.5h26v9q0 22 -12.5 42t-44.5 20q-27 0 -40 -5.5t-20.5 -11t-16.5 -5.5q-14 0 -21.5 14.5t-7.5 29.5q0 14 17 24.5t42 17t48 6.5q52 0 83 -18.5t45.5 -48.5t14.5 -64v-163q0 -11 -12 -19
t-31 -8q-16 0 -27 8t-11 19v20q-14 -17 -33 -30.5t-43 -19.5zM147 497q14 0 28 9t23 23.5t9 31.5v13h-20q-20 0 -37 -3.5t-27.5 -12t-10.5 -25.5q0 -19 9.5 -27.5t25.5 -8.5z" />
    <glyph glyph-name="guillemotleft" unicode="&#xab;" horiz-adv-x="499" 
d="M385 74q-27 0 -36 17l-73 136q-10 19 -16.5 28.5t-6.5 20.5q0 12 6.5 22.5t16.5 28.5l73 136q9 17 36 17q22 0 40.5 -10.5t29.5 -25.5t11 -29q0 -7 -3 -12l-67 -126l67 -125q3 -6 3 -13q0 -13 -11.5 -28.5t-30 -26t-39.5 -10.5zM158 74q-28 0 -37 17l-73 136
q-10 19 -16.5 28.5t-6.5 20.5q0 12 6.5 22.5t16.5 28.5l73 136q9 17 37 17q21 0 39.5 -10.5t29.5 -25.5t11 -29q0 -7 -3 -12l-67 -126l67 -125q3 -6 3 -13q0 -13 -11 -28.5t-29.5 -26t-39.5 -10.5z" />
    <glyph glyph-name="logicalnot" unicode="&#xac;" horiz-adv-x="499" 
d="M385 163q-28 0 -46 13t-18 28v83h-247q-18 0 -29 15t-11 38t11 38.5t29 15.5h334q16 0 29 -15.5t13 -38.5v-136q0 -15 -19 -28t-46 -13z" />
    <glyph glyph-name="uni00AD" unicode="&#xad;" horiz-adv-x="471" 
d="M76 187q-18 0 -29.5 15t-11.5 38t11.5 38.5t29.5 15.5h320q15 0 28 -15.5t13 -38.5t-13 -38t-28 -15h-320z" />
    <glyph glyph-name="registered" unicode="&#xae;" horiz-adv-x="690" 
d="M342 35q-53 0 -106.5 20t-98.5 60t-72 101t-27 142q0 84 28.5 145.5t74.5 101.5t100.5 60t106.5 20q53 0 106.5 -20t98.5 -60t72 -101t27 -142q0 -84 -28.5 -145.5t-74.5 -101.5t-100.5 -60t-106.5 -20zM342 97q74 0 129.5 33.5t87 93.5t31.5 138q0 76 -29.5 135
t-84 92.5t-128.5 33.5q-73 0 -129 -33.5t-87 -93t-31 -138.5q0 -75 29.5 -134.5t83.5 -93t128 -33.5zM437 178q-7 0 -12.5 4.5t-9.5 13.5l-65 133h-44v-126q0 -11 -9.5 -17.5t-23.5 -6.5q-13 0 -24 6t-11 18v325q0 9 6.5 15.5t16.5 7.5h97q32 0 58.5 -10t42.5 -33.5
t16 -64.5q0 -42 -18.5 -67.5t-45.5 -35.5l61 -119q1 -2 1 -7q0 -14 -12 -25t-24 -11zM306 386h52q24 0 37.5 12t13.5 38q0 31 -13.5 43t-37.5 12h-52v-105z" />
    <glyph glyph-name="uni0304" unicode="&#xaf;" horiz-adv-x="0" 
d="M40 610q-17 0 -28.5 12t-11.5 30t11.5 30.5t28.5 12.5h205q15 0 28 -12.5t13 -30.5t-13 -30t-28 -12h-205z" />
    <glyph glyph-name="degree" unicode="&#xb0;" horiz-adv-x="398" 
d="M198 406q-47 0 -87.5 25.5t-65 67t-24.5 89.5t24 89t64.5 66t88.5 25t88.5 -24.5t65 -65t24.5 -89.5q0 -48 -24.5 -90t-65 -67.5t-88.5 -25.5zM198 478q30 0 54.5 15.5t38.5 41t14 52.5q0 28 -14 53t-38 40.5t-54 15.5t-54 -15.5t-38.5 -40t-14.5 -52.5t14 -53.5
t38.5 -41t53.5 -15.5z" />
    <glyph glyph-name="plusminus" unicode="&#xb1;" horiz-adv-x="474" 
d="M237 176q-22 0 -38 11t-16 29v99h-107q-18 0 -29 15t-11 38t11 39t29 16h107v98q0 15 16 28t38 13q25 0 39 -13t14 -28v-98h106q16 0 29 -16t13 -39t-13 -38t-29 -15h-106v-99q0 -18 -14 -29t-39 -11zM76 32q-18 0 -29 15t-11 38t11 38.5t29 15.5h320q16 0 29 -15.5
t13 -38.5t-13 -38t-29 -15h-320z" />
    <glyph glyph-name="uni00B2" unicode="&#xb2;" horiz-adv-x="320" 
d="M61 331q-11 0 -24.5 7.5t-13.5 19.5v53q0 26 19 47.5t47 41t56 38t47 37.5t19 40q0 13 -11.5 26t-37.5 13q-20 0 -34 -9.5t-14 -31.5q0 -11 -12 -21t-33 -10q-16 0 -27.5 9t-11.5 35q0 33 19 56.5t49 36t63 12.5q35 0 66 -13t50.5 -38t19.5 -62q0 -35 -18.5 -61.5
t-46 -46t-55 -36t-46 -30.5t-18.5 -28v-10h158q10 0 18 -11t8 -26q0 -14 -8 -26t-18 -12h-210z" />
    <glyph glyph-name="uni00B3" unicode="&#xb3;" horiz-adv-x="329" 
d="M158 328q-50 0 -80.5 16.5t-44.5 40.5t-14 47q0 19 9 25t32 6q27 0 35.5 -6.5t8.5 -21.5q0 -12 7.5 -19t20.5 -10t29 -3q31 0 44 11.5t13 37.5v10q0 28 -16.5 35.5t-43.5 7.5q-14 0 -19.5 10.5t-5.5 22.5t5.5 22.5t19.5 11.5q19 1 34 7.5t15 38.5q0 24 -12.5 32t-34.5 8
q-16 0 -26.5 -3t-15.5 -8.5t-5 -16.5q0 -14 -8 -22.5t-32 -8.5q-30 0 -37.5 7t-7.5 27q0 22 12 44.5t41 38t80 15.5q56 0 92.5 -21.5t36.5 -77.5q0 -29 -12 -54.5t-34 -35.5q26 -9 43 -28t17 -52v-10q0 -45 -20 -72.5t-53 -39.5t-73 -12z" />
    <glyph glyph-name="acute" unicode="&#xb4;" horiz-adv-x="202" 
d="M40 568q-16 0 -28 16.5t-12 32.5q0 22 17 31l132 64q7 2 13 2q17 0 28.5 -16t11.5 -33q0 -21 -18 -30l-130 -63q-4 -1 -7 -2.5t-7 -1.5z" />
    <glyph glyph-name="uni03BC" unicode="&#xb5;" horiz-adv-x="518" 
d="M120 -221q-28 0 -45.5 12.5t-17.5 28.5v614q0 15 19 28t45 13t45.5 -13t19.5 -28v-245q0 -14 6.5 -29.5t19.5 -27.5t28.5 -20t33.5 -8q23 0 43 13.5t31.5 34t11.5 42.5v240q0 17 19.5 29t44.5 12q29 0 47 -12t18 -29v-240q0 -54 -29.5 -100.5t-78 -74.5t-107.5 -28
q-31 0 -57.5 11.5t-46.5 27.5v-210q0 -16 -15 -28.5t-35 -12.5z" />
    <glyph glyph-name="paragraph" unicode="&#xb6;" horiz-adv-x="559" 
d="M287 0q-15 0 -28 10.5t-13 30.5v265h-25q-55 0 -99.5 20.5t-70.5 66t-26 120.5v12q0 75 26 120t70.5 65.5t99.5 20.5h232q16 0 29 -10.5t13 -30.5v-650q0 -21 -13 -30.5t-29 -9.5q-15 0 -28 9.5t-13 30.5v632h-83v-631q0 -20 -13 -30.5t-29 -10.5z" />
    <glyph glyph-name="periodcentered" unicode="&#xb7;" horiz-adv-x="205" 
d="M103 236q-30 0 -51 19.5t-21 44.5q0 26 21 44.5t51 18.5t50.5 -18.5t20.5 -44.5q0 -25 -20.5 -44.5t-50.5 -19.5z" />
    <glyph glyph-name="cedilla" unicode="&#xb8;" horiz-adv-x="190" 
d="M85 -216q-17 0 -36.5 3t-34 10t-14.5 16q0 4 2.5 12.5t7.5 16.5t13 8t20.5 -7t37.5 -7q22 0 34.5 8.5t12.5 24.5q0 15 -11.5 25t-36.5 12l-55 5l28 98h57l-19 -60q51 -2 75 -24t24 -53q0 -17 -9.5 -38t-32.5 -35.5t-63 -14.5z" />
    <glyph glyph-name="uni00B9" unicode="&#xb9;" horiz-adv-x="192" 
d="M109 331q-16 0 -30 6.5t-14 20.5v278l-17 -10q-8 -4 -15 -4q-11 0 -19 10.5t-8 22.5q0 10 3.5 17.5t11.5 12.5l76 44q7 4 16 4q14 0 26.5 -7.5t12.5 -20.5v-347q0 -14 -13.5 -20.5t-29.5 -6.5z" />
    <glyph glyph-name="ordmasculine" unicode="&#xba;" horiz-adv-x="343" 
d="M171 432q-39 0 -71.5 19.5t-52.5 51t-20 66.5v55q0 37 19.5 67.5t52 49.5t72.5 19q39 0 72 -18.5t53 -49.5t20 -68v-55q0 -35 -20 -66.5t-53 -51t-72 -19.5zM171 508q24 0 41.5 19t17.5 43v54q0 23 -17 41.5t-42 18.5t-41.5 -18.5t-16.5 -41.5v-54q0 -24 16.5 -43
t41.5 -19z" />
    <glyph glyph-name="guillemotright" unicode="&#xbb;" horiz-adv-x="499" 
d="M341 74q-21 0 -39.5 10.5t-29.5 26t-11 28.5q0 7 3 13l67 125l-67 126q-3 5 -3 12q0 14 11 29t29.5 25.5t39.5 10.5q29 0 36 -17l74 -136q10 -18 16.5 -28.5t6.5 -22.5q0 -11 -6.5 -20.5t-16.5 -28.5l-74 -136q-8 -17 -36 -17zM114 74q-21 0 -40 10.5t-30 26t-11 28.5
q0 7 3 13l67 125l-67 126q-3 5 -3 12q0 14 11 29t29.5 25.5t39.5 10.5q29 0 37 -17l73 -136q10 -18 16.5 -28.5t6.5 -22.5q0 -11 -6.5 -20.5t-16.5 -28.5l-73 -136q-8 -17 -36 -17z" />
    <glyph glyph-name="onequarter" unicode="&#xbc;" horiz-adv-x="690" 
d="M109 331q-16 0 -30 6.5t-14 20.5v278l-17 -10q-8 -4 -15 -4q-11 0 -19 10.5t-8 22.5q0 10 3.5 17.5t11.5 12.5l76 44q7 4 16 4q14 0 26.5 -7.5t12.5 -20.5v-347q0 -14 -13.5 -20.5t-29.5 -6.5zM107 -40q-21 0 -34.5 14t-13.5 30q0 9 5 17l359 729q10 21 36 21
q18 0 34 -12.5t16 -32.5q0 -10 -4 -18l-360 -726q-4 -10 -15 -16t-23 -6zM589 0q-16 0 -29 6.5t-13 19.5v58h-140q-12 0 -20.5 7.5t-8.5 22.5q0 8 4 16l138 248q7 12 16.5 17t20.5 5t27 -9t16 -23q0 -6 -3 -11l-109 -194h59v38q0 14 13 20t29 6q18 0 31 -6t13 -20v-38h26
q14 0 20.5 -12t6.5 -27t-8.5 -27.5t-18.5 -12.5h-26v-58q0 -13 -13 -19.5t-31 -6.5z" />
    <glyph glyph-name="onehalf" unicode="&#xbd;" horiz-adv-x="695" 
d="M109 331q-16 0 -30 6.5t-14 20.5v278l-17 -10q-8 -4 -15 -4q-11 0 -19 10.5t-8 22.5q0 10 3.5 17.5t11.5 12.5l76 44q7 4 16 4q14 0 26.5 -7.5t12.5 -20.5v-347q0 -14 -13.5 -20.5t-29.5 -6.5zM107 -40q-21 0 -34.5 14t-13.5 30q0 9 5 17l359 729q10 21 36 21
q18 0 34 -12.5t16 -32.5q0 -10 -4 -18l-360 -726q-4 -10 -15 -16t-23 -6zM436 0q-11 0 -24.5 7.5t-13.5 18.5v54q0 26 19 47.5t47 41t56 38t47 37.5t19 40q0 13 -11.5 25.5t-37.5 12.5q-20 0 -34 -9.5t-14 -31.5q0 -11 -12 -21t-33 -10q-16 0 -27.5 9.5t-11.5 35.5
q0 33 19 56.5t49 36t63 12.5q35 0 66 -13t50.5 -38.5t19.5 -62.5q0 -34 -18.5 -60.5t-46 -46.5t-55 -36t-46 -30t-18.5 -29v-9h158q10 0 18 -11t8 -26t-8 -26.5t-18 -11.5h-210z" />
    <glyph glyph-name="threequarters" unicode="&#xbe;" horiz-adv-x="828" 
d="M158 328q-50 0 -80.5 16.5t-44.5 40.5t-14 47q0 19 9 25t32 6q27 0 35.5 -6.5t8.5 -21.5q0 -12 7.5 -19t20.5 -10t29 -3q31 0 44 11.5t13 37.5v10q0 28 -16.5 35.5t-43.5 7.5q-14 0 -19.5 10.5t-5.5 22.5t5.5 22.5t19.5 11.5q19 1 34 7.5t15 38.5q0 24 -12.5 32t-34.5 8
q-16 0 -26.5 -3t-15.5 -8.5t-5 -16.5q0 -14 -8 -22.5t-32 -8.5q-30 0 -37.5 7t-7.5 27q0 22 12 44.5t41 38t80 15.5q56 0 92.5 -21.5t36.5 -77.5q0 -29 -12 -54.5t-34 -35.5q26 -9 43 -28t17 -52v-10q0 -45 -20 -72.5t-53 -39.5t-73 -12zM244 -40q-21 0 -34.5 14t-13.5 30
q0 9 5 17l359 729q10 21 36 21q18 0 34 -12.5t16 -32.5q0 -10 -4 -18l-360 -726q-4 -10 -15 -16t-23 -6zM727 0q-16 0 -29 6.5t-13 19.5v58h-140q-12 0 -20.5 7.5t-8.5 22.5q0 8 4 16l138 248q7 12 16.5 17t20.5 5t27 -9t16 -23q0 -6 -3 -11l-109 -194h59v38q0 14 13 20
t29 6q18 0 31 -6t13 -20v-38h26q14 0 20.5 -12t6.5 -27t-8.5 -27.5t-18.5 -12.5h-26v-58q0 -13 -13 -19.5t-31 -6.5z" />
    <glyph glyph-name="questiondown" unicode="&#xbf;" horiz-adv-x="437" 
d="M232 -6q-64 0 -110.5 22t-71.5 60.5t-25 86.5q0 38 14.5 69.5t34.5 56t39.5 42t30.5 27.5q25 21 35 40t12 41.5t2 51.5q0 13 10 24.5t40 11.5q26 0 36.5 -12t10.5 -44q0 -47 -9 -77t-23 -49t-28 -33q-13 -12 -30 -25t-32.5 -29t-25.5 -36t-10 -46q0 -41 29 -63t74 -22
q36 0 55.5 10t29.5 24t19.5 24.5t26.5 10.5t33.5 -12t16.5 -36t-20.5 -51.5t-61.5 -47t-102 -19.5zM243 598q-28 0 -48 20.5t-20 48.5q0 27 19.5 47.5t48.5 20.5q28 0 47.5 -20.5t19.5 -47.5q0 -28 -19.5 -48.5t-47.5 -20.5z" />
    <glyph glyph-name="Agrave" unicode="&#xc0;" 
d="M91 0q-18 0 -37 7t-32 19t-13 28q0 3 1 10l193 629q7 22 31.5 33t52.5 11q29 0 53 -11t31 -33l193 -629q2 -7 2 -10q0 -15 -13.5 -27.5t-32.5 -19.5t-37 -7q-16 0 -27.5 5.5t-15.5 20.5l-38 133h-230l-37 -133q-4 -15 -16 -20.5t-28 -5.5zM200 261h174l-87 307zM328 811
q-4 0 -7 1.5t-7 2.5l-130 63q-18 9 -18 30q0 17 11.5 33t28.5 16q6 0 13 -2l132 -64q17 -9 17 -31q0 -16 -11.5 -32.5t-28.5 -16.5z" />
    <glyph glyph-name="Aacute" unicode="&#xc1;" 
d="M91 0q-18 0 -37 7t-32 19t-13 28q0 3 1 10l193 629q7 22 31.5 33t52.5 11q29 0 53 -11t31 -33l193 -629q2 -7 2 -10q0 -15 -13.5 -27.5t-32.5 -19.5t-37 -7q-16 0 -27.5 5.5t-15.5 20.5l-38 133h-230l-37 -133q-4 -15 -16 -20.5t-28 -5.5zM200 261h174l-87 307zM254 811
q-16 0 -28 16.5t-12 32.5q0 22 17 31l132 64q7 2 13 2q17 0 28.5 -16t11.5 -33q0 -21 -18 -30l-130 -63q-4 -1 -7 -2.5t-7 -1.5z" />
    <glyph glyph-name="Acircumflex" unicode="&#xc2;" 
d="M91 0q-18 0 -37 7t-32 19t-13 28q0 3 1 10l193 629q7 22 31.5 33t52.5 11q29 0 53 -11t31 -33l193 -629q2 -7 2 -10q0 -15 -13.5 -27.5t-32.5 -19.5t-37 -7q-16 0 -27.5 5.5t-15.5 20.5l-38 133h-230l-37 -133q-4 -15 -16 -20.5t-28 -5.5zM200 261h174l-87 307zM173 819
q-12 0 -20 12.5t-8 27.5q0 11 5 21t17 16l104 56q9 5 17 5q7 0 17 -5l104 -55q12 -6 16.5 -16.5t4.5 -22.5q0 -14 -7.5 -26.5t-20.5 -12.5q-2 0 -5 1t-5 2l-104 56l-104 -56l-6 -2t-5 -1z" />
    <glyph glyph-name="Atilde" unicode="&#xc3;" 
d="M91 0q-18 0 -37 7t-32 19t-13 28q0 3 1 10l193 629q7 22 31.5 33t52.5 11q29 0 53 -11t31 -33l193 -629q2 -7 2 -10q0 -15 -13.5 -27.5t-32.5 -19.5t-37 -7q-16 0 -27.5 5.5t-15.5 20.5l-38 133h-230l-37 -133q-4 -15 -16 -20.5t-28 -5.5zM200 261h174l-87 307zM373 831
q-32 0 -55 7.5t-42.5 14.5t-44.5 7q-21 0 -35.5 -6t-25.5 -12t-21 -6q-13 0 -20 8t-10 18.5t-3 15.5q0 23 10 36.5t24.5 20.5t29 9t22.5 2q30 0 51 -7t42.5 -14.5t48.5 -7.5q21 0 35 6t25 12t21 6q14 0 20.5 -8.5t9.5 -18.5t3 -15q0 -24 -10 -37t-24 -20t-28.5 -9t-22.5 -2z
" />
    <glyph glyph-name="Adieresis" unicode="&#xc4;" 
d="M91 0q-18 0 -37 7t-32 19t-13 28q0 3 1 10l193 629q7 22 31.5 33t52.5 11q29 0 53 -11t31 -33l193 -629q2 -7 2 -10q0 -15 -13.5 -27.5t-32.5 -19.5t-37 -7q-16 0 -27.5 5.5t-15.5 20.5l-38 133h-230l-37 -133q-4 -15 -16 -20.5t-28 -5.5zM200 261h174l-87 307zM362 820
q-21 0 -36.5 16t-15.5 37t15.5 36.5t36.5 15.5q20 0 35 -15.5t15 -36.5t-15 -37t-35 -16zM212 820q-21 0 -36 16t-15 37t15 36.5t36 15.5t35.5 -15.5t14.5 -36.5t-14.5 -37t-35.5 -16z" />
    <glyph glyph-name="Aring" unicode="&#xc5;" 
d="M91 0q-18 0 -37 7t-32 19t-13 28q0 3 1 10l193 629q7 22 31.5 33t52.5 11q29 0 53 -11t31 -33l193 -629q2 -7 2 -10q0 -15 -13.5 -27.5t-32.5 -19.5t-37 -7q-16 0 -27.5 5.5t-15.5 20.5l-38 133h-230l-37 -133q-4 -15 -16 -20.5t-28 -5.5zM200 261h174l-87 307zM287 808
q-26 0 -48.5 14t-35.5 37.5t-13 49.5t13 48t35 36.5t49 14.5q26 0 48.5 -13.5t36.5 -36.5t14 -49t-14 -49.5t-36.5 -37.5t-48.5 -14zM288 860q19 0 31.5 15t12.5 33q0 17 -12.5 31t-31.5 14q-20 0 -33.5 -14.5t-13.5 -29.5q0 -18 14 -33.5t33 -15.5z" />
    <glyph glyph-name="AE" unicode="&#xc6;" horiz-adv-x="787" 
d="M114 0q-31 0 -44 13.5t-13 32.5v456q0 83 30.5 133.5t82 73t114.5 22.5h446q21 0 30.5 -18t9.5 -38q0 -24 -10 -41t-30 -17h-229v-200h120q19 0 29.5 -15.5t10.5 -36.5q0 -17 -9.5 -33.5t-30.5 -16.5h-120v-201h229q20 0 30 -17t10 -41q0 -20 -9.5 -38t-30.5 -18h-301
q-22 0 -40 10.5t-18 30.5v274h-192v-269q0 -19 -10.5 -32.5t-54.5 -13.5zM179 417h192v200h-87q-49 0 -77 -28.5t-28 -86.5v-85z" />
    <glyph glyph-name="Ccedilla" unicode="&#xc7;" horiz-adv-x="551" 
d="M283 -6q-62 0 -115 22.5t-84 73t-31 133.5v279q0 83 31 133.5t84 73t116 22.5q70 0 123.5 -23.5t84 -65.5t30.5 -101q0 -39 -16 -51.5t-49 -12.5q-27 0 -45.5 9.5t-19.5 31.5q0 12 -3.5 28.5t-13.5 32.5t-30.5 27t-56.5 11q-51 0 -78.5 -28.5t-27.5 -86.5v-279
q0 -59 28 -87t80 -28q34 0 54 11t29.5 27.5t13 34.5t5.5 34q2 23 20 32t44 9q34 0 50 -13t16 -51q0 -60 -30.5 -105t-84.5 -69t-124 -24zM293 -216q-17 0 -36.5 3t-34 10t-14.5 16q0 4 2.5 12.5t7.5 16.5t13 8t20.5 -7t37.5 -7q22 0 34.5 8.5t12.5 24.5q0 15 -11.5 25
t-36.5 12l-55 5l28 98h57l-19 -60q51 -2 75 -24t24 -53q0 -17 -9.5 -38t-32.5 -35.5t-63 -14.5z" />
    <glyph glyph-name="Egrave" unicode="&#xc8;" horiz-adv-x="530" 
d="M117 0q-21 0 -39 10.5t-18 30.5v649q0 20 18 30.5t39 10.5h356q22 0 31.5 -18t9.5 -38q0 -24 -10.5 -41t-30.5 -17h-283v-200h152q20 0 30.5 -15.5t10.5 -36.5q0 -17 -9.5 -33.5t-31.5 -16.5h-152v-201h283q20 0 30.5 -17t10.5 -41q0 -20 -9.5 -38t-31.5 -18h-356z
M322 811q-4 0 -7 1.5t-7 2.5l-130 63q-18 9 -18 30q0 17 11.5 33t28.5 16q6 0 13 -2l132 -64q17 -9 17 -31q0 -16 -11.5 -32.5t-28.5 -16.5z" />
    <glyph glyph-name="Eacute" unicode="&#xc9;" horiz-adv-x="530" 
d="M117 0q-21 0 -39 10.5t-18 30.5v649q0 20 18 30.5t39 10.5h356q22 0 31.5 -18t9.5 -38q0 -24 -10.5 -41t-30.5 -17h-283v-200h152q20 0 30.5 -15.5t10.5 -36.5q0 -17 -9.5 -33.5t-31.5 -16.5h-152v-201h283q20 0 30.5 -17t10.5 -41q0 -20 -9.5 -38t-31.5 -18h-356z
M248 811q-16 0 -28 16.5t-12 32.5q0 22 17 31l132 64q7 2 13 2q17 0 28.5 -16t11.5 -33q0 -21 -18 -30l-130 -63q-4 -1 -7 -2.5t-7 -1.5z" />
    <glyph glyph-name="Ecircumflex" unicode="&#xca;" horiz-adv-x="530" 
d="M117 0q-21 0 -39 10.5t-18 30.5v649q0 20 18 30.5t39 10.5h356q22 0 31.5 -18t9.5 -38q0 -24 -10.5 -41t-30.5 -17h-283v-200h152q20 0 30.5 -15.5t10.5 -36.5q0 -17 -9.5 -33.5t-31.5 -16.5h-152v-201h283q20 0 30.5 -17t10.5 -41q0 -20 -9.5 -38t-31.5 -18h-356z
M167 819q-12 0 -20 12.5t-8 27.5q0 11 5 21t17 16l104 56q9 5 17 5q7 0 17 -5l104 -55q12 -6 16.5 -16.5t4.5 -22.5q0 -14 -7.5 -26.5t-20.5 -12.5q-2 0 -5 1t-5 2l-104 56l-104 -56l-6 -2t-5 -1z" />
    <glyph glyph-name="Edieresis" unicode="&#xcb;" horiz-adv-x="530" 
d="M117 0q-21 0 -39 10.5t-18 30.5v649q0 20 18 30.5t39 10.5h356q22 0 31.5 -18t9.5 -38q0 -24 -10.5 -41t-30.5 -17h-283v-200h152q20 0 30.5 -15.5t10.5 -36.5q0 -17 -9.5 -33.5t-31.5 -16.5h-152v-201h283q20 0 30.5 -17t10.5 -41q0 -20 -9.5 -38t-31.5 -18h-356z
M356 820q-21 0 -36.5 16t-15.5 37t15.5 36.5t36.5 15.5q20 0 35 -15.5t15 -36.5t-15 -37t-35 -16zM206 820q-21 0 -36 16t-15 37t15 36.5t36 15.5t35.5 -15.5t14.5 -36.5t-14.5 -37t-35.5 -16z" />
    <glyph glyph-name="Igrave" unicode="&#xcc;" horiz-adv-x="251" 
d="M125 0q-24 0 -44.5 10.5t-20.5 30.5v650q0 21 20.5 30.5t44.5 9.5q25 0 45 -9.5t20 -30.5v-650q0 -20 -20 -30.5t-45 -10.5zM165 811q-4 0 -7 1.5t-7 2.5l-130 63q-18 9 -18 30q0 17 11.5 33t28.5 16q6 0 13 -2l132 -64q17 -9 17 -31q0 -16 -11.5 -32.5t-28.5 -16.5z" />
    <glyph glyph-name="Iacute" unicode="&#xcd;" horiz-adv-x="251" 
d="M125 0q-24 0 -44.5 10.5t-20.5 30.5v650q0 21 20.5 30.5t44.5 9.5q25 0 45 -9.5t20 -30.5v-650q0 -20 -20 -30.5t-45 -10.5zM91 811q-16 0 -28 16.5t-12 32.5q0 22 17 31l132 64q7 2 13 2q17 0 28.5 -16t11.5 -33q0 -21 -18 -30l-130 -63q-4 -1 -7 -2.5t-7 -1.5z" />
    <glyph glyph-name="Icircumflex" unicode="&#xce;" horiz-adv-x="251" 
d="M125 0q-24 0 -44.5 10.5t-20.5 30.5v650q0 21 20.5 30.5t44.5 9.5q25 0 45 -9.5t20 -30.5v-650q0 -20 -20 -30.5t-45 -10.5zM11 819q-12 0 -20 12.5t-8 27.5q0 11 5 21t17 16l104 56q9 5 17 5q7 0 17 -5l104 -55q12 -6 16.5 -16.5t4.5 -22.5q0 -14 -7.5 -26.5
t-20.5 -12.5q-2 0 -5 1t-5 2l-104 56l-104 -56l-6 -2t-5 -1z" />
    <glyph glyph-name="Idieresis" unicode="&#xcf;" horiz-adv-x="251" 
d="M125 0q-24 0 -44.5 10.5t-20.5 30.5v650q0 21 20.5 30.5t44.5 9.5q25 0 45 -9.5t20 -30.5v-650q0 -20 -20 -30.5t-45 -10.5zM200 820q-21 0 -36.5 16t-15.5 37t15.5 36.5t36.5 15.5q20 0 35 -15.5t15 -36.5t-15 -37t-35 -16zM50 820q-21 0 -36 16t-15 37t15 36.5t36 15.5
t35.5 -15.5t14.5 -36.5t-14.5 -37t-35.5 -16z" />
    <glyph glyph-name="Eth" unicode="&#xd0;" horiz-adv-x="588" 
d="M124 0q-26 0 -41.5 12t-15.5 28v296h-41q-16 0 -24.5 14t-8.5 32t8.5 32.5t24.5 14.5h41v262q0 16 15.5 28t41.5 12h177q66 0 119.5 -22.5t84.5 -73t31 -133.5v-273q0 -83 -31 -133.5t-84.5 -73t-119.5 -22.5h-177zM197 114h104q50 0 77.5 28.5t27.5 86.5v273
q0 58 -27.5 86.5t-77.5 28.5h-104v-188h77q16 0 25 -14.5t9 -32.5t-9 -32t-25 -14h-77v-222z" />
    <glyph glyph-name="Ntilde" unicode="&#xd1;" horiz-adv-x="606" 
d="M125 0q-24 0 -44.5 10.5t-20.5 30.5v649q0 21 20.5 31t44.5 10t39.5 -5t29 -19.5t28.5 -44.5l193 -373v402q0 21 20.5 30.5t44.5 9.5q25 0 45 -9.5t20 -30.5v-650q0 -20 -20 -30.5t-45 -10.5q-23 0 -42.5 9t-31.5 32l-216 402v-402q0 -20 -20 -30.5t-45 -10.5zM389 831
q-32 0 -55 7.5t-42.5 14.5t-44.5 7q-21 0 -35.5 -6t-25.5 -12t-21 -6q-13 0 -20 8t-10 18.5t-3 15.5q0 23 10 36.5t24.5 20.5t29 9t22.5 2q30 0 51 -7t42.5 -14.5t48.5 -7.5q21 0 35 6t25 12t21 6q14 0 20.5 -8.5t9.5 -18.5t3 -15q0 -24 -10 -37t-24 -20t-28.5 -9t-22.5 -2z
" />
    <glyph glyph-name="Ograve" unicode="&#xd2;" 
d="M287 -6q-66 0 -119 22.5t-84 73t-31 133.5v279q0 83 31 133.5t83.5 73t119.5 22.5q66 0 119.5 -22.5t84.5 -73t31 -133.5v-279q0 -83 -31 -133.5t-84.5 -73t-119.5 -22.5zM287 108q49 0 77 28t28 87v279q0 59 -28 87t-77 28t-77 -28t-28 -87v-279q0 -59 28 -87t77 -28z
M328 811q-4 0 -7 1.5t-7 2.5l-130 63q-18 9 -18 30q0 17 11.5 33t28.5 16q6 0 13 -2l132 -64q17 -9 17 -31q0 -16 -11.5 -32.5t-28.5 -16.5z" />
    <glyph glyph-name="Oacute" unicode="&#xd3;" 
d="M287 -6q-66 0 -119 22.5t-84 73t-31 133.5v279q0 83 31 133.5t83.5 73t119.5 22.5q66 0 119.5 -22.5t84.5 -73t31 -133.5v-279q0 -83 -31 -133.5t-84.5 -73t-119.5 -22.5zM287 108q49 0 77 28t28 87v279q0 59 -28 87t-77 28t-77 -28t-28 -87v-279q0 -59 28 -87t77 -28z
M254 811q-16 0 -28 16.5t-12 32.5q0 22 17 31l132 64q7 2 13 2q17 0 28.5 -16t11.5 -33q0 -21 -18 -30l-130 -63q-4 -1 -7 -2.5t-7 -1.5z" />
    <glyph glyph-name="Ocircumflex" unicode="&#xd4;" 
d="M287 -6q-66 0 -119 22.5t-84 73t-31 133.5v279q0 83 31 133.5t83.5 73t119.5 22.5q66 0 119.5 -22.5t84.5 -73t31 -133.5v-279q0 -83 -31 -133.5t-84.5 -73t-119.5 -22.5zM287 108q49 0 77 28t28 87v279q0 59 -28 87t-77 28t-77 -28t-28 -87v-279q0 -59 28 -87t77 -28z
M173 819q-12 0 -20 12.5t-8 27.5q0 11 5 21t17 16l104 56q9 5 17 5q7 0 17 -5l104 -55q12 -6 16.5 -16.5t4.5 -22.5q0 -14 -7.5 -26.5t-20.5 -12.5q-2 0 -5 1t-5 2l-104 56l-104 -56l-6 -2t-5 -1z" />
    <glyph glyph-name="Otilde" unicode="&#xd5;" 
d="M287 -6q-66 0 -119 22.5t-84 73t-31 133.5v279q0 83 31 133.5t83.5 73t119.5 22.5q66 0 119.5 -22.5t84.5 -73t31 -133.5v-279q0 -83 -31 -133.5t-84.5 -73t-119.5 -22.5zM287 108q49 0 77 28t28 87v279q0 59 -28 87t-77 28t-77 -28t-28 -87v-279q0 -59 28 -87t77 -28z
M373 831q-32 0 -55 7.5t-42.5 14.5t-44.5 7q-21 0 -35.5 -6t-25.5 -12t-21 -6q-13 0 -20 8t-10 18.5t-3 15.5q0 23 10 36.5t24.5 20.5t29 9t22.5 2q30 0 51 -7t42.5 -14.5t48.5 -7.5q21 0 35 6t25 12t21 6q14 0 20.5 -8.5t9.5 -18.5t3 -15q0 -24 -10 -37t-24 -20t-28.5 -9
t-22.5 -2z" />
    <glyph glyph-name="Odieresis" unicode="&#xd6;" 
d="M287 -6q-66 0 -119 22.5t-84 73t-31 133.5v279q0 83 31 133.5t83.5 73t119.5 22.5q66 0 119.5 -22.5t84.5 -73t31 -133.5v-279q0 -83 -31 -133.5t-84.5 -73t-119.5 -22.5zM287 108q49 0 77 28t28 87v279q0 59 -28 87t-77 28t-77 -28t-28 -87v-279q0 -59 28 -87t77 -28z
M362 820q-21 0 -36.5 16t-15.5 37t15.5 36.5t36.5 15.5q20 0 35 -15.5t15 -36.5t-15 -37t-35 -16zM212 820q-21 0 -36 16t-15 37t15 36.5t36 15.5t35.5 -15.5t14.5 -36.5t-14.5 -37t-35.5 -16z" />
    <glyph glyph-name="multiply" unicode="&#xd7;" horiz-adv-x="406" 
d="M101 113q-13 0 -27 9t-23.5 23.5t-9.5 28.5q0 15 10 25l84 76l-83 74q-9 10 -9 26q0 23 18.5 41.5t40.5 18.5q15 0 26 -10l74 -75l75 75q10 10 26 10q23 0 41.5 -18.5t18.5 -40.5q0 -17 -10 -27l-83 -74l84 -76q11 -10 11 -26q0 -14 -9.5 -28t-23 -23t-28.5 -9t-26 10
l-76 76l-75 -76q-10 -10 -26 -10z" />
    <glyph glyph-name="Oslash" unicode="&#xd8;" 
d="M287 -6q-66 0 -119 22.5t-84 73t-31 133.5v279q0 83 31 133.5t83.5 73t119.5 22.5q66 0 119.5 -22.5t84.5 -73t31 -133.5v-279q0 -83 -31 -133.5t-84.5 -73t-119.5 -22.5zM287 108q49 0 77 28t28 87v279q0 59 -28 87t-77 28t-77 -28t-28 -87v-279q0 -59 28 -87t77 -28z
M118 -45q-20 0 -33.5 14t-13.5 30q0 9 4 17l360 729q10 21 36 21q18 0 34 -12.5t16 -32.5q0 -10 -4 -18l-360 -726q-4 -10 -15.5 -16t-23.5 -6z" />
    <glyph glyph-name="Ugrave" unicode="&#xd9;" horiz-adv-x="594" 
d="M297 -6q-68 0 -122 22.5t-86 73t-32 133.5v468q0 21 20 30.5t45 9.5q24 0 44.5 -9.5t20.5 -30.5v-468q0 -58 29 -86.5t81 -28.5q51 0 80.5 28.5t29.5 86.5v468q0 21 19.5 30.5t45.5 9.5q24 0 44.5 -9.5t20.5 -30.5v-468q0 -83 -32 -133.5t-86.5 -73t-121.5 -22.5z
M337 811q-4 0 -7 1.5t-7 2.5l-130 63q-18 9 -18 30q0 17 11.5 33t28.5 16q6 0 13 -2l132 -64q17 -9 17 -31q0 -16 -11.5 -32.5t-28.5 -16.5z" />
    <glyph glyph-name="Uacute" unicode="&#xda;" horiz-adv-x="594" 
d="M297 -6q-68 0 -122 22.5t-86 73t-32 133.5v468q0 21 20 30.5t45 9.5q24 0 44.5 -9.5t20.5 -30.5v-468q0 -58 29 -86.5t81 -28.5q51 0 80.5 28.5t29.5 86.5v468q0 21 19.5 30.5t45.5 9.5q24 0 44.5 -9.5t20.5 -30.5v-468q0 -83 -32 -133.5t-86.5 -73t-121.5 -22.5z
M263 811q-16 0 -28 16.5t-12 32.5q0 22 17 31l132 64q7 2 13 2q17 0 28.5 -16t11.5 -33q0 -21 -18 -30l-130 -63q-4 -1 -7 -2.5t-7 -1.5z" />
    <glyph glyph-name="Ucircumflex" unicode="&#xdb;" horiz-adv-x="594" 
d="M297 -6q-68 0 -122 22.5t-86 73t-32 133.5v468q0 21 20 30.5t45 9.5q24 0 44.5 -9.5t20.5 -30.5v-468q0 -58 29 -86.5t81 -28.5q51 0 80.5 28.5t29.5 86.5v468q0 21 19.5 30.5t45.5 9.5q24 0 44.5 -9.5t20.5 -30.5v-468q0 -83 -32 -133.5t-86.5 -73t-121.5 -22.5z
M182 819q-12 0 -20 12.5t-8 27.5q0 11 5 21t17 16l104 56q9 5 17 5q7 0 17 -5l104 -55q12 -6 16.5 -16.5t4.5 -22.5q0 -14 -7.5 -26.5t-20.5 -12.5q-2 0 -5 1t-5 2l-104 56l-104 -56l-6 -2t-5 -1z" />
    <glyph glyph-name="Udieresis" unicode="&#xdc;" horiz-adv-x="594" 
d="M297 -6q-68 0 -122 22.5t-86 73t-32 133.5v468q0 21 20 30.5t45 9.5q24 0 44.5 -9.5t20.5 -30.5v-468q0 -58 29 -86.5t81 -28.5q51 0 80.5 28.5t29.5 86.5v468q0 21 19.5 30.5t45.5 9.5q24 0 44.5 -9.5t20.5 -30.5v-468q0 -83 -32 -133.5t-86.5 -73t-121.5 -22.5z
M371 820q-21 0 -36.5 16t-15.5 37t15.5 36.5t36.5 15.5q20 0 35 -15.5t15 -36.5t-15 -37t-35 -16zM221 820q-21 0 -36 16t-15 37t15 36.5t36 15.5t35.5 -15.5t14.5 -36.5t-14.5 -37t-35.5 -16z" />
    <glyph glyph-name="Yacute" unicode="&#xdd;" horiz-adv-x="572" 
d="M286 0q-24 0 -44.5 10.5t-20.5 30.5v252q0 7 -3 13l-207 358q-2 4 -2.5 7.5t-0.5 5.5q0 16 14 28t34 19t38 7q16 0 24 -6.5t15 -19.5l153 -289l152 289q8 13 16 19.5t24 6.5q18 0 37.5 -7t34 -19t14.5 -28q0 -2 -0.5 -5.5t-2.5 -7.5l-207 -358q-3 -6 -3 -13v-252
q0 -20 -20.5 -30.5t-44.5 -10.5zM252 811q-16 0 -28 16.5t-12 32.5q0 22 17 31l132 64q7 2 13 2q17 0 28.5 -16t11.5 -33q0 -21 -18 -30l-130 -63q-4 -1 -7 -2.5t-7 -1.5z" />
    <glyph glyph-name="Thorn" unicode="&#xde;" horiz-adv-x="519" 
d="M124 0q-28 0 -46 13t-18 28v663q0 18 18 29t44 11q29 0 48 -11t19 -29v-158q16 29 50 52.5t79 23.5q50 0 90 -26t63.5 -70t23.5 -100v-96q0 -54 -24 -99t-63 -72t-85 -27q-29 0 -56.5 11t-47.5 29.5t-30 38.5v-170q0 -15 -19 -28t-46 -13zM279 245q23 0 43 11t32 30.5
t12 43.5v96q0 23 -12 41.5t-32 30t-44 11.5q-22 0 -42.5 -10.5t-33.5 -28.5t-13 -44v-107q0 -12 11.5 -29.5t32 -31t46.5 -13.5z" />
    <glyph glyph-name="germandbls" unicode="&#xdf;" horiz-adv-x="598" 
d="M350 -20q-17 0 -34.5 1.5t-32 7t-23.5 18t-9 33.5q0 12 3 26t10 24.5t18 10.5t26.5 -6t40.5 -6q45 0 70 29t25 81v13q0 47 -15.5 76.5t-43 46t-62.5 24.5q-18 5 -28.5 14.5t-10.5 38.5q0 28 10.5 35.5t29.5 12.5q17 3 27 13t15.5 24t7.5 28.5t2 28.5q0 44 -18.5 72.5
t-62.5 28.5q-29 0 -45.5 -13t-23.5 -33t-7 -42v-527q0 -17 -19.5 -28.5t-46.5 -11.5q-26 0 -44.5 11.5t-18.5 28.5v341h-56q-16 0 -24.5 14.5t-8.5 32.5t8.5 32.5t24.5 14.5h56v92q0 54 19 99.5t62 73.5t115 28q54 0 98.5 -20t71 -60.5t26.5 -103.5q0 -33 -8 -65t-23 -56.5
t-37 -35.5q37 -6 72.5 -33t59.5 -71t24 -100v-13q0 -75 -30.5 -126t-80.5 -77.5t-109 -26.5z" />
    <glyph glyph-name="agrave" unicode="&#xe0;" horiz-adv-x="471" 
d="M152 -9q-53 0 -91.5 32.5t-38.5 100.5q0 57 29.5 89t82 45t121.5 13h41v13q0 22 -8.5 43t-27 35t-52.5 14q-38 0 -58.5 -7.5t-31.5 -15.5t-24 -8q-21 0 -32.5 21t-11.5 43q0 21 25.5 37.5t62.5 25.5t72 9q78 0 125 -28t68.5 -72t21.5 -95v-245q0 -17 -18 -29t-45 -12
q-25 0 -41.5 12t-16.5 29v29q-27 -31 -63.5 -55t-88.5 -24zM204 87q21 0 42 14t35.5 36t14.5 46v21h-15q-33 0 -63 -4t-48.5 -17.5t-18.5 -41.5t15.5 -41t37.5 -13zM261 563q-4 0 -7 1.5t-7 2.5l-130 63q-18 9 -18 30q0 17 11.5 33t28.5 16q6 0 13 -2l132 -64q17 -9 17 -31
q0 -16 -11.5 -32.5t-28.5 -16.5z" />
    <glyph glyph-name="aacute" unicode="&#xe1;" horiz-adv-x="471" 
d="M152 -9q-53 0 -91.5 32.5t-38.5 100.5q0 57 29.5 89t82 45t121.5 13h41v13q0 22 -8.5 43t-27 35t-52.5 14q-38 0 -58.5 -7.5t-31.5 -15.5t-24 -8q-21 0 -32.5 21t-11.5 43q0 21 25.5 37.5t62.5 25.5t72 9q78 0 125 -28t68.5 -72t21.5 -95v-245q0 -17 -18 -29t-45 -12
q-25 0 -41.5 12t-16.5 29v29q-27 -31 -63.5 -55t-88.5 -24zM204 87q21 0 42 14t35.5 36t14.5 46v21h-15q-33 0 -63 -4t-48.5 -17.5t-18.5 -41.5t15.5 -41t37.5 -13zM187 564q-16 0 -28 16.5t-12 32.5q0 22 17 31l132 64q7 2 13 2q17 0 28.5 -16t11.5 -33q0 -21 -18 -30
l-130 -63q-4 -1 -7 -2.5t-7 -1.5z" />
    <glyph glyph-name="acircumflex" unicode="&#xe2;" horiz-adv-x="471" 
d="M152 -9q-53 0 -91.5 32.5t-38.5 100.5q0 57 29.5 89t82 45t121.5 13h41v13q0 22 -8.5 43t-27 35t-52.5 14q-38 0 -58.5 -7.5t-31.5 -15.5t-24 -8q-21 0 -32.5 21t-11.5 43q0 21 25.5 37.5t62.5 25.5t72 9q78 0 125 -28t68.5 -72t21.5 -95v-245q0 -17 -18 -29t-45 -12
q-25 0 -41.5 12t-16.5 29v29q-27 -31 -63.5 -55t-88.5 -24zM204 87q21 0 42 14t35.5 36t14.5 46v21h-15q-33 0 -63 -4t-48.5 -17.5t-18.5 -41.5t15.5 -41t37.5 -13zM106 571q-12 0 -20 12.5t-8 27.5q0 11 5 21t17 16l104 56q9 5 17 5q7 0 17 -5l104 -55q12 -6 16.5 -16.5
t4.5 -22.5q0 -14 -7.5 -26.5t-20.5 -12.5q-2 0 -5 1t-5 2l-104 56l-104 -56l-6 -2t-5 -1z" />
    <glyph glyph-name="atilde" unicode="&#xe3;" horiz-adv-x="471" 
d="M152 -9q-53 0 -91.5 32.5t-38.5 100.5q0 57 29.5 89t82 45t121.5 13h41v13q0 22 -8.5 43t-27 35t-52.5 14q-38 0 -58.5 -7.5t-31.5 -15.5t-24 -8q-21 0 -32.5 21t-11.5 43q0 21 25.5 37.5t62.5 25.5t72 9q78 0 125 -28t68.5 -72t21.5 -95v-245q0 -17 -18 -29t-45 -12
q-25 0 -41.5 12t-16.5 29v29q-27 -31 -63.5 -55t-88.5 -24zM204 87q21 0 42 14t35.5 36t14.5 46v21h-15q-33 0 -63 -4t-48.5 -17.5t-18.5 -41.5t15.5 -41t37.5 -13zM306 583q-32 0 -55 7.5t-42.5 14.5t-44.5 7q-21 0 -35.5 -6t-25.5 -12t-21 -6q-13 0 -20 8t-10 18.5
t-3 15.5q0 23 10 36.5t24.5 20.5t29 9t22.5 2q30 0 51 -7t42.5 -14.5t48.5 -7.5q21 0 35 6t25 12t21 6q14 0 20.5 -8.5t9.5 -18.5t3 -15q0 -24 -10 -37t-24 -20t-28.5 -9t-22.5 -2z" />
    <glyph glyph-name="adieresis" unicode="&#xe4;" horiz-adv-x="471" 
d="M152 -9q-53 0 -91.5 32.5t-38.5 100.5q0 57 29.5 89t82 45t121.5 13h41v13q0 22 -8.5 43t-27 35t-52.5 14q-38 0 -58.5 -7.5t-31.5 -15.5t-24 -8q-21 0 -32.5 21t-11.5 43q0 21 25.5 37.5t62.5 25.5t72 9q78 0 125 -28t68.5 -72t21.5 -95v-245q0 -17 -18 -29t-45 -12
q-25 0 -41.5 12t-16.5 29v29q-27 -31 -63.5 -55t-88.5 -24zM204 87q21 0 42 14t35.5 36t14.5 46v21h-15q-33 0 -63 -4t-48.5 -17.5t-18.5 -41.5t15.5 -41t37.5 -13zM295 572q-21 0 -36.5 16t-15.5 37t15.5 36.5t36.5 15.5q20 0 35 -15.5t15 -36.5t-15 -37t-35 -16zM145 572
q-21 0 -36 16t-15 37t15 36.5t36 15.5t35.5 -15.5t14.5 -36.5t-14.5 -37t-35.5 -16z" />
    <glyph glyph-name="aring" unicode="&#xe5;" horiz-adv-x="471" 
d="M152 -9q-53 0 -91.5 32.5t-38.5 100.5q0 57 29.5 89t82 45t121.5 13h41v13q0 22 -8.5 43t-27 35t-52.5 14q-38 0 -58.5 -7.5t-31.5 -15.5t-24 -8q-21 0 -32.5 21t-11.5 43q0 21 25.5 37.5t62.5 25.5t72 9q78 0 125 -28t68.5 -72t21.5 -95v-245q0 -17 -18 -29t-45 -12
q-25 0 -41.5 12t-16.5 29v29q-27 -31 -63.5 -55t-88.5 -24zM204 87q21 0 42 14t35.5 36t14.5 46v21h-15q-33 0 -63 -4t-48.5 -17.5t-18.5 -41.5t15.5 -41t37.5 -13zM220 561q-26 0 -48.5 14t-35.5 37.5t-13 49.5t13 48t35 36.5t49 14.5q26 0 48.5 -13.5t36.5 -36.5t14 -49
t-14 -49.5t-36.5 -37.5t-48.5 -14zM221 613q19 0 31.5 15t12.5 33q0 17 -12.5 31t-31.5 14q-20 0 -33.5 -14.5t-13.5 -29.5q0 -18 14 -33.5t33 -15.5z" />
    <glyph glyph-name="ae" unicode="&#xe6;" horiz-adv-x="748" 
d="M174 -9q-41 0 -75.5 14.5t-56 44t-21.5 73.5q0 58 29.5 90t82 45t121.5 13h41v14q0 21 -8.5 42t-27.5 35.5t-52 14.5q-39 0 -59 -8t-31.5 -16t-23.5 -8q-21 0 -33 21t-12 44q0 21 26 37t63 25t72 9q56 0 94.5 -21.5t62.5 -56.5q27 35 65 56.5t83 21.5q39 0 76.5 -12.5
t67 -37.5t46.5 -60.5t17 -80.5q0 -40 -13 -58.5t-34.5 -23t-46.5 -4.5h-203v-15q0 -43 32.5 -69.5t83.5 -26.5q33 0 55 10t38.5 19t30.5 9q15 0 25.5 -10t17 -23t6.5 -24q0 -18 -23.5 -37.5t-63.5 -32.5t-92 -13q-58 0 -106 25.5t-79 70.5q-35 -45 -82 -70.5t-93 -25.5z
M203 87q22 0 42.5 14t35 36t14.5 46v21h-15q-34 0 -63.5 -4t-47.5 -17.5t-18 -42.5q0 -27 15 -40t37 -13zM424 280h146q17 0 23 5.5t6 20.5q0 24 -12 42t-31.5 28t-44.5 10q-22 0 -42 -9.5t-32.5 -27t-12.5 -41.5v-28z" />
    <glyph glyph-name="ccedilla" unicode="&#xe7;" horiz-adv-x="433" 
d="M251 -9q-76 0 -124 27t-71 73.5t-23 104.5v80q0 58 22.5 104.5t71 73.5t122.5 27q47 0 83 -11t57 -29t21 -38q0 -11 -6.5 -26t-18 -26t-26.5 -11q-11 0 -22.5 7t-29.5 14t-48 7q-51 0 -74 -24.5t-23 -67.5v-80q0 -43 23 -67.5t75 -24.5q31 0 48 8t28.5 15t23.5 7
q18 0 30.5 -10t19 -24.5t6.5 -26.5q0 -20 -21.5 -39t-59 -31t-84.5 -12zM256 -216q-17 0 -36.5 3t-34 10t-14.5 16q0 4 2.5 12.5t7.5 16.5t13 8t20.5 -7t37.5 -7q22 0 34.5 8.5t12.5 24.5q0 15 -11.5 25t-36.5 12l-55 5l28 98h57l-19 -60q51 -2 75 -24t24 -53
q0 -17 -9.5 -38t-32.5 -35.5t-63 -14.5z" />
    <glyph glyph-name="egrave" unicode="&#xe8;" horiz-adv-x="485" 
d="M274 -9q-71 0 -125.5 25.5t-85.5 72t-31 107.5v85q0 54 29.5 99.5t79 73t110.5 27.5q56 0 102.5 -24t75.5 -66t29 -98q0 -43 -14 -61.5t-35.5 -23t-44.5 -4.5h-203v-15q0 -43 32.5 -69.5t84.5 -26.5q33 0 55 10t38 19t30 9q15 0 26 -10t17 -23.5t6 -23.5
q0 -17 -21.5 -36.5t-61 -33t-93.5 -13.5zM161 280h146q17 0 23.5 5.5t6.5 21.5q0 23 -12 41t-32 28t-44 10q-23 0 -43 -9.5t-32.5 -27t-12.5 -41.5v-28zM291 566q-4 0 -7 1.5t-7 2.5l-130 63q-18 9 -18 30q0 17 11.5 33t28.5 16q6 0 13 -2l132 -64q17 -9 17 -31
q0 -16 -11.5 -32.5t-28.5 -16.5z" />
    <glyph glyph-name="eacute" unicode="&#xe9;" horiz-adv-x="485" 
d="M274 -9q-71 0 -125.5 25.5t-85.5 72t-31 107.5v85q0 54 29.5 99.5t79 73t110.5 27.5q56 0 102.5 -24t75.5 -66t29 -98q0 -43 -14 -61.5t-35.5 -23t-44.5 -4.5h-203v-15q0 -43 32.5 -69.5t84.5 -26.5q33 0 55 10t38 19t30 9q15 0 26 -10t17 -23.5t6 -23.5
q0 -17 -21.5 -36.5t-61 -33t-93.5 -13.5zM161 280h146q17 0 23.5 5.5t6.5 21.5q0 23 -12 41t-32 28t-44 10q-23 0 -43 -9.5t-32.5 -27t-12.5 -41.5v-28zM217 567q-16 0 -28 16.5t-12 32.5q0 22 17 31l132 64q7 2 13 2q17 0 28.5 -16t11.5 -33q0 -21 -18 -30l-130 -63
q-4 -1 -7 -2.5t-7 -1.5z" />
    <glyph glyph-name="ecircumflex" unicode="&#xea;" horiz-adv-x="485" 
d="M274 -9q-71 0 -125.5 25.5t-85.5 72t-31 107.5v85q0 54 29.5 99.5t79 73t110.5 27.5q56 0 102.5 -24t75.5 -66t29 -98q0 -43 -14 -61.5t-35.5 -23t-44.5 -4.5h-203v-15q0 -43 32.5 -69.5t84.5 -26.5q33 0 55 10t38 19t30 9q15 0 26 -10t17 -23.5t6 -23.5
q0 -17 -21.5 -36.5t-61 -33t-93.5 -13.5zM161 280h146q17 0 23.5 5.5t6.5 21.5q0 23 -12 41t-32 28t-44 10q-23 0 -43 -9.5t-32.5 -27t-12.5 -41.5v-28zM136 574q-12 0 -20 12.5t-8 27.5q0 11 5 21t17 16l104 56q9 5 17 5q7 0 17 -5l104 -55q12 -6 16.5 -16.5t4.5 -22.5
q0 -14 -7.5 -26.5t-20.5 -12.5q-2 0 -5 1t-5 2l-104 56l-104 -56l-6 -2t-5 -1z" />
    <glyph glyph-name="edieresis" unicode="&#xeb;" horiz-adv-x="485" 
d="M274 -9q-71 0 -125.5 25.5t-85.5 72t-31 107.5v85q0 54 29.5 99.5t79 73t110.5 27.5q56 0 102.5 -24t75.5 -66t29 -98q0 -43 -14 -61.5t-35.5 -23t-44.5 -4.5h-203v-15q0 -43 32.5 -69.5t84.5 -26.5q33 0 55 10t38 19t30 9q15 0 26 -10t17 -23.5t6 -23.5
q0 -17 -21.5 -36.5t-61 -33t-93.5 -13.5zM161 280h146q17 0 23.5 5.5t6.5 21.5q0 23 -12 41t-32 28t-44 10q-23 0 -43 -9.5t-32.5 -27t-12.5 -41.5v-28zM325 575q-21 0 -36.5 16t-15.5 37t15.5 36.5t36.5 15.5q20 0 35 -15.5t15 -36.5t-15 -37t-35 -16zM175 575
q-21 0 -36 16t-15 37t15 36.5t36 15.5t35.5 -15.5t14.5 -36.5t-14.5 -37t-35.5 -16z" />
    <glyph glyph-name="igrave" unicode="&#xec;" horiz-adv-x="228" 
d="M114 0q-28 0 -46 13t-18 28v394q0 18 18 29t46 11q27 0 46 -11t19 -29v-394q0 -15 -19 -28t-46 -13zM154 566q-4 0 -7 1.5t-7 2.5l-130 63q-18 9 -18 30q0 17 11.5 33t28.5 16q6 0 13 -2l132 -64q17 -9 17 -31q0 -16 -11.5 -32.5t-28.5 -16.5z" />
    <glyph glyph-name="iacute" unicode="&#xed;" horiz-adv-x="228" 
d="M114 0q-28 0 -46 13t-18 28v394q0 18 18 29t46 11q27 0 46 -11t19 -29v-394q0 -15 -19 -28t-46 -13zM80 566q-16 0 -28 16.5t-12 32.5q0 22 17 31l132 64q7 2 13 2q17 0 28.5 -16t11.5 -33q0 -21 -18 -30l-130 -63q-4 -1 -7 -2.5t-7 -1.5z" />
    <glyph glyph-name="icircumflex" unicode="&#xee;" horiz-adv-x="228" 
d="M114 0q-28 0 -46 13t-18 28v394q0 18 18 29t46 11q27 0 46 -11t19 -29v-394q0 -15 -19 -28t-46 -13zM0 574q-12 0 -20 12.5t-8 27.5q0 11 5 21t17 16l104 56q9 5 17 5q7 0 17 -5l104 -55q12 -6 16.5 -16.5t4.5 -22.5q0 -14 -7.5 -26.5t-20.5 -12.5q-2 0 -5 1t-5 2
l-104 56l-104 -56l-6 -2t-5 -1z" />
    <glyph glyph-name="idieresis" unicode="&#xef;" horiz-adv-x="228" 
d="M114 0q-28 0 -46 13t-18 28v394q0 18 18 29t46 11q27 0 46 -11t19 -29v-394q0 -15 -19 -28t-46 -13zM189 575q-21 0 -36.5 16t-15.5 37t15.5 36.5t36.5 15.5q20 0 35 -15.5t15 -36.5t-15 -37t-35 -16zM39 575q-21 0 -36 16t-15 37t15 36.5t36 15.5t35.5 -15.5t14.5 -36.5
t-14.5 -37t-35.5 -16z" />
    <glyph glyph-name="eth" unicode="&#xf0;" horiz-adv-x="513" 
d="M250 -9q-43 0 -82.5 17t-70 45.5t-48 65.5t-17.5 77v82q0 55 24 101.5t64 74t89 27.5q31 0 56.5 -10.5t45 -28t28.5 -39.5q-1 45 -13.5 84.5t-31.5 69.5l-53 -31q-5 -4 -13 -4q-17 0 -31 17t-14 35q0 16 14 25l46 27q-8 9 -18 14t-19 6q-9 9 -18 18.5t-9 26.5
q0 11 6 25.5t20 25.5t38 11q30 0 58 -15.5t53 -44.5l56 34q6 3 13 3q17 0 31 -16.5t14 -33.5q0 -18 -15 -26l-53 -32q33 -61 50.5 -134.5t17.5 -139.5v-152q0 -54 -30 -101t-79.5 -75.5t-108.5 -28.5zM250 104q26 0 45.5 13.5t31.5 34.5t12 44v83q0 26 -13 46t-34 31.5
t-43 11.5q-24 0 -44.5 -13.5t-32 -33.5t-11.5 -43v-82q0 -23 12 -44t32.5 -34.5t44.5 -13.5z" />
    <glyph glyph-name="ntilde" unicode="&#xf1;" horiz-adv-x="523" 
d="M114 0q-28 0 -46 13t-18 28v394q0 18 18 29t46 11q24 0 40.5 -11t16.5 -29v-30q15 29 49.5 52.5t84.5 23.5q47 0 86 -27.5t62.5 -73.5t23.5 -102v-237q0 -20 -20 -30.5t-45 -10.5q-22 0 -43 10.5t-21 30.5v237q0 23 -11.5 43t-31.5 33.5t-44 13.5q-20 0 -39 -11t-31 -31
t-12 -48v-237q0 -15 -19 -28t-46 -13zM347 575q-32 0 -55 7.5t-42.5 14.5t-44.5 7q-21 0 -35.5 -6t-25.5 -12t-21 -6q-13 0 -20 8t-10 18.5t-3 15.5q0 23 10 36.5t24.5 20.5t29 9t22.5 2q30 0 51 -7t42.5 -14.5t48.5 -7.5q21 0 35 6t25 12t21 6q14 0 20.5 -8.5t9.5 -18.5
t3 -15q0 -24 -10 -37t-24 -20t-28.5 -9t-22.5 -2z" />
    <glyph glyph-name="ograve" unicode="&#xf2;" horiz-adv-x="497" 
d="M248 -9q-58 0 -107 28.5t-79 75.5t-30 101v82q0 54 29 100.5t78.5 74.5t108.5 28t108.5 -27.5t79 -73.5t29.5 -102v-82q0 -53 -30 -100t-79.5 -76t-107.5 -29zM248 104q24 0 44 13t32 34.5t12 44.5v82q0 23 -12 43t-31.5 33.5t-44.5 13.5q-24 0 -44 -13t-31.5 -33.5
t-11.5 -43.5v-82q0 -23 11.5 -44.5t31.5 -34.5t44 -13zM289 566q-4 0 -7 1.5t-7 2.5l-130 63q-18 9 -18 30q0 17 11.5 33t28.5 16q6 0 13 -2l132 -64q17 -9 17 -31q0 -16 -11.5 -32.5t-28.5 -16.5z" />
    <glyph glyph-name="oacute" unicode="&#xf3;" horiz-adv-x="497" 
d="M248 -9q-58 0 -107 28.5t-79 75.5t-30 101v82q0 54 29 100.5t78.5 74.5t108.5 28t108.5 -27.5t79 -73.5t29.5 -102v-82q0 -53 -30 -100t-79.5 -76t-107.5 -29zM248 104q24 0 44 13t32 34.5t12 44.5v82q0 23 -12 43t-31.5 33.5t-44.5 13.5q-24 0 -44 -13t-31.5 -33.5
t-11.5 -43.5v-82q0 -23 11.5 -44.5t31.5 -34.5t44 -13zM214 566q-16 0 -28 16.5t-12 32.5q0 22 17 31l132 64q7 2 13 2q17 0 28.5 -16t11.5 -33q0 -21 -18 -30l-130 -63q-4 -1 -7 -2.5t-7 -1.5z" />
    <glyph glyph-name="ocircumflex" unicode="&#xf4;" horiz-adv-x="497" 
d="M248 -9q-58 0 -107 28.5t-79 75.5t-30 101v82q0 54 29 100.5t78.5 74.5t108.5 28t108.5 -27.5t79 -73.5t29.5 -102v-82q0 -53 -30 -100t-79.5 -76t-107.5 -29zM248 104q24 0 44 13t32 34.5t12 44.5v82q0 23 -12 43t-31.5 33.5t-44.5 13.5q-24 0 -44 -13t-31.5 -33.5
t-11.5 -43.5v-82q0 -23 11.5 -44.5t31.5 -34.5t44 -13zM134 574q-12 0 -20 12.5t-8 27.5q0 11 5 21t17 16l104 56q9 5 17 5q7 0 17 -5l104 -55q12 -6 16.5 -16.5t4.5 -22.5q0 -14 -7.5 -26.5t-20.5 -12.5q-2 0 -5 1t-5 2l-104 56l-104 -56l-6 -2t-5 -1z" />
    <glyph glyph-name="otilde" unicode="&#xf5;" horiz-adv-x="497" 
d="M248 -9q-58 0 -107 28.5t-79 75.5t-30 101v82q0 54 29 100.5t78.5 74.5t108.5 28t108.5 -27.5t79 -73.5t29.5 -102v-82q0 -53 -30 -100t-79.5 -76t-107.5 -29zM248 104q24 0 44 13t32 34.5t12 44.5v82q0 23 -12 43t-31.5 33.5t-44.5 13.5q-24 0 -44 -13t-31.5 -33.5
t-11.5 -43.5v-82q0 -23 11.5 -44.5t31.5 -34.5t44 -13zM335 589q-32 0 -55 7.5t-42.5 14.5t-44.5 7q-21 0 -35.5 -6t-25.5 -12t-21 -6q-13 0 -20 8t-10 18.5t-3 15.5q0 23 10 36.5t24.5 20.5t29 9t22.5 2q30 0 51 -7t42.5 -14.5t48.5 -7.5q21 0 35 6t25 12t21 6
q14 0 20.5 -8.5t9.5 -18.5t3 -15q0 -24 -10 -37t-24 -20t-28.5 -9t-22.5 -2z" />
    <glyph glyph-name="odieresis" unicode="&#xf6;" horiz-adv-x="497" 
d="M248 -9q-58 0 -107 28.5t-79 75.5t-30 101v82q0 54 29 100.5t78.5 74.5t108.5 28t108.5 -27.5t79 -73.5t29.5 -102v-82q0 -53 -30 -100t-79.5 -76t-107.5 -29zM248 104q24 0 44 13t32 34.5t12 44.5v82q0 23 -12 43t-31.5 33.5t-44.5 13.5q-24 0 -44 -13t-31.5 -33.5
t-11.5 -43.5v-82q0 -23 11.5 -44.5t31.5 -34.5t44 -13zM323 575q-21 0 -36.5 16t-15.5 37t15.5 36.5t36.5 15.5q20 0 35 -15.5t15 -36.5t-15 -37t-35 -16zM173 575q-21 0 -36 16t-15 37t15 36.5t36 15.5t35.5 -15.5t14.5 -36.5t-14.5 -37t-35.5 -16z" />
    <glyph glyph-name="divide" unicode="&#xf7;" horiz-adv-x="456" 
d="M69 237q-19 0 -30.5 13.5t-11.5 36.5q0 22 11.5 36.5t30.5 14.5h317q16 0 29.5 -14.5t13.5 -36.5q0 -23 -13.5 -36.5t-29.5 -13.5h-317zM225 58q-25 0 -43.5 18t-18.5 42q0 25 18.5 41.5t43.5 16.5q22 0 41.5 -16.5t19.5 -41.5q0 -24 -19.5 -42t-41.5 -18zM225 399
q-25 0 -43.5 17t-18.5 42q0 24 18.5 41.5t43.5 17.5q22 0 41.5 -17.5t19.5 -41.5q0 -25 -19.5 -42t-41.5 -17z" />
    <glyph glyph-name="oslash" unicode="&#xf8;" horiz-adv-x="497" 
d="M248 -9q-58 0 -107 28.5t-79 75.5t-30 101v82q0 54 29 100.5t78.5 74.5t108.5 28t108.5 -27.5t79 -73.5t29.5 -102v-82q0 -53 -30 -100t-79.5 -76t-107.5 -29zM248 104q24 0 44 13t32 34.5t12 44.5v82q0 23 -12 43t-31.5 33.5t-44.5 13.5q-24 0 -44 -13t-31.5 -33.5
t-11.5 -43.5v-82q0 -23 11.5 -44.5t31.5 -34.5t44 -13zM77 -32q-10 0 -19 8t-9 19q0 8 6 16l34 49l273 390l34 48q8 12 20 12t21 -8.5t9 -20.5q0 -9 -7 -19l-33 -46l-277 -390l-35 -49q-6 -9 -17 -9z" />
    <glyph glyph-name="ugrave" unicode="&#xf9;" horiz-adv-x="524" 
d="M263 -9q-60 0 -109.5 28.5t-79 75t-29.5 99.5v240q0 15 19.5 28t45.5 13t45 -13t19 -28v-240q0 -23 12 -43t32 -33.5t44 -13.5q25 0 44.5 13t31.5 34t12 43v241q0 16 19.5 28t44.5 12q29 0 47 -12t18 -28v-241q0 -54 -29.5 -100.5t-79 -74.5t-107.5 -28zM303 555
q-4 0 -7 1.5t-7 2.5l-130 63q-18 9 -18 30q0 17 11.5 33t28.5 16q6 0 13 -2l132 -64q17 -9 17 -31q0 -16 -11.5 -32.5t-28.5 -16.5z" />
    <glyph glyph-name="uacute" unicode="&#xfa;" horiz-adv-x="524" 
d="M263 -9q-60 0 -109.5 28.5t-79 75t-29.5 99.5v240q0 15 19.5 28t45.5 13t45 -13t19 -28v-240q0 -23 12 -43t32 -33.5t44 -13.5q25 0 44.5 13t31.5 34t12 43v241q0 16 19.5 28t44.5 12q29 0 47 -12t18 -28v-241q0 -54 -29.5 -100.5t-79 -74.5t-107.5 -28zM228 555
q-16 0 -28 16.5t-12 32.5q0 22 17 31l132 64q7 2 13 2q17 0 28.5 -16t11.5 -33q0 -21 -18 -30l-130 -63q-4 -1 -7 -2.5t-7 -1.5z" />
    <glyph glyph-name="ucircumflex" unicode="&#xfb;" horiz-adv-x="524" 
d="M263 -9q-60 0 -109.5 28.5t-79 75t-29.5 99.5v240q0 15 19.5 28t45.5 13t45 -13t19 -28v-240q0 -23 12 -43t32 -33.5t44 -13.5q25 0 44.5 13t31.5 34t12 43v241q0 16 19.5 28t44.5 12q29 0 47 -12t18 -28v-241q0 -54 -29.5 -100.5t-79 -74.5t-107.5 -28zM148 563
q-12 0 -20 12.5t-8 27.5q0 11 5 21t17 16l104 56q9 5 17 5q7 0 17 -5l104 -55q12 -6 16.5 -16.5t4.5 -22.5q0 -14 -7.5 -26.5t-20.5 -12.5q-2 0 -5 1t-5 2l-104 56l-104 -56l-6 -2t-5 -1z" />
    <glyph glyph-name="udieresis" unicode="&#xfc;" horiz-adv-x="524" 
d="M263 -9q-60 0 -109.5 28.5t-79 75t-29.5 99.5v240q0 15 19.5 28t45.5 13t45 -13t19 -28v-240q0 -23 12 -43t32 -33.5t44 -13.5q25 0 44.5 13t31.5 34t12 43v241q0 16 19.5 28t44.5 12q29 0 47 -12t18 -28v-241q0 -54 -29.5 -100.5t-79 -74.5t-107.5 -28zM337 564
q-21 0 -36.5 16t-15.5 37t15.5 36.5t36.5 15.5q20 0 35 -15.5t15 -36.5t-15 -37t-35 -16zM187 564q-21 0 -36 16t-15 37t15 36.5t36 15.5t35.5 -15.5t14.5 -36.5t-14.5 -37t-35.5 -16z" />
    <glyph glyph-name="yacute" unicode="&#xfd;" horiz-adv-x="474" 
d="M64 -221q-25 0 -42 9.5t-17 45.5q0 22 7.5 38t25.5 16q17 0 39.5 6t45.5 22.5t39 45t19 73.5l-172 368q-4 9 -4 17q0 17 14.5 31t34.5 22.5t37 8.5q12 0 22.5 -5t14.5 -17l120 -299l96 299q5 12 15 17t20 5q15 0 36 -8.5t36.5 -23t15.5 -32.5q0 -9 -3 -15l-146 -373
q-18 -45 -35 -89.5t-42.5 -81t-67.5 -58.5t-109 -22zM203 555q-16 0 -28 16.5t-12 32.5q0 22 17 31l132 64q7 2 13 2q17 0 28.5 -16t11.5 -33q0 -21 -18 -30l-130 -63q-4 -1 -7 -2.5t-7 -1.5z" />
    <glyph glyph-name="thorn" unicode="&#xfe;" horiz-adv-x="519" 
d="M114 -221q-27 0 -45 13t-18 28v892q0 18 18 29t44 11q29 0 48 -11t19 -29v-307q16 29 49 52.5t78 23.5q50 0 91 -27.5t64.5 -73.5t23.5 -102v-82q0 -53 -24 -100t-64 -76t-87 -29q-44 0 -80 24t-51 55v-250q0 -15 -19 -28t-47 -13zM269 104q24 0 43.5 13.5t32 34.5
t12.5 44v82q0 23 -12 43t-32.5 33.5t-45.5 13.5q-22 0 -41.5 -11t-32.5 -31t-13 -48v-100q0 -10 11.5 -27.5t31.5 -32t46 -14.5z" />
    <glyph glyph-name="ydieresis" unicode="&#xff;" horiz-adv-x="474" 
d="M64 -221q-25 0 -42 9.5t-17 45.5q0 22 7.5 38t25.5 16q17 0 39.5 6t45.5 22.5t39 45t19 73.5l-172 368q-4 9 -4 17q0 17 14.5 31t34.5 22.5t37 8.5q12 0 22.5 -5t14.5 -17l120 -299l96 299q5 12 15 17t20 5q15 0 36 -8.5t36.5 -23t15.5 -32.5q0 -9 -3 -15l-146 -373
q-18 -45 -35 -89.5t-42.5 -81t-67.5 -58.5t-109 -22zM312 564q-21 0 -36.5 16t-15.5 37t15.5 36.5t36.5 15.5q20 0 35 -15.5t15 -36.5t-15 -37t-35 -16zM162 564q-21 0 -36 16t-15 37t15 36.5t36 15.5t35.5 -15.5t14.5 -36.5t-14.5 -37t-35.5 -16z" />
    <glyph glyph-name="Amacron" unicode="&#x100;" 
d="M91 0q-18 0 -37 7t-32 19t-13 28q0 3 1 10l193 629q7 22 31.5 33t52.5 11q29 0 53 -11t31 -33l193 -629q2 -7 2 -10q0 -15 -13.5 -27.5t-32.5 -19.5t-37 -7q-16 0 -27.5 5.5t-15.5 20.5l-38 133h-230l-37 -133q-4 -15 -16 -20.5t-28 -5.5zM200 261h174l-87 307zM184 853
q-17 0 -28.5 12t-11.5 30t11.5 30.5t28.5 12.5h205q15 0 28 -12.5t13 -30.5t-13 -30t-28 -12h-205z" />
    <glyph glyph-name="amacron" unicode="&#x101;" horiz-adv-x="471" 
d="M152 -9q-53 0 -91.5 32.5t-38.5 100.5q0 57 29.5 89t82 45t121.5 13h41v13q0 22 -8.5 43t-27 35t-52.5 14q-38 0 -58.5 -7.5t-31.5 -15.5t-24 -8q-21 0 -32.5 21t-11.5 43q0 21 25.5 37.5t62.5 25.5t72 9q78 0 125 -28t68.5 -72t21.5 -95v-245q0 -17 -18 -29t-45 -12
q-25 0 -41.5 12t-16.5 29v29q-27 -31 -63.5 -55t-88.5 -24zM204 87q21 0 42 14t35.5 36t14.5 46v21h-15q-33 0 -63 -4t-48.5 -17.5t-18.5 -41.5t15.5 -41t37.5 -13zM117 606q-17 0 -28.5 12t-11.5 30t11.5 30.5t28.5 12.5h205q15 0 28 -12.5t13 -30.5t-13 -30t-28 -12h-205z
" />
    <glyph glyph-name="Abreve" unicode="&#x102;" 
d="M91 0q-18 0 -37 7t-32 19t-13 28q0 3 1 10l193 629q7 22 31.5 33t52.5 11q29 0 53 -11t31 -33l193 -629q2 -7 2 -10q0 -15 -13.5 -27.5t-32.5 -19.5t-37 -7q-16 0 -27.5 5.5t-15.5 20.5l-38 133h-230l-37 -133q-4 -15 -16 -20.5t-28 -5.5zM200 261h174l-87 307zM287 831
q-44 0 -81.5 30.5t-48.5 73.5q-3 14 4.5 21.5t21.5 7.5h16q12 0 18.5 -6.5t10.5 -17.5q6 -23 23.5 -37t35.5 -14q20 0 36 14t23 37q4 11 10.5 17.5t18.5 6.5h16q13 0 21 -8t4 -22q-11 -42 -48 -72.5t-81 -30.5z" />
    <glyph glyph-name="abreve" unicode="&#x103;" horiz-adv-x="471" 
d="M152 -9q-53 0 -91.5 32.5t-38.5 100.5q0 57 29.5 89t82 45t121.5 13h41v13q0 22 -8.5 43t-27 35t-52.5 14q-38 0 -58.5 -7.5t-31.5 -15.5t-24 -8q-21 0 -32.5 21t-11.5 43q0 21 25.5 37.5t62.5 25.5t72 9q78 0 125 -28t68.5 -72t21.5 -95v-245q0 -17 -18 -29t-45 -12
q-25 0 -41.5 12t-16.5 29v29q-27 -31 -63.5 -55t-88.5 -24zM204 87q21 0 42 14t35.5 36t14.5 46v21h-15q-33 0 -63 -4t-48.5 -17.5t-18.5 -41.5t15.5 -41t37.5 -13zM220 584q-44 0 -81.5 30.5t-48.5 73.5q-3 14 4.5 21.5t21.5 7.5h16q12 0 18.5 -6.5t10.5 -17.5
q6 -23 23.5 -37t35.5 -14q20 0 36 14t23 37q4 11 10.5 17.5t18.5 6.5h16q13 0 21 -8t4 -22q-11 -42 -48 -72.5t-81 -30.5z" />
    <glyph glyph-name="Aogonek" unicode="&#x104;" 
d="M91 0q-18 0 -37 7t-32 19t-13 28q0 3 1 10l193 629q7 22 31.5 33t52.5 11q29 0 53 -11t31 -33l193 -629q2 -7 2 -10q0 -15 -13.5 -27.5t-32.5 -19.5t-37 -7q-16 0 -27.5 5.5t-15.5 20.5l-38 133h-230l-37 -133q-4 -15 -16 -20.5t-28 -5.5zM200 261h174l-87 307zM508 -213
q-39 0 -64.5 11.5t-39 32t-13.5 46.5q0 41 25.5 82t68.5 67l47 -19q-33 -21 -55.5 -54t-22.5 -64q0 -22 14.5 -34.5t45.5 -12.5q12 0 17.5 -9.5t5.5 -19.5q0 -11 -5.5 -18.5t-23.5 -7.5z" />
    <glyph glyph-name="aogonek" unicode="&#x105;" horiz-adv-x="471" 
d="M152 -9q-53 0 -91.5 32.5t-38.5 100.5q0 57 29.5 89t82 45t121.5 13h41v13q0 22 -8.5 43t-27 35t-52.5 14q-38 0 -58.5 -7.5t-31.5 -15.5t-24 -8q-21 0 -32.5 21t-11.5 43q0 21 25.5 37.5t62.5 25.5t72 9q78 0 125 -28t68.5 -72t21.5 -95v-245q0 -17 -18 -29t-45 -12
q-25 0 -41.5 12t-16.5 29v29q-27 -31 -63.5 -55t-88.5 -24zM204 87q21 0 42 14t35.5 36t14.5 46v21h-15q-33 0 -63 -4t-48.5 -17.5t-18.5 -41.5t15.5 -41t37.5 -13zM372 -212q-39 0 -64.5 11.5t-39 32t-13.5 46.5q0 41 25.5 82t68.5 67l47 -19q-33 -21 -55.5 -54t-22.5 -64
q0 -22 14.5 -34.5t45.5 -12.5q12 0 17.5 -9.5t5.5 -19.5q0 -11 -5.5 -18.5t-23.5 -7.5z" />
    <glyph glyph-name="Cacute" unicode="&#x106;" horiz-adv-x="551" 
d="M283 -6q-62 0 -115 22.5t-84 73t-31 133.5v279q0 83 31 133.5t84 73t116 22.5q70 0 123.5 -23.5t84 -65.5t30.5 -101q0 -39 -16 -51.5t-49 -12.5q-27 0 -45.5 9.5t-19.5 31.5q0 12 -3.5 28.5t-13.5 32.5t-30.5 27t-56.5 11q-51 0 -78.5 -28.5t-27.5 -86.5v-279
q0 -59 28 -87t80 -28q34 0 54 11t29.5 27.5t13 34.5t5.5 34q2 23 20 32t44 9q34 0 50 -13t16 -51q0 -60 -30.5 -105t-84.5 -69t-124 -24zM245 811q-16 0 -28 16.5t-12 32.5q0 22 17 31l132 64q7 2 13 2q17 0 28.5 -16t11.5 -33q0 -21 -18 -30l-130 -63q-4 -1 -7 -2.5
t-7 -1.5z" />
    <glyph glyph-name="cacute" unicode="&#x107;" horiz-adv-x="433" 
d="M251 -9q-76 0 -124 27t-71 73.5t-23 104.5v80q0 58 22.5 104.5t71 73.5t122.5 27q47 0 83 -11t57 -29t21 -38q0 -11 -6.5 -26t-18 -26t-26.5 -11q-11 0 -22.5 7t-29.5 14t-48 7q-51 0 -74 -24.5t-23 -67.5v-80q0 -43 23 -67.5t75 -24.5q31 0 48 8t28.5 15t23.5 7
q18 0 30.5 -10t19 -24.5t6.5 -26.5q0 -20 -21.5 -39t-59 -31t-84.5 -12zM212 568q-16 0 -28 16.5t-12 32.5q0 22 17 31l132 64q7 2 13 2q17 0 28.5 -16t11.5 -33q0 -21 -18 -30l-130 -63q-4 -1 -7 -2.5t-7 -1.5z" />
    <glyph glyph-name="Ccircumflex" unicode="&#x108;" horiz-adv-x="551" 
d="M283 -6q-62 0 -115 22.5t-84 73t-31 133.5v279q0 83 31 133.5t84 73t116 22.5q70 0 123.5 -23.5t84 -65.5t30.5 -101q0 -39 -16 -51.5t-49 -12.5q-27 0 -45.5 9.5t-19.5 31.5q0 12 -3.5 28.5t-13.5 32.5t-30.5 27t-56.5 11q-51 0 -78.5 -28.5t-27.5 -86.5v-279
q0 -59 28 -87t80 -28q34 0 54 11t29.5 27.5t13 34.5t5.5 34q2 23 20 32t44 9q34 0 50 -13t16 -51q0 -60 -30.5 -105t-84.5 -69t-124 -24zM164 819q-12 0 -20 12.5t-8 27.5q0 11 5 21t17 16l104 56q9 5 17 5q7 0 17 -5l104 -55q12 -6 16.5 -16.5t4.5 -22.5q0 -14 -7.5 -26.5
t-20.5 -12.5q-2 0 -5 1t-5 2l-104 56l-104 -56l-6 -2t-5 -1z" />
    <glyph glyph-name="ccircumflex" unicode="&#x109;" horiz-adv-x="433" 
d="M251 -9q-76 0 -124 27t-71 73.5t-23 104.5v80q0 58 22.5 104.5t71 73.5t122.5 27q47 0 83 -11t57 -29t21 -38q0 -11 -6.5 -26t-18 -26t-26.5 -11q-11 0 -22.5 7t-29.5 14t-48 7q-51 0 -74 -24.5t-23 -67.5v-80q0 -43 23 -67.5t75 -24.5q31 0 48 8t28.5 15t23.5 7
q18 0 30.5 -10t19 -24.5t6.5 -26.5q0 -20 -21.5 -39t-59 -31t-84.5 -12zM132 575q-12 0 -20 12.5t-8 27.5q0 11 5 21t17 16l104 56q9 5 17 5q7 0 17 -5l104 -55q12 -6 16.5 -16.5t4.5 -22.5q0 -14 -7.5 -26.5t-20.5 -12.5q-2 0 -5 1t-5 2l-104 56l-104 -56l-6 -2t-5 -1z" />
    <glyph glyph-name="Cdotaccent" unicode="&#x10a;" horiz-adv-x="551" 
d="M283 -6q-62 0 -115 22.5t-84 73t-31 133.5v279q0 83 31 133.5t84 73t116 22.5q70 0 123.5 -23.5t84 -65.5t30.5 -101q0 -39 -16 -51.5t-49 -12.5q-27 0 -45.5 9.5t-19.5 31.5q0 12 -3.5 28.5t-13.5 32.5t-30.5 27t-56.5 11q-51 0 -78.5 -28.5t-27.5 -86.5v-279
q0 -59 28 -87t80 -28q34 0 54 11t29.5 27.5t13 34.5t5.5 34q2 23 20 32t44 9q34 0 50 -13t16 -51q0 -60 -30.5 -105t-84.5 -69t-124 -24zM279 821q-21 0 -36.5 16t-15.5 37t15.5 37t36.5 16t36 -16t15 -37t-15 -37t-36 -16z" />
    <glyph glyph-name="cdotaccent" unicode="&#x10b;" horiz-adv-x="433" 
d="M251 -9q-76 0 -124 27t-71 73.5t-23 104.5v80q0 58 22.5 104.5t71 73.5t122.5 27q47 0 83 -11t57 -29t21 -38q0 -11 -6.5 -26t-18 -26t-26.5 -11q-11 0 -22.5 7t-29.5 14t-48 7q-51 0 -74 -24.5t-23 -67.5v-80q0 -43 23 -67.5t75 -24.5q31 0 48 8t28.5 15t23.5 7
q18 0 30.5 -10t19 -24.5t6.5 -26.5q0 -20 -21.5 -39t-59 -31t-84.5 -12zM247 577q-21 0 -36.5 16t-15.5 37t15.5 37t36.5 16t36 -16t15 -37t-15 -37t-36 -16z" />
    <glyph glyph-name="Ccaron" unicode="&#x10c;" horiz-adv-x="551" 
d="M283 -6q-62 0 -115 22.5t-84 73t-31 133.5v279q0 83 31 133.5t84 73t116 22.5q70 0 123.5 -23.5t84 -65.5t30.5 -101q0 -39 -16 -51.5t-49 -12.5q-27 0 -45.5 9.5t-19.5 31.5q0 12 -3.5 28.5t-13.5 32.5t-30.5 27t-56.5 11q-51 0 -78.5 -28.5t-27.5 -86.5v-279
q0 -59 28 -87t80 -28q34 0 54 11t29.5 27.5t13 34.5t5.5 34q2 23 20 32t44 9q34 0 50 -13t16 -51q0 -60 -30.5 -105t-84.5 -69t-124 -24zM279 826q-8 0 -18 6l-103 66q-11 7 -16.5 16.5t-5.5 21.5q0 14 8 26.5t20 12.5q6 0 12 -4l103 -66l102 66q7 4 12 4q13 0 20.5 -12.5
t7.5 -26.5q0 -12 -4.5 -21.5t-16.5 -16.5l-103 -66q-11 -6 -18 -6z" />
    <glyph glyph-name="ccaron" unicode="&#x10d;" horiz-adv-x="433" 
d="M251 -9q-76 0 -124 27t-71 73.5t-23 104.5v80q0 58 22.5 104.5t71 73.5t122.5 27q47 0 83 -11t57 -29t21 -38q0 -11 -6.5 -26t-18 -26t-26.5 -11q-11 0 -22.5 7t-29.5 14t-48 7q-51 0 -74 -24.5t-23 -67.5v-80q0 -43 23 -67.5t75 -24.5q31 0 48 8t28.5 15t23.5 7
q18 0 30.5 -10t19 -24.5t6.5 -26.5q0 -20 -21.5 -39t-59 -31t-84.5 -12zM247 582q-8 0 -18 6l-103 66q-11 7 -16.5 16.5t-5.5 21.5q0 14 8 26.5t20 12.5q6 0 12 -4l103 -66l102 66q7 4 12 4q13 0 20.5 -12.5t7.5 -26.5q0 -12 -4.5 -21.5t-16.5 -16.5l-103 -66q-11 -6 -18 -6
z" />
    <glyph glyph-name="Dcaron" unicode="&#x10e;" horiz-adv-x="581" 
d="M117 0q-26 0 -41.5 12t-15.5 28v651q0 16 15.5 28t41.5 12h177q67 0 120 -22.5t84.5 -73t31.5 -133.5v-273q0 -83 -31.5 -133.5t-84.5 -73t-120 -22.5h-177zM190 114h104q50 0 78 28.5t28 86.5v273q0 58 -28 86.5t-77 28.5h-105v-503zM291 826q-8 0 -18 6l-103 66
q-11 7 -16.5 16.5t-5.5 21.5q0 14 8 26.5t20 12.5q6 0 12 -4l103 -66l102 66q7 4 12 4q13 0 20.5 -12.5t7.5 -26.5q0 -12 -4.5 -21.5t-16.5 -16.5l-103 -66q-11 -6 -18 -6z" />
    <glyph glyph-name="dcaron" unicode="&#x10f;" horiz-adv-x="519" 
d="M208 -9q-47 0 -87 29t-64 76t-24 100v82q0 56 24 102t64 73.5t89 27.5q47 0 80 -23.5t49 -52.5v307q0 18 19 29t47 11q27 0 45 -11t18 -29v-671q0 -15 -18 -28t-45 -13q-24 0 -41 13t-17 28v29q-15 -31 -53.5 -55t-85.5 -24zM249 104q26 0 46 14.5t32 32t12 27.5v100
q0 28 -13.5 48t-34 31t-41.5 11q-24 0 -44.5 -13.5t-32 -33.5t-11.5 -43v-82q0 -23 11.5 -44t31.5 -34.5t44 -13.5zM571 511q-14 0 -28.5 8.5t-14.5 25.5q0 7 4 14l23 53q-17 9 -27 25t-10 36q0 28 20 48t47 20q28 0 48 -20t20 -47q0 -5 -1.5 -13t-7.5 -22.5t-17 -41.5
t-29 -70q-4 -8 -12 -12t-15 -4z" />
    <glyph glyph-name="Dcroat" unicode="&#x110;" horiz-adv-x="588" 
d="M124 0q-26 0 -41.5 12t-15.5 28v296h-41q-16 0 -24.5 14t-8.5 32t8.5 32.5t24.5 14.5h41v262q0 16 15.5 28t41.5 12h177q66 0 119.5 -22.5t84.5 -73t31 -133.5v-273q0 -83 -31 -133.5t-84.5 -73t-119.5 -22.5h-177zM197 114h104q50 0 77.5 28.5t27.5 86.5v273
q0 58 -27.5 86.5t-77.5 28.5h-104v-188h77q16 0 25 -14.5t9 -32.5t-9 -32t-25 -14h-77v-222z" />
    <glyph glyph-name="dcroat" unicode="&#x111;" horiz-adv-x="519" 
d="M208 -9q-47 0 -87 29t-64 76t-24 100v82q0 56 24 102t64 73.5t89 27.5q47 0 80 -23.5t49 -52.5v148h-78q-16 0 -24.5 14.5t-8.5 32.5q0 17 8.5 32t24.5 15h78v65q0 18 19 29t47 11q27 0 45 -11t18 -29v-65h30q16 0 24.5 -15t8.5 -32q0 -19 -8.5 -33t-24.5 -14h-30v-512
q0 -15 -18 -28t-45 -13q-24 0 -41 13t-17 28v29q-15 -31 -53.5 -55t-85.5 -24zM249 104q26 0 46 14.5t32 32t12 27.5v100q0 28 -13.5 48t-34 31t-41.5 11q-24 0 -44.5 -13.5t-32 -33.5t-11.5 -43v-82q0 -23 11.5 -44t31.5 -34.5t44 -13.5z" />
    <glyph glyph-name="Emacron" unicode="&#x112;" horiz-adv-x="530" 
d="M117 0q-21 0 -39 10.5t-18 30.5v649q0 20 18 30.5t39 10.5h356q22 0 31.5 -18t9.5 -38q0 -24 -10.5 -41t-30.5 -17h-283v-200h152q20 0 30.5 -15.5t10.5 -36.5q0 -17 -9.5 -33.5t-31.5 -16.5h-152v-201h283q20 0 30.5 -17t10.5 -41q0 -20 -9.5 -38t-31.5 -18h-356z
M178 853q-17 0 -28.5 12t-11.5 30t11.5 30.5t28.5 12.5h205q15 0 28 -12.5t13 -30.5t-13 -30t-28 -12h-205z" />
    <glyph glyph-name="emacron" unicode="&#x113;" horiz-adv-x="485" 
d="M274 -9q-71 0 -125.5 25.5t-85.5 72t-31 107.5v85q0 54 29.5 99.5t79 73t110.5 27.5q56 0 102.5 -24t75.5 -66t29 -98q0 -43 -14 -61.5t-35.5 -23t-44.5 -4.5h-203v-15q0 -43 32.5 -69.5t84.5 -26.5q33 0 55 10t38 19t30 9q15 0 26 -10t17 -23.5t6 -23.5
q0 -17 -21.5 -36.5t-61 -33t-93.5 -13.5zM161 280h146q17 0 23.5 5.5t6.5 21.5q0 23 -12 41t-32 28t-44 10q-23 0 -43 -9.5t-32.5 -27t-12.5 -41.5v-28zM147 609q-17 0 -28.5 12t-11.5 30t11.5 30.5t28.5 12.5h205q15 0 28 -12.5t13 -30.5t-13 -30t-28 -12h-205z" />
    <glyph glyph-name="Ebreve" unicode="&#x114;" horiz-adv-x="530" 
d="M117 0q-21 0 -39 10.5t-18 30.5v649q0 20 18 30.5t39 10.5h356q22 0 31.5 -18t9.5 -38q0 -24 -10.5 -41t-30.5 -17h-283v-200h152q20 0 30.5 -15.5t10.5 -36.5q0 -17 -9.5 -33.5t-31.5 -16.5h-152v-201h283q20 0 30.5 -17t10.5 -41q0 -20 -9.5 -38t-31.5 -18h-356z
M281 831q-44 0 -81.5 30.5t-48.5 73.5q-3 14 4.5 21.5t21.5 7.5h16q12 0 18.5 -6.5t10.5 -17.5q6 -23 23.5 -37t35.5 -14q20 0 36 14t23 37q4 11 10.5 17.5t18.5 6.5h16q13 0 21 -8t4 -22q-11 -42 -48 -72.5t-81 -30.5z" />
    <glyph glyph-name="ebreve" unicode="&#x115;" horiz-adv-x="485" 
d="M274 -9q-71 0 -125.5 25.5t-85.5 72t-31 107.5v85q0 54 29.5 99.5t79 73t110.5 27.5q56 0 102.5 -24t75.5 -66t29 -98q0 -43 -14 -61.5t-35.5 -23t-44.5 -4.5h-203v-15q0 -43 32.5 -69.5t84.5 -26.5q33 0 55 10t38 19t30 9q15 0 26 -10t17 -23.5t6 -23.5
q0 -17 -21.5 -36.5t-61 -33t-93.5 -13.5zM161 280h146q17 0 23.5 5.5t6.5 21.5q0 23 -12 41t-32 28t-44 10q-23 0 -43 -9.5t-32.5 -27t-12.5 -41.5v-28zM251 587q-44 0 -81.5 30.5t-48.5 73.5q-3 14 4.5 21.5t21.5 7.5h16q12 0 18.5 -6.5t10.5 -17.5q6 -23 23.5 -37
t35.5 -14q20 0 36 14t23 37q4 11 10.5 17.5t18.5 6.5h16q13 0 21 -8t4 -22q-11 -42 -48 -72.5t-81 -30.5z" />
    <glyph glyph-name="Edotaccent" unicode="&#x116;" horiz-adv-x="530" 
d="M117 0q-21 0 -39 10.5t-18 30.5v649q0 20 18 30.5t39 10.5h356q22 0 31.5 -18t9.5 -38q0 -24 -10.5 -41t-30.5 -17h-283v-200h152q20 0 30.5 -15.5t10.5 -36.5q0 -17 -9.5 -33.5t-31.5 -16.5h-152v-201h283q20 0 30.5 -17t10.5 -41q0 -20 -9.5 -38t-31.5 -18h-356z
M282 821q-21 0 -36.5 16t-15.5 37t15.5 37t36.5 16t36 -16t15 -37t-15 -37t-36 -16z" />
    <glyph glyph-name="edotaccent" unicode="&#x117;" horiz-adv-x="485" 
d="M274 -9q-71 0 -125.5 25.5t-85.5 72t-31 107.5v85q0 54 29.5 99.5t79 73t110.5 27.5q56 0 102.5 -24t75.5 -66t29 -98q0 -43 -14 -61.5t-35.5 -23t-44.5 -4.5h-203v-15q0 -43 32.5 -69.5t84.5 -26.5q33 0 55 10t38 19t30 9q15 0 26 -10t17 -23.5t6 -23.5
q0 -17 -21.5 -36.5t-61 -33t-93.5 -13.5zM161 280h146q17 0 23.5 5.5t6.5 21.5q0 23 -12 41t-32 28t-44 10q-23 0 -43 -9.5t-32.5 -27t-12.5 -41.5v-28zM251 576q-21 0 -36.5 16t-15.5 37t15.5 37t36.5 16t36 -16t15 -37t-15 -37t-36 -16z" />
    <glyph glyph-name="Eogonek" unicode="&#x118;" horiz-adv-x="530" 
d="M117 0q-21 0 -39 10.5t-18 30.5v649q0 20 18 30.5t39 10.5h356q22 0 31.5 -18t9.5 -38q0 -24 -10.5 -41t-30.5 -17h-283v-200h152q20 0 30.5 -15.5t10.5 -36.5q0 -17 -9.5 -33.5t-31.5 -16.5h-152v-201h283q20 0 30.5 -17t10.5 -41q0 -20 -9.5 -38t-31.5 -18h-356z
M471 -213q-39 0 -64.5 11.5t-39 32t-13.5 46.5q0 41 25.5 82t68.5 67l47 -19q-33 -21 -55.5 -54t-22.5 -64q0 -22 14.5 -34.5t45.5 -12.5q12 0 17.5 -9.5t5.5 -19.5q0 -11 -5.5 -18.5t-23.5 -7.5z" />
    <glyph glyph-name="eogonek" unicode="&#x119;" horiz-adv-x="485" 
d="M274 -9q-71 0 -125.5 25.5t-85.5 72t-31 107.5v85q0 54 29.5 99.5t79 73t110.5 27.5q56 0 102.5 -24t75.5 -66t29 -98q0 -43 -14 -61.5t-35.5 -23t-44.5 -4.5h-203v-15q0 -43 32.5 -69.5t84.5 -26.5q33 0 55 10t38 19t30 9q15 0 26 -10t17 -23.5t6 -23.5
q0 -17 -21.5 -36.5t-61 -33t-93.5 -13.5zM161 280h146q17 0 23.5 5.5t6.5 21.5q0 23 -12 41t-32 28t-44 10q-23 0 -43 -9.5t-32.5 -27t-12.5 -41.5v-28zM364 -202q-39 0 -64.5 11.5t-39 32t-13.5 46.5q0 41 25.5 82t68.5 67l47 -19q-33 -21 -55.5 -54t-22.5 -64
q0 -22 14.5 -34.5t45.5 -12.5q12 0 17.5 -9.5t5.5 -19.5q0 -11 -5.5 -18.5t-23.5 -7.5z" />
    <glyph glyph-name="Ecaron" unicode="&#x11a;" horiz-adv-x="530" 
d="M117 0q-21 0 -39 10.5t-18 30.5v649q0 20 18 30.5t39 10.5h356q22 0 31.5 -18t9.5 -38q0 -24 -10.5 -41t-30.5 -17h-283v-200h152q20 0 30.5 -15.5t10.5 -36.5q0 -17 -9.5 -33.5t-31.5 -16.5h-152v-201h283q20 0 30.5 -17t10.5 -41q0 -20 -9.5 -38t-31.5 -18h-356z
M282 826q-8 0 -18 6l-103 66q-11 7 -16.5 16.5t-5.5 21.5q0 14 8 26.5t20 12.5q6 0 12 -4l103 -66l102 66q7 4 12 4q13 0 20.5 -12.5t7.5 -26.5q0 -12 -4.5 -21.5t-16.5 -16.5l-103 -66q-11 -6 -18 -6z" />
    <glyph glyph-name="ecaron" unicode="&#x11b;" horiz-adv-x="485" 
d="M274 -9q-71 0 -125.5 25.5t-85.5 72t-31 107.5v85q0 54 29.5 99.5t79 73t110.5 27.5q56 0 102.5 -24t75.5 -66t29 -98q0 -43 -14 -61.5t-35.5 -23t-44.5 -4.5h-203v-15q0 -43 32.5 -69.5t84.5 -26.5q33 0 55 10t38 19t30 9q15 0 26 -10t17 -23.5t6 -23.5
q0 -17 -21.5 -36.5t-61 -33t-93.5 -13.5zM161 280h146q17 0 23.5 5.5t6.5 21.5q0 23 -12 41t-32 28t-44 10q-23 0 -43 -9.5t-32.5 -27t-12.5 -41.5v-28zM251 581q-8 0 -18 6l-103 66q-11 7 -16.5 16.5t-5.5 21.5q0 14 8 26.5t20 12.5q6 0 12 -4l103 -66l102 66q7 4 12 4
q13 0 20.5 -12.5t7.5 -26.5q0 -12 -4.5 -21.5t-16.5 -16.5l-103 -66q-11 -6 -18 -6z" />
    <glyph glyph-name="Gcircumflex" unicode="&#x11c;" horiz-adv-x="564" 
d="M287 -6q-66 0 -119 22.5t-84 73t-31 133.5v279q0 83 31 133.5t83.5 73t115.5 22.5q70 0 123.5 -23t84.5 -66t31 -103q0 -37 -16 -49.5t-49 -12.5q-26 0 -45 9t-20 32q-1 24 -9.5 46.5t-30 37.5t-65.5 15q-49 0 -77 -28.5t-28 -86.5v-279q0 -58 28 -86.5t77 -28.5t77 28.5
t28 86.5v59h-81q-19 0 -29.5 16t-10.5 35t10.5 35t29.5 16h170q20 0 30.5 -12.5t10.5 -29.5v-119q0 -83 -31 -133.5t-84.5 -73t-119.5 -22.5zM170 819q-12 0 -20 12.5t-8 27.5q0 11 5 21t17 16l104 56q9 5 17 5q7 0 17 -5l104 -55q12 -6 16.5 -16.5t4.5 -22.5
q0 -14 -7.5 -26.5t-20.5 -12.5q-2 0 -5 1t-5 2l-104 56l-104 -56l-6 -2t-5 -1z" />
    <glyph glyph-name="gcircumflex" unicode="&#x11d;" horiz-adv-x="471" 
d="M237 -221q-59 0 -109.5 16.5t-81 48.5t-30.5 76q0 38 21 64.5t52 41.5q-19 9 -30.5 24t-11.5 40q0 28 14.5 45.5t36.5 32.5q-30 23 -46 55.5t-16 71.5v21q0 49 24 86t68.5 58t102.5 21q33 0 62 -7.5t52 -21.5q17 40 32 54t29 14q24 0 37.5 -14t13.5 -26q0 -9 -4.5 -16
t-12.5 -12q-9 -6 -22 -14.5t-24 -23.5q18 -20 26.5 -44.5t8.5 -53.5v-21q0 -48 -25 -85.5t-70 -59.5t-103 -22q-36 0 -65 9q-5 -4 -8.5 -9t-3.5 -11q0 -17 22 -24t56 -11t72.5 -10.5t72.5 -20.5t56 -41.5t22 -73.5q0 -56 -31.5 -90.5t-81 -50.5t-105.5 -16zM235 -138
q39 0 66.5 19t27.5 51q0 21 -12 34t-32.5 19.5t-44.5 10t-48 6.5q-24 -11 -39 -28t-15 -41q0 -33 28.5 -52t68.5 -19zM233 206q33 0 52 25t19 64v21q0 37 -18.5 62t-53.5 25q-34 0 -52.5 -25t-18.5 -62v-20q0 -38 18.5 -64t53.5 -26zM102 574q-12 0 -20 12.5t-8 27.5
q0 11 5 21t17 16l104 56q9 5 17 5q7 0 17 -5l104 -55q12 -6 16.5 -16.5t4.5 -22.5q0 -14 -7.5 -26.5t-20.5 -12.5q-2 0 -5 1t-5 2l-104 56l-104 -56l-6 -2t-5 -1z" />
    <glyph glyph-name="Gbreve" unicode="&#x11e;" horiz-adv-x="564" 
d="M287 -6q-66 0 -119 22.5t-84 73t-31 133.5v279q0 83 31 133.5t83.5 73t115.5 22.5q70 0 123.5 -23t84.5 -66t31 -103q0 -37 -16 -49.5t-49 -12.5q-26 0 -45 9t-20 32q-1 24 -9.5 46.5t-30 37.5t-65.5 15q-49 0 -77 -28.5t-28 -86.5v-279q0 -58 28 -86.5t77 -28.5t77 28.5
t28 86.5v59h-81q-19 0 -29.5 16t-10.5 35t10.5 35t29.5 16h170q20 0 30.5 -12.5t10.5 -29.5v-119q0 -83 -31 -133.5t-84.5 -73t-119.5 -22.5zM284 831q-44 0 -81.5 30.5t-48.5 73.5q-3 14 4.5 21.5t21.5 7.5h16q12 0 18.5 -6.5t10.5 -17.5q6 -23 23.5 -37t35.5 -14
q20 0 36 14t23 37q4 11 10.5 17.5t18.5 6.5h16q13 0 21 -8t4 -22q-11 -42 -48 -72.5t-81 -30.5z" />
    <glyph glyph-name="gbreve" unicode="&#x11f;" horiz-adv-x="471" 
d="M237 -221q-59 0 -109.5 16.5t-81 48.5t-30.5 76q0 38 21 64.5t52 41.5q-19 9 -30.5 24t-11.5 40q0 28 14.5 45.5t36.5 32.5q-30 23 -46 55.5t-16 71.5v21q0 49 24 86t68.5 58t102.5 21q33 0 62 -7.5t52 -21.5q17 40 32 54t29 14q24 0 37.5 -14t13.5 -26q0 -9 -4.5 -16
t-12.5 -12q-9 -6 -22 -14.5t-24 -23.5q18 -20 26.5 -44.5t8.5 -53.5v-21q0 -48 -25 -85.5t-70 -59.5t-103 -22q-36 0 -65 9q-5 -4 -8.5 -9t-3.5 -11q0 -17 22 -24t56 -11t72.5 -10.5t72.5 -20.5t56 -41.5t22 -73.5q0 -56 -31.5 -90.5t-81 -50.5t-105.5 -16zM235 -138
q39 0 66.5 19t27.5 51q0 21 -12 34t-32.5 19.5t-44.5 10t-48 6.5q-24 -11 -39 -28t-15 -41q0 -33 28.5 -52t68.5 -19zM233 206q33 0 52 25t19 64v21q0 37 -18.5 62t-53.5 25q-34 0 -52.5 -25t-18.5 -62v-20q0 -38 18.5 -64t53.5 -26zM216 587q-44 0 -81.5 30.5t-48.5 73.5
q-3 14 4.5 21.5t21.5 7.5h16q12 0 18.5 -6.5t10.5 -17.5q6 -23 23.5 -37t35.5 -14q20 0 36 14t23 37q4 11 10.5 17.5t18.5 6.5h16q13 0 21 -8t4 -22q-11 -42 -48 -72.5t-81 -30.5z" />
    <glyph glyph-name="Gdotaccent" unicode="&#x120;" horiz-adv-x="564" 
d="M287 -6q-66 0 -119 22.5t-84 73t-31 133.5v279q0 83 31 133.5t83.5 73t115.5 22.5q70 0 123.5 -23t84.5 -66t31 -103q0 -37 -16 -49.5t-49 -12.5q-26 0 -45 9t-20 32q-1 24 -9.5 46.5t-30 37.5t-65.5 15q-49 0 -77 -28.5t-28 -86.5v-279q0 -58 28 -86.5t77 -28.5t77 28.5
t28 86.5v59h-81q-19 0 -29.5 16t-10.5 35t10.5 35t29.5 16h170q20 0 30.5 -12.5t10.5 -29.5v-119q0 -83 -31 -133.5t-84.5 -73t-119.5 -22.5zM284 821q-21 0 -36.5 16t-15.5 37t15.5 37t36.5 16t36 -16t15 -37t-15 -37t-36 -16z" />
    <glyph glyph-name="gdotaccent" unicode="&#x121;" horiz-adv-x="471" 
d="M237 -221q-59 0 -109.5 16.5t-81 48.5t-30.5 76q0 38 21 64.5t52 41.5q-19 9 -30.5 24t-11.5 40q0 28 14.5 45.5t36.5 32.5q-30 23 -46 55.5t-16 71.5v21q0 49 24 86t68.5 58t102.5 21q33 0 62 -7.5t52 -21.5q17 40 32 54t29 14q24 0 37.5 -14t13.5 -26q0 -9 -4.5 -16
t-12.5 -12q-9 -6 -22 -14.5t-24 -23.5q18 -20 26.5 -44.5t8.5 -53.5v-21q0 -48 -25 -85.5t-70 -59.5t-103 -22q-36 0 -65 9q-5 -4 -8.5 -9t-3.5 -11q0 -17 22 -24t56 -11t72.5 -10.5t72.5 -20.5t56 -41.5t22 -73.5q0 -56 -31.5 -90.5t-81 -50.5t-105.5 -16zM235 -138
q39 0 66.5 19t27.5 51q0 21 -12 34t-32.5 19.5t-44.5 10t-48 6.5q-24 -11 -39 -28t-15 -41q0 -33 28.5 -52t68.5 -19zM233 206q33 0 52 25t19 64v21q0 37 -18.5 62t-53.5 25q-34 0 -52.5 -25t-18.5 -62v-20q0 -38 18.5 -64t53.5 -26zM217 576q-21 0 -36.5 16t-15.5 37
t15.5 37t36.5 16t36 -16t15 -37t-15 -37t-36 -16z" />
    <glyph glyph-name="uni0122" unicode="&#x122;" horiz-adv-x="564" 
d="M287 -6q-66 0 -119 22.5t-84 73t-31 133.5v279q0 83 31 133.5t83.5 73t115.5 22.5q70 0 123.5 -23t84.5 -66t31 -103q0 -37 -16 -49.5t-49 -12.5q-26 0 -45 9t-20 32q-1 24 -9.5 46.5t-30 37.5t-65.5 15q-49 0 -77 -28.5t-28 -86.5v-279q0 -58 28 -86.5t77 -28.5t77 28.5
t28 86.5v59h-81q-19 0 -29.5 16t-10.5 35t10.5 35t29.5 16h170q20 0 30.5 -12.5t10.5 -29.5v-119q0 -83 -31 -133.5t-84.5 -73t-119.5 -22.5zM221 -194q-16 0 -28 16.5t-12 32.5q0 22 17 30l132 64q7 3 13 3q17 0 28.5 -16t11.5 -33q0 -22 -18 -31l-130 -62q-4 -1 -7 -2.5
t-7 -1.5z" />
    <glyph glyph-name="uni0123" unicode="&#x123;" horiz-adv-x="471" 
d="M237 -221q-59 0 -109.5 16.5t-81 48.5t-30.5 76q0 38 21 64.5t52 41.5q-19 9 -30.5 24t-11.5 40q0 28 14.5 45.5t36.5 32.5q-30 23 -46 55.5t-16 71.5v21q0 49 24 86t68.5 58t102.5 21q33 0 62 -7.5t52 -21.5q17 40 32 54t29 14q24 0 37.5 -14t13.5 -26q0 -9 -4.5 -16
t-12.5 -12q-9 -6 -22 -14.5t-24 -23.5q18 -20 26.5 -44.5t8.5 -53.5v-21q0 -48 -25 -85.5t-70 -59.5t-103 -22q-36 0 -65 9q-5 -4 -8.5 -9t-3.5 -11q0 -17 22 -24t56 -11t72.5 -10.5t72.5 -20.5t56 -41.5t22 -73.5q0 -56 -31.5 -90.5t-81 -50.5t-105.5 -16zM235 -138
q39 0 66.5 19t27.5 51q0 21 -12 34t-32.5 19.5t-44.5 10t-48 6.5q-24 -11 -39 -28t-15 -41q0 -33 28.5 -52t68.5 -19zM233 206q33 0 52 25t19 64v21q0 37 -18.5 62t-53.5 25q-34 0 -52.5 -25t-18.5 -62v-20q0 -38 18.5 -64t53.5 -26zM189 568q-16 0 -28 16.5t-12 32.5
q0 22 18 31l131 64q7 2 13 2q17 0 28.5 -16t11.5 -33q0 -21 -18 -30l-130 -63q-4 -1 -7 -2.5t-7 -1.5z" />
    <glyph glyph-name="Hcircumflex" unicode="&#x124;" horiz-adv-x="606" 
d="M125 0q-24 0 -44.5 10.5t-20.5 30.5v650q0 21 20.5 30.5t44.5 9.5q25 0 45 -9.5t20 -30.5v-261h225v261q0 21 20.5 30.5t44.5 9.5q25 0 45 -9.5t20 -30.5v-650q0 -20 -20 -30.5t-45 -10.5q-24 0 -44.5 10.5t-20.5 30.5v287h-225v-287q0 -20 -20 -30.5t-45 -10.5zM189 819
q-12 0 -20 12.5t-8 27.5q0 11 5 21t17 16l104 56q9 5 17 5q7 0 17 -5l104 -55q12 -6 16.5 -16.5t4.5 -22.5q0 -14 -7.5 -26.5t-20.5 -12.5q-2 0 -5 1t-5 2l-104 56l-104 -56l-6 -2t-5 -1z" />
    <glyph glyph-name="hcircumflex" unicode="&#x125;" horiz-adv-x="524" 
d="M115 0q-28 0 -46 13t-18 28v671q0 18 18 29t46 11q27 0 46 -11t19 -29v-307q15 29 47 52.5t79 23.5t86 -27.5t62.5 -73.5t23.5 -102v-237q0 -20 -20 -30.5t-45 -10.5q-22 0 -43 10.5t-21 30.5v237q0 23 -12 43t-31.5 33.5t-43.5 13.5q-20 0 -39 -11t-31 -31t-12 -48v-237
q0 -15 -19 -28t-46 -13zM-10 837q-12 0 -20 12.5t-8 27.5q0 11 5 21t17 16l104 56q9 5 17 5q7 0 17 -5l104 -55q12 -6 16.5 -16.5t4.5 -22.5q0 -14 -7.5 -26.5t-20.5 -12.5q-2 0 -5 1t-5 2l-104 56l-104 -56l-6 -2t-5 -1z" />
    <glyph glyph-name="Hbar" unicode="&#x126;" horiz-adv-x="609" 
d="M127 0q-24 0 -44.5 10.5t-20.5 30.5v493h-13q-16 0 -24.5 13t-8.5 29t8.5 29.5t24.5 13.5h13v72q0 21 20.5 30.5t44.5 9.5t44.5 -9.5t20.5 -30.5v-72h225v72q0 21 20.5 30.5t44.5 9.5t44.5 -9.5t20.5 -30.5v-72h13q16 0 24 -13.5t8 -29.5t-8 -29t-24 -13h-13v-493
q0 -20 -20.5 -30.5t-44.5 -10.5t-44.5 10.5t-20.5 30.5v287h-225v-287q0 -20 -20.5 -30.5t-44.5 -10.5zM192 430h225v104h-225v-104z" />
    <glyph glyph-name="hbar" unicode="&#x127;" horiz-adv-x="524" 
d="M115 0q-28 0 -46 13t-18 28v514h-25q-18 0 -29 12t-11 30t11 30.5t29 12.5h25v72q0 18 18 29t46 11q27 0 46 -11t19 -29v-72h50q16 0 29 -12.5t13 -30.5t-13 -30t-29 -12h-50v-150q15 29 47 52.5t79 23.5t86 -27.5t62.5 -73.5t23.5 -102v-237q0 -20 -20 -30.5t-45 -10.5
q-22 0 -43 10.5t-21 30.5v237q0 23 -12 43t-31.5 33.5t-43.5 13.5q-20 0 -39 -11t-31 -31t-12 -48v-237q0 -15 -19 -28t-46 -13z" />
    <glyph glyph-name="Itilde" unicode="&#x128;" horiz-adv-x="251" 
d="M125 0q-24 0 -44.5 10.5t-20.5 30.5v650q0 21 20.5 30.5t44.5 9.5q25 0 45 -9.5t20 -30.5v-650q0 -20 -20 -30.5t-45 -10.5zM211 831q-32 0 -55 7.5t-42.5 14.5t-44.5 7q-21 0 -35.5 -6t-25.5 -12t-21 -6q-13 0 -20 8t-10 18.5t-3 15.5q0 23 10 36.5t24.5 20.5t29 9
t22.5 2q30 0 51 -7t42.5 -14.5t48.5 -7.5q21 0 35 6t25 12t21 6q14 0 20.5 -8.5t9.5 -18.5t3 -15q0 -24 -10 -37t-24 -20t-28.5 -9t-22.5 -2z" />
    <glyph glyph-name="itilde" unicode="&#x129;" horiz-adv-x="228" 
d="M114 0q-28 0 -46 13t-18 28v394q0 18 18 29t46 11q27 0 46 -11t19 -29v-394q0 -15 -19 -28t-46 -13zM200 586q-32 0 -55 7.5t-42.5 14.5t-44.5 7q-21 0 -35.5 -6t-25.5 -12t-21 -6q-13 0 -20 8t-10 18.5t-3 15.5q0 23 10 36.5t24.5 20.5t29 9t22.5 2q30 0 51 -7
t42.5 -14.5t48.5 -7.5q21 0 35 6t25 12t21 6q14 0 20.5 -8.5t9.5 -18.5t3 -15q0 -24 -10 -37t-24 -20t-28.5 -9t-22.5 -2z" />
    <glyph glyph-name="Imacron" unicode="&#x12a;" horiz-adv-x="251" 
d="M125 0q-24 0 -44.5 10.5t-20.5 30.5v650q0 21 20.5 30.5t44.5 9.5q25 0 45 -9.5t20 -30.5v-650q0 -20 -20 -30.5t-45 -10.5zM22 853q-17 0 -28.5 12t-11.5 30t11.5 30.5t28.5 12.5h205q15 0 28 -12.5t13 -30.5t-13 -30t-28 -12h-205z" />
    <glyph glyph-name="imacron" unicode="&#x12b;" horiz-adv-x="228" 
d="M114 0q-28 0 -46 13t-18 28v394q0 18 18 29t46 11q27 0 46 -11t19 -29v-394q0 -15 -19 -28t-46 -13zM12 610q-17 0 -28.5 12t-11.5 30t11.5 30.5t28.5 12.5h205q15 0 28 -12.5t13 -30.5t-13 -30t-28 -12h-205z" />
    <glyph glyph-name="Ibreve" unicode="&#x12c;" horiz-adv-x="251" 
d="M125 0q-24 0 -44.5 10.5t-20.5 30.5v650q0 21 20.5 30.5t44.5 9.5q25 0 45 -9.5t20 -30.5v-650q0 -20 -20 -30.5t-45 -10.5zM125 831q-44 0 -81.5 30.5t-48.5 73.5q-3 14 4.5 21.5t21.5 7.5h16q12 0 18.5 -6.5t10.5 -17.5q6 -23 23.5 -37t35.5 -14q20 0 36 14t23 37
q4 11 10.5 17.5t18.5 6.5h16q13 0 21 -8t4 -22q-11 -42 -48 -72.5t-81 -30.5z" />
    <glyph glyph-name="ibreve" unicode="&#x12d;" horiz-adv-x="228" 
d="M114 0q-28 0 -46 13t-18 28v394q0 18 18 29t46 11q27 0 46 -11t19 -29v-394q0 -15 -19 -28t-46 -13zM114 586q-44 0 -81.5 30.5t-48.5 73.5q-3 14 4.5 21.5t21.5 7.5h16q12 0 18.5 -6.5t10.5 -17.5q6 -23 23.5 -37t35.5 -14q20 0 36 14t23 37q4 11 10.5 17.5t18.5 6.5h16
q13 0 21 -8t4 -22q-11 -42 -48 -72.5t-81 -30.5z" />
    <glyph glyph-name="Iogonek" unicode="&#x12e;" horiz-adv-x="251" 
d="M125 0q-24 0 -44.5 10.5t-20.5 30.5v650q0 21 20.5 30.5t44.5 9.5q25 0 45 -9.5t20 -30.5v-650q0 -20 -20 -30.5t-45 -10.5zM140 -212q-39 0 -64.5 11.5t-39 32t-13.5 46.5q0 41 25.5 82t68.5 67l47 -19q-33 -21 -55.5 -54t-22.5 -64q0 -22 14.5 -34.5t45.5 -12.5
q12 0 17.5 -9.5t5.5 -19.5q0 -11 -5.5 -18.5t-23.5 -7.5z" />
    <glyph glyph-name="iogonek" unicode="&#x12f;" horiz-adv-x="228" 
d="M114 0q-28 0 -46 13t-18 28v394q0 18 18 29t46 11q27 0 46 -11t19 -29v-394q0 -15 -19 -28t-46 -13zM114 576q-21 0 -36.5 16t-15.5 37t15.5 37t36.5 16t36 -16t15 -37t-15 -37t-36 -16zM122 -212q-39 0 -64.5 11.5t-39 32t-13.5 46.5q0 41 25.5 82t68.5 67l47 -19
q-33 -21 -55.5 -54t-22.5 -64q0 -22 14.5 -34.5t45.5 -12.5q12 0 17.5 -9.5t5.5 -19.5q0 -11 -5.5 -18.5t-23.5 -7.5z" />
    <glyph glyph-name="Idotaccent" unicode="&#x130;" horiz-adv-x="251" 
d="M125 0q-24 0 -44.5 10.5t-20.5 30.5v650q0 21 20.5 30.5t44.5 9.5q25 0 45 -9.5t20 -30.5v-650q0 -20 -20 -30.5t-45 -10.5zM125 821q-21 0 -36.5 16t-15.5 37t15.5 37t36.5 16t36 -16t15 -37t-15 -37t-36 -16z" />
    <glyph glyph-name="dotlessi" unicode="&#x131;" horiz-adv-x="228" 
d="M114 0q-28 0 -46 13t-18 28v394q0 18 18 29t46 11q27 0 46 -11t19 -29v-394q0 -15 -19 -28t-46 -13z" />
    <glyph glyph-name="IJ" unicode="&#x132;" horiz-adv-x="787" 
d="M125 0q-24 0 -44.5 10.5t-20.5 30.5v650q0 21 20.5 30.5t44.5 9.5q25 0 45 -9.5t20 -30.5v-650q0 -20 -20 -30.5t-45 -10.5zM500 -6q-68 0 -122.5 24t-85.5 69t-31 106q0 38 16.5 50.5t49.5 12.5q25 0 44 -8.5t20 -32.5q2 -24 10.5 -49t30.5 -41.5t63 -16.5
q51 0 78.5 28.5t27.5 86.5v394h-103q-19 0 -29.5 17t-10.5 41q0 20 9.5 38t30.5 18h175q22 0 40 -10.5t18 -30.5v-467q0 -83 -31.5 -133.5t-83.5 -73t-116 -22.5z" />
    <glyph glyph-name="ij" unicode="&#x133;" horiz-adv-x="436" 
d="M114 581q-29 0 -50 19.5t-21 43.5q0 26 21 44.5t50 18.5q30 0 50 -18.5t20 -44.5q0 -24 -20 -43.5t-50 -19.5zM114 0q-28 0 -46 13t-18 28v394q0 18 18 29t46 11q27 0 46 -11t19 -29v-394q0 -15 -19 -28t-46 -13zM235 -221q-40 0 -53.5 16.5t-13.5 36.5q0 26 14.5 41
t34.5 15q18 0 26.5 10t11 28.5t2.5 41.5v467q0 18 18 29t45 11q28 0 47 -11t19 -29v-467q0 -55 -17 -98t-50.5 -67t-83.5 -24zM321 581q-29 0 -50 19.5t-21 43.5q0 26 21 44.5t50 18.5q30 0 50 -18.5t20 -44.5q0 -24 -20 -43.5t-50 -19.5z" />
    <glyph glyph-name="Jcircumflex" unicode="&#x134;" horiz-adv-x="537" 
d="M249 -6q-68 0 -122.5 24t-85.5 69t-31 106q0 38 16.5 50.5t49.5 12.5q25 0 44 -8.5t20 -32.5q2 -24 10.5 -49t30.5 -41.5t63 -16.5q51 0 78.5 28.5t27.5 86.5v394h-103q-19 0 -29.5 17t-10.5 41q0 20 9.5 38t30.5 18h175q22 0 40 -10.5t18 -30.5v-467q0 -83 -31.5 -133.5
t-83.5 -73t-116 -22.5zM154 819q-12 0 -20 12.5t-8 27.5q0 11 5 21t17 16l104 56q9 5 17 5q7 0 17 -5l104 -55q12 -6 16.5 -16.5t4.5 -22.5q0 -14 -7.5 -26.5t-20.5 -12.5q-2 0 -5 1t-5 2l-104 56l-104 -56l-6 -2t-5 -1z" />
    <glyph glyph-name="jcircumflex" unicode="&#x135;" horiz-adv-x="229" 
d="M28 -221q-40 0 -53.5 16.5t-13.5 36.5q0 26 14.5 41t34.5 15q18 0 26.5 10t11 28.5t2.5 41.5v467q0 18 18 29t45 11q28 0 47 -11t19 -29v-467q0 -55 -17 -98t-50.5 -67t-83.5 -24zM-7 575q-12 0 -20 12.5t-8 27.5q0 11 5 21t17 16l104 56q9 5 17 5q7 0 17 -5l104 -55
q12 -6 16.5 -16.5t4.5 -22.5q0 -14 -7.5 -26.5t-20.5 -12.5q-2 0 -5 1t-5 2l-104 56l-104 -56l-6 -2t-5 -1z" />
    <glyph glyph-name="uni0136" unicode="&#x136;" horiz-adv-x="553" 
d="M125 0q-24 0 -44.5 10.5t-20.5 30.5v650q0 21 20.5 30.5t44.5 9.5q25 0 45 -9.5t20 -30.5v-273l217 294q13 19 35 19q17 0 34.5 -10t29.5 -25t12 -32q0 -5 -2 -12t-7 -13l-178 -224l218 -332q7 -11 7 -23q0 -16 -11.5 -31t-29.5 -24.5t-37 -9.5q-14 0 -25.5 6t-20.5 19
l-188 285l-54 -68v-196q0 -20 -20 -30.5t-45 -10.5zM215 -194q-16 0 -28 16.5t-12 32.5q0 22 17 30l132 64q7 3 13 3q17 0 28.5 -16t11.5 -33q0 -22 -18 -31l-130 -62q-4 -1 -7 -2.5t-7 -1.5z" />
    <glyph glyph-name="uni0137" unicode="&#x137;" horiz-adv-x="493" 
d="M114 0q-27 0 -45 13t-18 28v671q0 18 18 29t45 11q28 0 47 -11t19 -29v-419l189 177q10 10 25 10t29.5 -9.5t24 -23.5t9.5 -29q0 -6 -2.5 -12.5t-8.5 -11.5l-118 -107l148 -210q7 -11 7 -21q0 -15 -12 -30t-29 -24.5t-33 -9.5q-20 0 -32 17l-134 199l-63 -57v-110
q0 -15 -19 -28t-47 -13zM186 -194q-16 0 -28 16.5t-12 32.5q0 22 17 30l132 64q7 3 13 3q17 0 28.5 -16t11.5 -33q0 -22 -18 -31l-130 -62q-4 -1 -7 -2.5t-7 -1.5z" />
    <glyph glyph-name="kgreenlandic" unicode="&#x138;" horiz-adv-x="492" 
d="M113 0q-27 0 -45 13t-18 28v394q0 18 18 29t45 11q28 0 47 -11t19 -29v-142l189 177q10 10 25 10t29.5 -9.5t24 -23.5t9.5 -29q0 -6 -2.5 -12.5t-8.5 -11.5l-118 -107l148 -210q7 -11 7 -21q0 -15 -12 -30t-29 -24.5t-33 -9.5q-20 0 -32 17l-134 199l-63 -57v-110
q0 -15 -19 -28t-47 -13z" />
    <glyph glyph-name="Lacute" unicode="&#x139;" horiz-adv-x="483" 
d="M117 0q-21 0 -39 10.5t-18 30.5v650q0 21 20.5 30.5t44.5 9.5q25 0 45 -9.5t20 -30.5v-577h245q19 0 28.5 -17.5t9.5 -39.5q0 -21 -9.5 -39t-28.5 -18h-318zM196 811q-16 0 -28 16.5t-12 32.5q0 22 17 31l132 64q7 2 13 2q17 0 28.5 -16t11.5 -33q0 -21 -18 -30l-130 -63
q-4 -1 -7 -2.5t-7 -1.5z" />
    <glyph glyph-name="lacute" unicode="&#x13a;" horiz-adv-x="247" 
d="M123 0q-28 0 -46 13t-18 28v671q0 18 18 29t46 11q27 0 46 -11t19 -29v-671q0 -15 -19 -28t-46 -13zM86 793q-16 0 -28 16.5t-12 32.5q0 22 17 31l132 64q7 2 13 2q17 0 28.5 -16t11.5 -33q0 -21 -18 -30l-130 -63q-4 -1 -7 -2.5t-7 -1.5z" />
    <glyph glyph-name="uni013B" unicode="&#x13b;" horiz-adv-x="483" 
d="M117 0q-21 0 -39 10.5t-18 30.5v650q0 21 20.5 30.5t44.5 9.5q25 0 45 -9.5t20 -30.5v-577h245q19 0 28.5 -17.5t9.5 -39.5q0 -21 -9.5 -39t-28.5 -18h-318zM186 -194q-16 0 -28 16.5t-12 32.5q0 22 17 30l132 64q7 3 13 3q17 0 28.5 -16t11.5 -33q0 -22 -18 -31
l-130 -62q-4 -1 -7 -2.5t-7 -1.5z" />
    <glyph glyph-name="uni013C" unicode="&#x13c;" horiz-adv-x="247" 
d="M123 0q-28 0 -46 13t-18 28v671q0 18 18 29t46 11q27 0 46 -11t19 -29v-671q0 -15 -19 -28t-46 -13zM62 -194q-16 0 -28 16.5t-12 32.5q0 22 17 30l132 64q7 3 13 3q17 0 28.5 -16t11.5 -33q0 -22 -18 -31l-130 -62q-4 -1 -7 -2.5t-7 -1.5z" />
    <glyph glyph-name="Lcaron" unicode="&#x13d;" horiz-adv-x="485" 
d="M117 0q-21 0 -39 10.5t-18 30.5v650q0 21 20.5 30.5t44.5 9.5q25 0 45 -9.5t20 -30.5v-577h245q19 0 28.5 -17.5t9.5 -39.5q0 -21 -9.5 -39t-28.5 -18h-318zM361 511q-14 0 -28.5 8.5t-14.5 25.5q0 7 4 14l23 53q-17 9 -27 25t-10 36q0 28 20 48t47 20q28 0 48 -20
t20 -47q0 -5 -1.5 -13t-7.5 -22.5t-17 -41.5t-29 -70q-4 -8 -12 -12t-15 -4z" />
    <glyph glyph-name="lcaron" unicode="&#x13e;" horiz-adv-x="247" 
d="M123 0q-28 0 -46 13t-18 28v671q0 18 18 29t46 11q27 0 46 -11t19 -29v-671q0 -15 -19 -28t-46 -13zM294 511q-14 0 -28.5 8.5t-14.5 25.5q0 7 4 14l23 53q-17 9 -27 25t-10 36q0 28 20 48t47 20q28 0 48 -20t20 -47q0 -5 -1.5 -13t-7.5 -22.5t-17 -41.5t-29 -70
q-4 -8 -12 -12t-15 -4z" />
    <glyph glyph-name="Ldot" unicode="&#x13f;" horiz-adv-x="484" 
d="M117 0q-21 0 -39 10.5t-18 30.5v650q0 21 20.5 30.5t44.5 9.5q25 0 45 -9.5t20 -30.5v-577h245q19 0 28.5 -17.5t9.5 -39.5q0 -21 -9.5 -39t-28.5 -18h-318zM369 357q-30 0 -51 19.5t-21 44.5q0 26 21 44.5t51 18.5t50.5 -18.5t20.5 -44.5q0 -25 -20.5 -44.5t-50.5 -19.5
z" />
    <glyph glyph-name="ldot" unicode="&#x140;" horiz-adv-x="369" 
d="M123 0q-28 0 -46 13t-18 28v671q0 18 18 29t46 11q27 0 46 -11t19 -29v-671q0 -15 -19 -28t-46 -13zM300 236q-30 0 -51 19.5t-21 44.5q0 26 21 44.5t51 18.5t50.5 -18.5t20.5 -44.5q0 -25 -20.5 -44.5t-50.5 -19.5z" />
    <glyph glyph-name="Lslash" unicode="&#x141;" horiz-adv-x="489" 
d="M123 0q-21 0 -39 10.5t-18 30.5v223l-16 -9q-6 -3 -12 -3q-18 0 -31.5 19t-13.5 39q0 10 4 18t13 12l56 28v323q0 21 20.5 30.5t44.5 9.5q25 0 45 -9.5t20 -30.5v-261l60 31q6 2 12 2q13 0 23 -9t16.5 -22t6.5 -26q0 -22 -17 -30l-101 -50v-212h245q19 0 28.5 -17.5
t9.5 -39.5q0 -21 -9.5 -39t-28.5 -18h-318z" />
    <glyph glyph-name="lslash" unicode="&#x142;" horiz-adv-x="328" 
d="M162 0q-29 0 -46.5 13t-17.5 28v228l-27 -14q-6 -3 -12 -3q-18 0 -31 19t-13 39q0 10 3.5 18t12.5 12l67 33v339q0 18 17.5 29t46.5 11q26 0 45.5 -11t19.5 -29v-277l30 16q5 3 11 3q13 0 23.5 -9t16.5 -22.5t6 -26.5q0 -22 -16 -30l-71 -35v-290q0 -15 -19.5 -28
t-45.5 -13z" />
    <glyph glyph-name="Nacute" unicode="&#x143;" horiz-adv-x="606" 
d="M125 0q-24 0 -44.5 10.5t-20.5 30.5v649q0 21 20.5 31t44.5 10t39.5 -5t29 -19.5t28.5 -44.5l193 -373v402q0 21 20.5 30.5t44.5 9.5q25 0 45 -9.5t20 -30.5v-650q0 -20 -20 -30.5t-45 -10.5q-23 0 -42.5 9t-31.5 32l-216 402v-402q0 -20 -20 -30.5t-45 -10.5zM269 811
q-16 0 -28 16.5t-12 32.5q0 22 17 31l132 64q7 2 13 2q17 0 28.5 -16t11.5 -33q0 -21 -18 -30l-130 -63q-4 -1 -7 -2.5t-7 -1.5z" />
    <glyph glyph-name="nacute" unicode="&#x144;" horiz-adv-x="523" 
d="M114 0q-28 0 -46 13t-18 28v394q0 18 18 29t46 11q24 0 40.5 -11t16.5 -29v-30q15 29 49.5 52.5t84.5 23.5q47 0 86 -27.5t62.5 -73.5t23.5 -102v-237q0 -20 -20 -30.5t-45 -10.5q-22 0 -43 10.5t-21 30.5v237q0 23 -11.5 43t-31.5 33.5t-44 13.5q-20 0 -39 -11t-31 -31
t-12 -48v-237q0 -15 -19 -28t-46 -13zM227 555q-16 0 -28 16.5t-12 32.5q0 22 17 31l132 64q7 2 13 2q17 0 28.5 -16t11.5 -33q0 -21 -18 -30l-130 -63q-4 -1 -7 -2.5t-7 -1.5z" />
    <glyph glyph-name="uni0145" unicode="&#x145;" horiz-adv-x="606" 
d="M125 0q-24 0 -44.5 10.5t-20.5 30.5v649q0 21 20.5 31t44.5 10t39.5 -5t29 -19.5t28.5 -44.5l193 -373v402q0 21 20.5 30.5t44.5 9.5q25 0 45 -9.5t20 -30.5v-650q0 -20 -20 -30.5t-45 -10.5q-23 0 -42.5 9t-31.5 32l-216 402v-402q0 -20 -20 -30.5t-45 -10.5zM242 -194
q-16 0 -28 16.5t-12 32.5q0 22 17 30l132 64q7 3 13 3q17 0 28.5 -16t11.5 -33q0 -22 -18 -31l-130 -62q-4 -1 -7 -2.5t-7 -1.5z" />
    <glyph glyph-name="uni0146" unicode="&#x146;" horiz-adv-x="523" 
d="M114 0q-28 0 -46 13t-18 28v394q0 18 18 29t46 11q24 0 40.5 -11t16.5 -29v-30q15 29 49.5 52.5t84.5 23.5q47 0 86 -27.5t62.5 -73.5t23.5 -102v-237q0 -20 -20 -30.5t-45 -10.5q-22 0 -43 10.5t-21 30.5v237q0 23 -11.5 43t-31.5 33.5t-44 13.5q-20 0 -39 -11t-31 -31
t-12 -48v-237q0 -15 -19 -28t-46 -13zM200 -194q-16 0 -28 16.5t-12 32.5q0 22 17 30l132 64q7 3 13 3q17 0 28.5 -16t11.5 -33q0 -22 -18 -31l-130 -62q-4 -1 -7 -2.5t-7 -1.5z" />
    <glyph glyph-name="Ncaron" unicode="&#x147;" horiz-adv-x="606" 
d="M125 0q-24 0 -44.5 10.5t-20.5 30.5v649q0 21 20.5 31t44.5 10t39.5 -5t29 -19.5t28.5 -44.5l193 -373v402q0 21 20.5 30.5t44.5 9.5q25 0 45 -9.5t20 -30.5v-650q0 -20 -20 -30.5t-45 -10.5q-23 0 -42.5 9t-31.5 32l-216 402v-402q0 -20 -20 -30.5t-45 -10.5zM304 826
q-8 0 -18 6l-103 66q-11 7 -16.5 16.5t-5.5 21.5q0 14 8 26.5t20 12.5q6 0 12 -4l103 -66l102 66q7 4 12 4q13 0 20.5 -12.5t7.5 -26.5q0 -12 -4.5 -21.5t-16.5 -16.5l-103 -66q-11 -6 -18 -6z" />
    <glyph glyph-name="ncaron" unicode="&#x148;" horiz-adv-x="523" 
d="M114 0q-28 0 -46 13t-18 28v394q0 18 18 29t46 11q24 0 40.5 -11t16.5 -29v-30q15 29 49.5 52.5t84.5 23.5q47 0 86 -27.5t62.5 -73.5t23.5 -102v-237q0 -20 -20 -30.5t-45 -10.5q-22 0 -43 10.5t-21 30.5v237q0 23 -11.5 43t-31.5 33.5t-44 13.5q-20 0 -39 -11t-31 -31
t-12 -48v-237q0 -15 -19 -28t-46 -13zM262 570q-8 0 -18 6l-103 66q-11 7 -16.5 16.5t-5.5 21.5q0 14 8 26.5t20 12.5q6 0 12 -4l103 -66l102 66q7 4 12 4q13 0 20.5 -12.5t7.5 -26.5q0 -12 -4.5 -21.5t-16.5 -16.5l-103 -66q-11 -6 -18 -6z" />
    <glyph glyph-name="Eng" unicode="&#x14a;" horiz-adv-x="606" 
d="M394 -221q-40 0 -53.5 16.5t-13.5 36.5q0 26 14.5 41t34.5 15q17 0 25.5 10t11.5 28.5t3 41.5v38q0 10 -2.5 18t-7.5 17l-216 402v-402q0 -20 -20 -30.5t-45 -10.5q-24 0 -44.5 10.5t-20.5 30.5v649q0 21 20.5 31t44.5 10t39.5 -5t29 -19.5t28.5 -44.5l193 -373v402
q0 21 20.5 30.5t44.5 9.5q25 0 45 -9.5t20 -30.5v-723q0 -55 -17 -98t-50.5 -67t-83.5 -24z" />
    <glyph glyph-name="eng" unicode="&#x14b;" horiz-adv-x="523" 
d="M326 -221q-40 0 -53.5 16.5t-13.5 36.5q0 26 14.5 41t34.5 15q18 0 27 10t11 28.5t2 41.5v310q0 23 -11.5 43t-31.5 33.5t-44 13.5q-20 0 -39 -11t-31 -31t-12 -48v-237q0 -15 -19 -28t-46 -13q-28 0 -46 13t-18 28v394q0 18 18 29t46 11q24 0 40.5 -11t16.5 -29v-30
q15 29 49.5 52.5t84.5 23.5q47 0 86 -27.5t62.5 -73.5t23.5 -102v-310q0 -55 -17 -98t-50.5 -67t-83.5 -24z" />
    <glyph glyph-name="Omacron" unicode="&#x14c;" 
d="M287 -6q-66 0 -119 22.5t-84 73t-31 133.5v279q0 83 31 133.5t83.5 73t119.5 22.5q66 0 119.5 -22.5t84.5 -73t31 -133.5v-279q0 -83 -31 -133.5t-84.5 -73t-119.5 -22.5zM287 108q49 0 77 28t28 87v279q0 59 -28 87t-77 28t-77 -28t-28 -87v-279q0 -59 28 -87t77 -28z
M184 853q-17 0 -28.5 12t-11.5 30t11.5 30.5t28.5 12.5h205q15 0 28 -12.5t13 -30.5t-13 -30t-28 -12h-205z" />
    <glyph glyph-name="omacron" unicode="&#x14d;" horiz-adv-x="497" 
d="M248 -9q-58 0 -107 28.5t-79 75.5t-30 101v82q0 54 29 100.5t78.5 74.5t108.5 28t108.5 -27.5t79 -73.5t29.5 -102v-82q0 -53 -30 -100t-79.5 -76t-107.5 -29zM248 104q24 0 44 13t32 34.5t12 44.5v82q0 23 -12 43t-31.5 33.5t-44.5 13.5q-24 0 -44 -13t-31.5 -33.5
t-11.5 -43.5v-82q0 -23 11.5 -44.5t31.5 -34.5t44 -13zM145 608q-17 0 -28.5 12t-11.5 30t11.5 30.5t28.5 12.5h205q15 0 28 -12.5t13 -30.5t-13 -30t-28 -12h-205z" />
    <glyph glyph-name="Obreve" unicode="&#x14e;" 
d="M287 -6q-66 0 -119 22.5t-84 73t-31 133.5v279q0 83 31 133.5t83.5 73t119.5 22.5q66 0 119.5 -22.5t84.5 -73t31 -133.5v-279q0 -83 -31 -133.5t-84.5 -73t-119.5 -22.5zM287 108q49 0 77 28t28 87v279q0 59 -28 87t-77 28t-77 -28t-28 -87v-279q0 -59 28 -87t77 -28z
M287 831q-44 0 -81.5 30.5t-48.5 73.5q-3 14 4.5 21.5t21.5 7.5h16q12 0 18.5 -6.5t10.5 -17.5q6 -23 23.5 -37t35.5 -14q20 0 36 14t23 37q4 11 10.5 17.5t18.5 6.5h16q13 0 21 -8t4 -22q-11 -42 -48 -72.5t-81 -30.5z" />
    <glyph glyph-name="obreve" unicode="&#x14f;" horiz-adv-x="497" 
d="M248 -9q-58 0 -107 28.5t-79 75.5t-30 101v82q0 54 29 100.5t78.5 74.5t108.5 28t108.5 -27.5t79 -73.5t29.5 -102v-82q0 -53 -30 -100t-79.5 -76t-107.5 -29zM248 104q24 0 44 13t32 34.5t12 44.5v82q0 23 -12 43t-31.5 33.5t-44.5 13.5q-24 0 -44 -13t-31.5 -33.5
t-11.5 -43.5v-82q0 -23 11.5 -44.5t31.5 -34.5t44 -13zM248 586q-44 0 -81.5 30.5t-48.5 73.5q-3 14 4.5 21.5t21.5 7.5h16q12 0 18.5 -6.5t10.5 -17.5q6 -23 23.5 -37t35.5 -14q20 0 36 14t23 37q4 11 10.5 17.5t18.5 6.5h16q13 0 21 -8t4 -22q-11 -42 -48 -72.5t-81 -30.5
z" />
    <glyph glyph-name="Ohungarumlaut" unicode="&#x150;" 
d="M287 -6q-66 0 -119 22.5t-84 73t-31 133.5v279q0 83 31 133.5t83.5 73t119.5 22.5q66 0 119.5 -22.5t84.5 -73t31 -133.5v-279q0 -83 -31 -133.5t-84.5 -73t-119.5 -22.5zM287 108q49 0 77 28t28 87v279q0 59 -28 87t-77 28t-77 -28t-28 -87v-279q0 -59 28 -87t77 -28z
M336 825q-15 0 -27.5 12.5t-12.5 25.5q0 9 7 16l84 88q5 5 9.5 6.5t9.5 1.5q14 0 26 -12.5t12 -25.5q0 -9 -7 -17l-82 -86q-7 -9 -19 -9zM179 825q-15 0 -27.5 12.5t-12.5 25.5q0 9 7 16l84 88q5 5 9.5 6.5t9.5 1.5q14 0 26 -12.5t12 -25.5q0 -9 -7 -17l-82 -86
q-8 -9 -19 -9z" />
    <glyph glyph-name="ohungarumlaut" unicode="&#x151;" horiz-adv-x="497" 
d="M248 -9q-58 0 -107 28.5t-79 75.5t-30 101v82q0 54 29 100.5t78.5 74.5t108.5 28t108.5 -27.5t79 -73.5t29.5 -102v-82q0 -53 -30 -100t-79.5 -76t-107.5 -29zM248 104q24 0 44 13t32 34.5t12 44.5v82q0 23 -12 43t-31.5 33.5t-44.5 13.5q-24 0 -44 -13t-31.5 -33.5
t-11.5 -43.5v-82q0 -23 11.5 -44.5t31.5 -34.5t44 -13zM297 580q-15 0 -27.5 12.5t-12.5 25.5q0 9 7 16l84 88q5 5 9.5 6.5t9.5 1.5q14 0 26 -12.5t12 -25.5q0 -9 -7 -17l-82 -86q-7 -9 -19 -9zM140 580q-15 0 -27.5 12.5t-12.5 25.5q0 9 7 16l84 88q5 5 9.5 6.5t9.5 1.5
q14 0 26 -12.5t12 -25.5q0 -9 -7 -17l-82 -86q-8 -9 -19 -9z" />
    <glyph glyph-name="OE" unicode="&#x152;" horiz-adv-x="830" 
d="M264 -6q-61 0 -108.5 22.5t-75 73t-27.5 133.5v279q0 83 27.5 133.5t75 73t108.5 22.5q42 0 83.5 -18t61.5 -56v33q0 20 18 30.5t39 10.5h307q22 0 31.5 -18t9.5 -38q0 -24 -10.5 -41t-30.5 -17h-250v-200h119q20 0 30.5 -15.5t10.5 -36.5q0 -17 -9.5 -33.5t-31.5 -16.5
h-119v-201h250q20 0 30.5 -17t10.5 -41q0 -20 -9.5 -38t-31.5 -18h-307q-21 0 -39 10.5t-18 30.5v27q-20 -38 -61.5 -56t-83.5 -18zM287 108q50 0 78 28t28 87v279q0 59 -28 87t-78 28q-49 0 -76.5 -28t-27.5 -87v-279q0 -59 27.5 -87t76.5 -28z" />
    <glyph glyph-name="oe" unicode="&#x153;" horiz-adv-x="789" 
d="M248 -9q-58 0 -107 28.5t-79 75.5t-30 101v82q0 54 29 100.5t78.5 74.5t108.5 28q48 0 89.5 -21.5t69.5 -57.5q27 36 65.5 57.5t82.5 21.5q56 0 102.5 -24t75.5 -66t29 -97q0 -44 -14 -62.5t-35.5 -23t-44.5 -4.5h-203v-15q0 -43 32.5 -69.5t84.5 -26.5q34 0 55.5 10
t37 19t30.5 9t26 -10t17 -23.5t6 -24.5q0 -16 -22 -35.5t-61 -33t-93 -13.5q-53 0 -97.5 21t-74.5 58q-29 -36 -69.5 -57.5t-88.5 -21.5zM248 104q24 0 44 13.5t32 34.5t12 44v82q0 23 -12 43t-32 33.5t-44 13.5t-44 -13.5t-31.5 -33.5t-11.5 -43v-82q0 -23 11.5 -44
t31.5 -34.5t44 -13.5zM465 280h146q17 0 23.5 5.5t6.5 21.5q0 23 -12 41t-32 28t-44 10q-23 0 -43 -9.5t-32.5 -26.5t-12.5 -41v-29z" />
    <glyph glyph-name="Racute" unicode="&#x154;" horiz-adv-x="568" 
d="M461 -5q-13 0 -25.5 8t-19.5 23l-142 276h-84v-261q0 -20 -20 -30.5t-45 -10.5q-24 0 -44.5 10.5t-20.5 30.5v650q0 16 11.5 28t30.5 12h198q66 0 119.5 -19t85.5 -64.5t32 -125.5q0 -58 -17 -98.5t-46.5 -65t-67.5 -36.5l132 -243q2 -4 3 -8.5t1 -7.5q0 -16 -12 -32
t-30.5 -26t-38.5 -10zM190 404h110q49 0 78 24t29 82q0 60 -29 83.5t-78 23.5h-110v-213zM254 811q-16 0 -28 16.5t-12 32.5q0 22 17 31l132 64q7 2 13 2q17 0 28.5 -16t11.5 -33q0 -21 -18 -30l-130 -63q-4 -1 -7 -2.5t-7 -1.5z" />
    <glyph glyph-name="racute" unicode="&#x155;" horiz-adv-x="375" 
d="M113 0q-27 0 -45 13t-18 28v394q0 18 18 29t45 11q25 0 41.5 -11t16.5 -29v-41q11 22 29.5 41.5t42.5 32.5t51 13h31q19 0 33 -16.5t14 -39.5q0 -24 -14 -40.5t-33 -16.5h-31q-28 0 -54.5 -18.5t-43.5 -51t-17 -78.5v-179q0 -15 -19 -28t-47 -13zM150 568q-16 0 -28 16.5
t-12 32.5q0 22 17 31l132 64q7 2 13 2q17 0 28.5 -16t11.5 -33q0 -21 -18 -30l-130 -63q-4 -1 -7 -2.5t-7 -1.5z" />
    <glyph glyph-name="uni0156" unicode="&#x156;" horiz-adv-x="568" 
d="M461 -5q-13 0 -25.5 8t-19.5 23l-142 276h-84v-261q0 -20 -20 -30.5t-45 -10.5q-24 0 -44.5 10.5t-20.5 30.5v650q0 16 11.5 28t30.5 12h198q66 0 119.5 -19t85.5 -64.5t32 -125.5q0 -58 -17 -98.5t-46.5 -65t-67.5 -36.5l132 -243q2 -4 3 -8.5t1 -7.5q0 -16 -12 -32
t-30.5 -26t-38.5 -10zM190 404h110q49 0 78 24t29 82q0 60 -29 83.5t-78 23.5h-110v-213zM220 -194q-16 0 -28 16.5t-12 32.5q0 22 17 30l132 64q7 3 13 3q17 0 28.5 -16t11.5 -33q0 -22 -18 -31l-130 -62q-4 -1 -7 -2.5t-7 -1.5z" />
    <glyph glyph-name="uni0157" unicode="&#x157;" horiz-adv-x="375" 
d="M113 0q-27 0 -45 13t-18 28v394q0 18 18 29t45 11q25 0 41.5 -11t16.5 -29v-41q11 22 29.5 41.5t42.5 32.5t51 13h31q19 0 33 -16.5t14 -39.5q0 -24 -14 -40.5t-33 -16.5h-31q-28 0 -54.5 -18.5t-43.5 -51t-17 -78.5v-179q0 -15 -19 -28t-47 -13zM47 -196q-16 0 -28 16.5
t-12 32.5q0 22 17 30l132 64q7 3 13 3q17 0 28.5 -16t11.5 -33q0 -22 -18 -31l-130 -62q-4 -1 -7 -2.5t-7 -1.5z" />
    <glyph glyph-name="Rcaron" unicode="&#x158;" horiz-adv-x="568" 
d="M461 -5q-13 0 -25.5 8t-19.5 23l-142 276h-84v-261q0 -20 -20 -30.5t-45 -10.5q-24 0 -44.5 10.5t-20.5 30.5v650q0 16 11.5 28t30.5 12h198q66 0 119.5 -19t85.5 -64.5t32 -125.5q0 -58 -17 -98.5t-46.5 -65t-67.5 -36.5l132 -243q2 -4 3 -8.5t1 -7.5q0 -16 -12 -32
t-30.5 -26t-38.5 -10zM190 404h110q49 0 78 24t29 82q0 60 -29 83.5t-78 23.5h-110v-213zM289 826q-8 0 -18 6l-103 66q-11 7 -16.5 16.5t-5.5 21.5q0 14 8 26.5t20 12.5q6 0 12 -4l103 -66l102 66q7 4 12 4q13 0 20.5 -12.5t7.5 -26.5q0 -12 -4.5 -21.5t-16.5 -16.5
l-103 -66q-11 -6 -18 -6z" />
    <glyph glyph-name="rcaron" unicode="&#x159;" horiz-adv-x="375" 
d="M113 0q-27 0 -45 13t-18 28v394q0 18 18 29t45 11q25 0 41.5 -11t16.5 -29v-41q11 22 29.5 41.5t42.5 32.5t51 13h31q19 0 33 -16.5t14 -39.5q0 -24 -14 -40.5t-33 -16.5h-31q-28 0 -54.5 -18.5t-43.5 -51t-17 -78.5v-179q0 -15 -19 -28t-47 -13zM211 582q-8 0 -18 6
l-103 66q-11 7 -16.5 16.5t-5.5 21.5q0 14 8 26.5t20 12.5q6 0 12 -4l103 -66l102 66q7 4 12 4q13 0 20.5 -12.5t7.5 -26.5q0 -12 -4.5 -21.5t-16.5 -16.5l-103 -66q-11 -6 -18 -6z" />
    <glyph glyph-name="Sacute" unicode="&#x15a;" horiz-adv-x="522" 
d="M255 -9q-65 0 -117.5 19t-83 47.5t-30.5 57.5q0 14 7.5 30.5t20.5 28t29 11.5t30 -11.5t32 -27t44 -27t64 -11.5q30 0 55.5 9.5t41 28.5t15.5 49q0 32 -17 54t-46 38t-63 31t-68.5 32t-63 41t-46 59t-17.5 86q0 56 21.5 94t57 61.5t78.5 34t86 10.5q23 0 54.5 -3.5
t63 -12.5t52 -24.5t20.5 -39.5q0 -12 -5.5 -28t-17 -28.5t-29.5 -12.5q-16 0 -31.5 9.5t-40 19t-66.5 9.5q-35 0 -61 -9.5t-39 -26t-13 -41.5q0 -26 17.5 -44t46 -32t62.5 -28t68.5 -32.5t63.5 -44.5t46 -64.5t17 -94.5q0 -71 -31 -119.5t-84.5 -73t-122.5 -24.5zM227 811
q-16 0 -28 16.5t-12 32.5q0 22 17 31l132 64q7 2 13 2q17 0 28.5 -16t11.5 -33q0 -21 -18 -30l-130 -63q-4 -1 -7 -2.5t-7 -1.5z" />
    <glyph glyph-name="sacute" unicode="&#x15b;" horiz-adv-x="417" 
d="M205 -9q-50 0 -91.5 12.5t-65 32.5t-23.5 41q0 10 5.5 23.5t15 23.5t22.5 10q14 0 29.5 -11.5t39 -22.5t65.5 -11q45 0 59.5 14t14.5 29q0 22 -17.5 34t-44.5 20t-57.5 16.5t-57.5 23t-44 40t-17 66.5q0 36 17 70t56 56.5t106 22.5q41 0 77.5 -8.5t59.5 -23.5t23 -33
q0 -9 -6 -23.5t-16.5 -26.5t-25.5 -12q-11 0 -26.5 7.5t-35.5 14.5t-48 7q-25 0 -40 -7t-22 -17t-7 -21q0 -18 17 -28t44.5 -17t58 -15.5t58 -25t44.5 -43.5t17 -72q0 -66 -47.5 -106t-136.5 -40zM175 555q-16 0 -28 16.5t-12 32.5q0 22 17 31l132 64q7 2 13 2
q17 0 28.5 -16t11.5 -33q0 -21 -18 -30l-130 -63q-4 -1 -7 -2.5t-7 -1.5z" />
    <glyph glyph-name="Scircumflex" unicode="&#x15c;" horiz-adv-x="522" 
d="M255 -9q-65 0 -117.5 19t-83 47.5t-30.5 57.5q0 14 7.5 30.5t20.5 28t29 11.5t30 -11.5t32 -27t44 -27t64 -11.5q30 0 55.5 9.5t41 28.5t15.5 49q0 32 -17 54t-46 38t-63 31t-68.5 32t-63 41t-46 59t-17.5 86q0 56 21.5 94t57 61.5t78.5 34t86 10.5q23 0 54.5 -3.5
t63 -12.5t52 -24.5t20.5 -39.5q0 -12 -5.5 -28t-17 -28.5t-29.5 -12.5q-16 0 -31.5 9.5t-40 19t-66.5 9.5q-35 0 -61 -9.5t-39 -26t-13 -41.5q0 -26 17.5 -44t46 -32t62.5 -28t68.5 -32.5t63.5 -44.5t46 -64.5t17 -94.5q0 -71 -31 -119.5t-84.5 -73t-122.5 -24.5zM147 819
q-12 0 -20 12.5t-8 27.5q0 11 5 21t17 16l104 56q9 5 17 5q7 0 17 -5l104 -55q12 -6 16.5 -16.5t4.5 -22.5q0 -14 -7.5 -26.5t-20.5 -12.5q-2 0 -5 1t-5 2l-104 56l-104 -56l-6 -2t-5 -1z" />
    <glyph glyph-name="scircumflex" unicode="&#x15d;" horiz-adv-x="417" 
d="M205 -9q-50 0 -91.5 12.5t-65 32.5t-23.5 41q0 10 5.5 23.5t15 23.5t22.5 10q14 0 29.5 -11.5t39 -22.5t65.5 -11q45 0 59.5 14t14.5 29q0 22 -17.5 34t-44.5 20t-57.5 16.5t-57.5 23t-44 40t-17 66.5q0 36 17 70t56 56.5t106 22.5q41 0 77.5 -8.5t59.5 -23.5t23 -33
q0 -9 -6 -23.5t-16.5 -26.5t-25.5 -12q-11 0 -26.5 7.5t-35.5 14.5t-48 7q-25 0 -40 -7t-22 -17t-7 -21q0 -18 17 -28t44.5 -17t58 -15.5t58 -25t44.5 -43.5t17 -72q0 -66 -47.5 -106t-136.5 -40zM94 563q-12 0 -20 12.5t-8 27.5q0 11 5 21t17 16l104 56q9 5 17 5q7 0 17 -5
l104 -55q12 -6 16.5 -16.5t4.5 -22.5q0 -14 -7.5 -26.5t-20.5 -12.5q-2 0 -5 1t-5 2l-104 56l-104 -56l-6 -2t-5 -1z" />
    <glyph glyph-name="Scedilla" unicode="&#x15e;" horiz-adv-x="522" 
d="M255 -9q-65 0 -117.5 19t-83 47.5t-30.5 57.5q0 14 7.5 30.5t20.5 28t29 11.5t30 -11.5t32 -27t44 -27t64 -11.5q30 0 55.5 9.5t41 28.5t15.5 49q0 32 -17 54t-46 38t-63 31t-68.5 32t-63 41t-46 59t-17.5 86q0 56 21.5 94t57 61.5t78.5 34t86 10.5q23 0 54.5 -3.5
t63 -12.5t52 -24.5t20.5 -39.5q0 -12 -5.5 -28t-17 -28.5t-29.5 -12.5q-16 0 -31.5 9.5t-40 19t-66.5 9.5q-35 0 -61 -9.5t-39 -26t-13 -41.5q0 -26 17.5 -44t46 -32t62.5 -28t68.5 -32.5t63.5 -44.5t46 -64.5t17 -94.5q0 -71 -31 -119.5t-84.5 -73t-122.5 -24.5zM276 -216
q-17 0 -36.5 3t-34 10t-14.5 16q0 4 2.5 12.5t7.5 16.5t13 8t20.5 -7t37.5 -7q22 0 34.5 8.5t12.5 24.5q0 15 -11.5 25t-36.5 12l-55 5l28 98h57l-19 -60q51 -2 75 -24t24 -53q0 -17 -9.5 -38t-32.5 -35.5t-63 -14.5z" />
    <glyph glyph-name="scedilla" unicode="&#x15f;" horiz-adv-x="417" 
d="M205 -9q-50 0 -91.5 12.5t-65 32.5t-23.5 41q0 10 5.5 23.5t15 23.5t22.5 10q14 0 29.5 -11.5t39 -22.5t65.5 -11q45 0 59.5 14t14.5 29q0 22 -17.5 34t-44.5 20t-57.5 16.5t-57.5 23t-44 40t-17 66.5q0 36 17 70t56 56.5t106 22.5q41 0 77.5 -8.5t59.5 -23.5t23 -33
q0 -9 -6 -23.5t-16.5 -26.5t-25.5 -12q-11 0 -26.5 7.5t-35.5 14.5t-48 7q-25 0 -40 -7t-22 -17t-7 -21q0 -18 17 -28t44.5 -17t58 -15.5t58 -25t44.5 -43.5t17 -72q0 -66 -47.5 -106t-136.5 -40zM220 -216q-17 0 -36.5 3t-34 10t-14.5 16q0 4 2.5 12.5t7.5 16.5t13 8
t20.5 -7t37.5 -7q22 0 34.5 8.5t12.5 24.5q0 15 -11.5 25t-36.5 12l-55 5l28 98h57l-19 -60q51 -2 75 -24t24 -53q0 -17 -9.5 -38t-32.5 -35.5t-63 -14.5z" />
    <glyph glyph-name="Scaron" unicode="&#x160;" horiz-adv-x="522" 
d="M255 -9q-65 0 -117.5 19t-83 47.5t-30.5 57.5q0 14 7.5 30.5t20.5 28t29 11.5t30 -11.5t32 -27t44 -27t64 -11.5q30 0 55.5 9.5t41 28.5t15.5 49q0 32 -17 54t-46 38t-63 31t-68.5 32t-63 41t-46 59t-17.5 86q0 56 21.5 94t57 61.5t78.5 34t86 10.5q23 0 54.5 -3.5
t63 -12.5t52 -24.5t20.5 -39.5q0 -12 -5.5 -28t-17 -28.5t-29.5 -12.5q-16 0 -31.5 9.5t-40 19t-66.5 9.5q-35 0 -61 -9.5t-39 -26t-13 -41.5q0 -26 17.5 -44t46 -32t62.5 -28t68.5 -32.5t63.5 -44.5t46 -64.5t17 -94.5q0 -71 -31 -119.5t-84.5 -73t-122.5 -24.5zM262 826
q-8 0 -18 6l-103 66q-11 7 -16.5 16.5t-5.5 21.5q0 14 8 26.5t20 12.5q6 0 12 -4l103 -66l102 66q7 4 12 4q13 0 20.5 -12.5t7.5 -26.5q0 -12 -4.5 -21.5t-16.5 -16.5l-103 -66q-11 -6 -18 -6z" />
    <glyph glyph-name="scaron" unicode="&#x161;" horiz-adv-x="417" 
d="M205 -9q-50 0 -91.5 12.5t-65 32.5t-23.5 41q0 10 5.5 23.5t15 23.5t22.5 10q14 0 29.5 -11.5t39 -22.5t65.5 -11q45 0 59.5 14t14.5 29q0 22 -17.5 34t-44.5 20t-57.5 16.5t-57.5 23t-44 40t-17 66.5q0 36 17 70t56 56.5t106 22.5q41 0 77.5 -8.5t59.5 -23.5t23 -33
q0 -9 -6 -23.5t-16.5 -26.5t-25.5 -12q-11 0 -26.5 7.5t-35.5 14.5t-48 7q-25 0 -40 -7t-22 -17t-7 -21q0 -18 17 -28t44.5 -17t58 -15.5t58 -25t44.5 -43.5t17 -72q0 -66 -47.5 -106t-136.5 -40zM209 570q-8 0 -18 6l-103 66q-11 7 -16.5 16.5t-5.5 21.5q0 14 8 26.5
t20 12.5q6 0 12 -4l103 -66l102 66q7 4 12 4q13 0 20.5 -12.5t7.5 -26.5q0 -12 -4.5 -21.5t-16.5 -16.5l-103 -66q-11 -6 -18 -6z" />
    <glyph glyph-name="uni021A" unicode="&#x162;" horiz-adv-x="523" 
d="M262 0q-25 0 -45 10.5t-20 30.5v573h-147q-19 0 -30 18t-11 41q0 21 10 39.5t31 18.5h423q22 0 31.5 -18.5t9.5 -39.5q0 -23 -10.5 -41t-30.5 -18h-146v-573q0 -20 -20.5 -30.5t-44.5 -10.5zM200 -194q-16 0 -28 16.5t-12 32.5q0 22 17 30l132 64q7 3 13 3q17 0 28.5 -16
t11.5 -33q0 -22 -18 -31l-130 -62q-4 -1 -7 -2.5t-7 -1.5z" />
    <glyph glyph-name="uni021B" unicode="&#x163;" horiz-adv-x="344" 
d="M233 0q-90 0 -137.5 39t-47.5 123v485q0 18 21 29t43 11q24 0 44.5 -11t20.5 -29v-172h118q16 0 24.5 -14.5t8.5 -32.5t-8.5 -32.5t-24.5 -14.5h-118v-219q0 -29 12.5 -41t43.5 -12h39q28 0 41.5 -17t13.5 -37q0 -21 -13.5 -38t-41.5 -17h-39zM111 -194q-16 0 -28 16.5
t-12 32.5q0 22 17 30l132 64q7 3 13 3q17 0 28.5 -16t11.5 -33q0 -22 -18 -31l-130 -62q-4 -1 -7 -2.5t-7 -1.5z" />
    <glyph glyph-name="Tcaron" unicode="&#x164;" horiz-adv-x="523" 
d="M262 0q-25 0 -45 10.5t-20 30.5v573h-147q-19 0 -30 18t-11 41q0 21 10 39.5t31 18.5h423q22 0 31.5 -18.5t9.5 -39.5q0 -23 -10.5 -41t-30.5 -18h-146v-573q0 -20 -20.5 -30.5t-44.5 -10.5zM262 826q-8 0 -18 6l-103 66q-11 7 -16.5 16.5t-5.5 21.5q0 14 8 26.5t20 12.5
q6 0 12 -4l103 -66l102 66q7 4 12 4q13 0 20.5 -12.5t7.5 -26.5q0 -12 -4.5 -21.5t-16.5 -16.5l-103 -66q-11 -6 -18 -6z" />
    <glyph glyph-name="tcaron" unicode="&#x165;" horiz-adv-x="344" 
d="M233 0q-90 0 -137.5 39t-47.5 123v485q0 18 21 29t43 11q24 0 44.5 -11t20.5 -29v-172h118q16 0 24.5 -14.5t8.5 -32.5t-8.5 -32.5t-24.5 -14.5h-118v-219q0 -29 12.5 -41t43.5 -12h39q28 0 41.5 -17t13.5 -37q0 -21 -13.5 -38t-41.5 -17h-39zM272 532q-14 0 -28.5 8.5
t-14.5 25.5q0 7 4 14l23 53q-17 9 -27 25t-10 36q0 28 20 48t47 20q28 0 48 -20t20 -47q0 -5 -1.5 -13t-7.5 -22.5t-17 -41.5t-29 -70q-4 -8 -12 -12t-15 -4z" />
    <glyph glyph-name="Tbar" unicode="&#x166;" horiz-adv-x="524" 
d="M262 0q-24 0 -44.5 10.5t-20.5 30.5v277h-85q-17 0 -25.5 14.5t-8.5 32.5q0 17 8.5 32t25.5 15h85v202h-147q-19 0 -29.5 18t-10.5 41q0 21 9.5 39.5t30.5 18.5h424q21 0 30.5 -18.5t9.5 -39.5q0 -23 -10 -41t-30 -18h-147v-202h84q17 0 25.5 -15t8.5 -32q0 -19 -8.5 -33
t-25.5 -14h-84v-277q0 -20 -20.5 -30.5t-44.5 -10.5z" />
    <glyph glyph-name="tbar" unicode="&#x167;" horiz-adv-x="346" 
d="M233 0q-90 0 -137.5 39t-47.5 123v485q0 18 21 29t43 11q24 0 44.5 -11t20.5 -29v-172h118q16 0 24.5 -14.5t8.5 -32.5t-8.5 -32.5t-24.5 -14.5h-118v-73h118q16 0 24.5 -15t8.5 -32q0 -19 -8.5 -33t-24.5 -14h-118v-52q0 -29 12.5 -41t43.5 -12h39q28 0 41.5 -17
t13.5 -37q0 -21 -13.5 -38t-41.5 -17h-39z" />
    <glyph glyph-name="Utilde" unicode="&#x168;" horiz-adv-x="594" 
d="M297 -6q-68 0 -122 22.5t-86 73t-32 133.5v468q0 21 20 30.5t45 9.5q24 0 44.5 -9.5t20.5 -30.5v-468q0 -58 29 -86.5t81 -28.5q51 0 80.5 28.5t29.5 86.5v468q0 21 19.5 30.5t45.5 9.5q24 0 44.5 -9.5t20.5 -30.5v-468q0 -83 -32 -133.5t-86.5 -73t-121.5 -22.5z
M382 831q-32 0 -55 7.5t-42.5 14.5t-44.5 7q-21 0 -35.5 -6t-25.5 -12t-21 -6q-13 0 -20 8t-10 18.5t-3 15.5q0 23 10 36.5t24.5 20.5t29 9t22.5 2q30 0 51 -7t42.5 -14.5t48.5 -7.5q21 0 35 6t25 12t21 6q14 0 20.5 -8.5t9.5 -18.5t3 -15q0 -24 -10 -37t-24 -20t-28.5 -9
t-22.5 -2z" />
    <glyph glyph-name="utilde" unicode="&#x169;" horiz-adv-x="524" 
d="M263 -9q-60 0 -109.5 28.5t-79 75t-29.5 99.5v240q0 15 19.5 28t45.5 13t45 -13t19 -28v-240q0 -23 12 -43t32 -33.5t44 -13.5q25 0 44.5 13t31.5 34t12 43v241q0 16 19.5 28t44.5 12q29 0 47 -12t18 -28v-241q0 -54 -29.5 -100.5t-79 -74.5t-107.5 -28zM348 575
q-32 0 -55 7.5t-42.5 14.5t-44.5 7q-21 0 -35.5 -6t-25.5 -12t-21 -6q-13 0 -20 8t-10 18.5t-3 15.5q0 23 10 36.5t24.5 20.5t29 9t22.5 2q30 0 51 -7t42.5 -14.5t48.5 -7.5q21 0 35 6t25 12t21 6q14 0 20.5 -8.5t9.5 -18.5t3 -15q0 -24 -10 -37t-24 -20t-28.5 -9t-22.5 -2z
" />
    <glyph glyph-name="Umacron" unicode="&#x16a;" horiz-adv-x="594" 
d="M297 -6q-68 0 -122 22.5t-86 73t-32 133.5v468q0 21 20 30.5t45 9.5q24 0 44.5 -9.5t20.5 -30.5v-468q0 -58 29 -86.5t81 -28.5q51 0 80.5 28.5t29.5 86.5v468q0 21 19.5 30.5t45.5 9.5q24 0 44.5 -9.5t20.5 -30.5v-468q0 -83 -32 -133.5t-86.5 -73t-121.5 -22.5z
M193 853q-17 0 -28.5 12t-11.5 30t11.5 30.5t28.5 12.5h205q15 0 28 -12.5t13 -30.5t-13 -30t-28 -12h-205z" />
    <glyph glyph-name="umacron" unicode="&#x16b;" horiz-adv-x="524" 
d="M263 -9q-60 0 -109.5 28.5t-79 75t-29.5 99.5v240q0 15 19.5 28t45.5 13t45 -13t19 -28v-240q0 -23 12 -43t32 -33.5t44 -13.5q25 0 44.5 13t31.5 34t12 43v241q0 16 19.5 28t44.5 12q29 0 47 -12t18 -28v-241q0 -54 -29.5 -100.5t-79 -74.5t-107.5 -28zM159 597
q-17 0 -28.5 12t-11.5 30t11.5 30.5t28.5 12.5h205q15 0 28 -12.5t13 -30.5t-13 -30t-28 -12h-205z" />
    <glyph glyph-name="Ubreve" unicode="&#x16c;" horiz-adv-x="594" 
d="M297 -6q-68 0 -122 22.5t-86 73t-32 133.5v468q0 21 20 30.5t45 9.5q24 0 44.5 -9.5t20.5 -30.5v-468q0 -58 29 -86.5t81 -28.5q51 0 80.5 28.5t29.5 86.5v468q0 21 19.5 30.5t45.5 9.5q24 0 44.5 -9.5t20.5 -30.5v-468q0 -83 -32 -133.5t-86.5 -73t-121.5 -22.5z
M297 831q-44 0 -81.5 30.5t-48.5 73.5q-3 14 4.5 21.5t21.5 7.5h16q12 0 18.5 -6.5t10.5 -17.5q6 -23 23.5 -37t35.5 -14q20 0 36 14t23 37q4 11 10.5 17.5t18.5 6.5h16q13 0 21 -8t4 -22q-11 -42 -48 -72.5t-81 -30.5z" />
    <glyph glyph-name="ubreve" unicode="&#x16d;" horiz-adv-x="524" 
d="M263 -9q-60 0 -109.5 28.5t-79 75t-29.5 99.5v240q0 15 19.5 28t45.5 13t45 -13t19 -28v-240q0 -23 12 -43t32 -33.5t44 -13.5q25 0 44.5 13t31.5 34t12 43v241q0 16 19.5 28t44.5 12q29 0 47 -12t18 -28v-241q0 -54 -29.5 -100.5t-79 -74.5t-107.5 -28zM262 575
q-44 0 -81.5 30.5t-48.5 73.5q-3 14 4.5 21.5t21.5 7.5h16q12 0 18.5 -6.5t10.5 -17.5q6 -23 23.5 -37t35.5 -14q20 0 36 14t23 37q4 11 10.5 17.5t18.5 6.5h16q13 0 21 -8t4 -22q-11 -42 -48 -72.5t-81 -30.5z" />
    <glyph glyph-name="Uring" unicode="&#x16e;" horiz-adv-x="594" 
d="M297 -6q-68 0 -122 22.5t-86 73t-32 133.5v468q0 21 20 30.5t45 9.5q24 0 44.5 -9.5t20.5 -30.5v-468q0 -58 29 -86.5t81 -28.5q51 0 80.5 28.5t29.5 86.5v468q0 21 19.5 30.5t45.5 9.5q24 0 44.5 -9.5t20.5 -30.5v-468q0 -83 -32 -133.5t-86.5 -73t-121.5 -22.5z
M296 808q-26 0 -48.5 14t-35.5 37.5t-13 49.5t13 48t35 36.5t49 14.5q26 0 48.5 -13.5t36.5 -36.5t14 -49t-14 -49.5t-36.5 -37.5t-48.5 -14zM297 860q19 0 31.5 15t12.5 33q0 17 -12.5 31t-31.5 14q-20 0 -33.5 -14.5t-13.5 -29.5q0 -18 14 -33.5t33 -15.5z" />
    <glyph glyph-name="uring" unicode="&#x16f;" horiz-adv-x="524" 
d="M263 -9q-60 0 -109.5 28.5t-79 75t-29.5 99.5v240q0 15 19.5 28t45.5 13t45 -13t19 -28v-240q0 -23 12 -43t32 -33.5t44 -13.5q25 0 44.5 13t31.5 34t12 43v241q0 16 19.5 28t44.5 12q29 0 47 -12t18 -28v-241q0 -54 -29.5 -100.5t-79 -74.5t-107.5 -28zM262 553
q-26 0 -48.5 14t-35.5 37.5t-13 49.5t13 48t35 36.5t49 14.5q26 0 48.5 -13.5t36.5 -36.5t14 -49t-14 -49.5t-36.5 -37.5t-48.5 -14zM263 605q19 0 31.5 15t12.5 33q0 17 -12.5 31t-31.5 14q-20 0 -33.5 -14.5t-13.5 -29.5q0 -18 14 -33.5t33 -15.5z" />
    <glyph glyph-name="Uhungarumlaut" unicode="&#x170;" horiz-adv-x="594" 
d="M297 -6q-68 0 -122 22.5t-86 73t-32 133.5v468q0 21 20 30.5t45 9.5q24 0 44.5 -9.5t20.5 -30.5v-468q0 -58 29 -86.5t81 -28.5q51 0 80.5 28.5t29.5 86.5v468q0 21 19.5 30.5t45.5 9.5q24 0 44.5 -9.5t20.5 -30.5v-468q0 -83 -32 -133.5t-86.5 -73t-121.5 -22.5z
M345 825q-15 0 -27.5 12.5t-12.5 25.5q0 9 7 16l84 88q5 5 9.5 6.5t9.5 1.5q14 0 26 -12.5t12 -25.5q0 -9 -7 -17l-82 -86q-7 -9 -19 -9zM188 825q-15 0 -27.5 12.5t-12.5 25.5q0 9 7 16l84 88q5 5 9.5 6.5t9.5 1.5q14 0 26 -12.5t12 -25.5q0 -9 -7 -17l-82 -86
q-8 -9 -19 -9z" />
    <glyph glyph-name="uhungarumlaut" unicode="&#x171;" horiz-adv-x="524" 
d="M263 -9q-60 0 -109.5 28.5t-79 75t-29.5 99.5v240q0 15 19.5 28t45.5 13t45 -13t19 -28v-240q0 -23 12 -43t32 -33.5t44 -13.5q25 0 44.5 13t31.5 34t12 43v241q0 16 19.5 28t44.5 12q29 0 47 -12t18 -28v-241q0 -54 -29.5 -100.5t-79 -74.5t-107.5 -28zM311 569
q-15 0 -27.5 12.5t-12.5 25.5q0 9 7 16l84 88q5 5 9.5 6.5t9.5 1.5q14 0 26 -12.5t12 -25.5q0 -9 -7 -17l-82 -86q-7 -9 -19 -9zM154 569q-15 0 -27.5 12.5t-12.5 25.5q0 9 7 16l84 88q5 5 9.5 6.5t9.5 1.5q14 0 26 -12.5t12 -25.5q0 -9 -7 -17l-82 -86q-8 -9 -19 -9z" />
    <glyph glyph-name="Uogonek" unicode="&#x172;" horiz-adv-x="594" 
d="M297 -6q-68 0 -122 22.5t-86 73t-32 133.5v468q0 21 20 30.5t45 9.5q24 0 44.5 -9.5t20.5 -30.5v-468q0 -58 29 -86.5t81 -28.5q51 0 80.5 28.5t29.5 86.5v468q0 21 19.5 30.5t45.5 9.5q24 0 44.5 -9.5t20.5 -30.5v-468q0 -83 -32 -133.5t-86.5 -73t-121.5 -22.5z
M365 -213q-39 0 -64.5 11.5t-39 32t-13.5 46.5q0 41 25.5 82t68.5 67l47 -19q-33 -21 -55.5 -54t-22.5 -64q0 -22 14.5 -34.5t45.5 -12.5q12 0 17.5 -9.5t5.5 -19.5q0 -11 -5.5 -18.5t-23.5 -7.5z" />
    <glyph glyph-name="uogonek" unicode="&#x173;" horiz-adv-x="524" 
d="M263 -9q-60 0 -109.5 28.5t-79 75t-29.5 99.5v240q0 15 19.5 28t45.5 13t45 -13t19 -28v-240q0 -23 12 -43t32 -33.5t44 -13.5q25 0 44.5 13t31.5 34t12 43v241q0 16 19.5 28t44.5 12q29 0 47 -12t18 -28v-241q0 -54 -29.5 -100.5t-79 -74.5t-107.5 -28zM321 -213
q-39 0 -64.5 11.5t-39 32t-13.5 46.5q0 41 25.5 82t68.5 67l47 -19q-33 -21 -55.5 -54t-22.5 -64q0 -22 14.5 -34.5t45.5 -12.5q12 0 17.5 -9.5t5.5 -19.5q0 -11 -5.5 -18.5t-23.5 -7.5z" />
    <glyph glyph-name="Wcircumflex" unicode="&#x174;" horiz-adv-x="881" 
d="M293 -6q-28 0 -53 11t-32 33l-198 629q-2 6 -2 12q0 15 13 26.5t32.5 18.5t37.5 7q15 0 27.5 -6t15.5 -20l158 -542l85 348q5 18 23.5 27t39.5 9q23 0 41.5 -9t22.5 -27l85 -348l158 542q4 14 16 20t27 6q19 0 38 -7t32 -18.5t13 -26.5q0 -6 -2 -12l-198 -629
q-8 -22 -32 -33t-53 -11q-28 0 -53 11t-30 33l-65 270l-64 -270q-5 -22 -30 -33t-53 -11zM326 819q-12 0 -20 12.5t-8 27.5q0 11 5 21t17 16l104 56q9 5 17 5q7 0 17 -5l104 -55q12 -6 16.5 -16.5t4.5 -22.5q0 -14 -7.5 -26.5t-20.5 -12.5q-2 0 -5 1t-5 2l-104 56l-104 -56
l-6 -2t-5 -1z" />
    <glyph glyph-name="wcircumflex" unicode="&#x175;" horiz-adv-x="692" 
d="M215 -11q-17 0 -31 5t-19 19l-155 395q-2 7 -3 11.5t-1 7.5q0 16 13.5 27.5t33.5 18.5t36 7q13 0 23.5 -5t14.5 -16l100 -284l75 247q5 17 17 21.5t27 4.5t27 -4.5t17 -21.5l74 -248l101 285q7 21 36 21q16 0 36 -7t34 -19t14 -28q0 -4 -1 -9t-3 -9l-155 -396
q-5 -13 -19 -18t-31 -5q-18 0 -33 6t-20 17l-77 218l-77 -217q-3 -12 -19 -18t-35 -6zM231 563q-12 0 -20 12.5t-8 27.5q0 11 5 21t17 16l104 56q9 5 17 5q7 0 17 -5l104 -55q12 -6 16.5 -16.5t4.5 -22.5q0 -14 -7.5 -26.5t-20.5 -12.5q-2 0 -5 1t-5 2l-104 56l-104 -56
l-6 -2t-5 -1z" />
    <glyph glyph-name="Ycircumflex" unicode="&#x176;" horiz-adv-x="572" 
d="M286 0q-24 0 -44.5 10.5t-20.5 30.5v252q0 7 -3 13l-207 358q-2 4 -2.5 7.5t-0.5 5.5q0 16 14 28t34 19t38 7q16 0 24 -6.5t15 -19.5l153 -289l152 289q8 13 16 19.5t24 6.5q18 0 37.5 -7t34 -19t14.5 -28q0 -2 -0.5 -5.5t-2.5 -7.5l-207 -358q-3 -6 -3 -13v-252
q0 -20 -20.5 -30.5t-44.5 -10.5zM172 819q-12 0 -20 12.5t-8 27.5q0 11 5 21t17 16l104 56q9 5 17 5q7 0 17 -5l104 -55q12 -6 16.5 -16.5t4.5 -22.5q0 -14 -7.5 -26.5t-20.5 -12.5q-2 0 -5 1t-5 2l-104 56l-104 -56l-6 -2t-5 -1z" />
    <glyph glyph-name="ycircumflex" unicode="&#x177;" horiz-adv-x="474" 
d="M64 -221q-25 0 -42 9.5t-17 45.5q0 22 7.5 38t25.5 16q17 0 39.5 6t45.5 22.5t39 45t19 73.5l-172 368q-4 9 -4 17q0 17 14.5 31t34.5 22.5t37 8.5q12 0 22.5 -5t14.5 -17l120 -299l96 299q5 12 15 17t20 5q15 0 36 -8.5t36.5 -23t15.5 -32.5q0 -9 -3 -15l-146 -373
q-18 -45 -35 -89.5t-42.5 -81t-67.5 -58.5t-109 -22zM123 563q-12 0 -20 12.5t-8 27.5q0 11 5 21t17 16l104 56q9 5 17 5q7 0 17 -5l104 -55q12 -6 16.5 -16.5t4.5 -22.5q0 -14 -7.5 -26.5t-20.5 -12.5q-2 0 -5 1t-5 2l-104 56l-104 -56l-6 -2t-5 -1z" />
    <glyph glyph-name="Ydieresis" unicode="&#x178;" horiz-adv-x="572" 
d="M286 0q-24 0 -44.5 10.5t-20.5 30.5v252q0 7 -3 13l-207 358q-2 4 -2.5 7.5t-0.5 5.5q0 16 14 28t34 19t38 7q16 0 24 -6.5t15 -19.5l153 -289l152 289q8 13 16 19.5t24 6.5q18 0 37.5 -7t34 -19t14.5 -28q0 -2 -0.5 -5.5t-2.5 -7.5l-207 -358q-3 -6 -3 -13v-252
q0 -20 -20.5 -30.5t-44.5 -10.5zM361 820q-21 0 -36.5 16t-15.5 37t15.5 36.5t36.5 15.5q20 0 35 -15.5t15 -36.5t-15 -37t-35 -16zM211 820q-21 0 -36 16t-15 37t15 36.5t36 15.5t35.5 -15.5t14.5 -36.5t-14.5 -37t-35.5 -16z" />
    <glyph glyph-name="Zacute" unicode="&#x179;" horiz-adv-x="520" 
d="M52 0q-20 0 -29.5 10t-9.5 26q0 21 14 45l297 536h-253q-19 0 -29.5 17t-10.5 40q0 21 9.5 39t30.5 18h380q20 0 29.5 -10t9.5 -25q0 -21 -15 -47l-296 -535h288q20 0 30.5 -18.5t10.5 -38.5t-10.5 -38.5t-30.5 -18.5h-415zM224 811q-16 0 -28 16.5t-12 32.5q0 22 17 31
l132 64q7 2 13 2q17 0 28.5 -16t11.5 -33q0 -21 -18 -30l-130 -63q-4 -1 -7 -2.5t-7 -1.5z" />
    <glyph glyph-name="zacute" unicode="&#x17a;" horiz-adv-x="434" 
d="M64 0q-24 0 -34 14.5t-10 31.5q0 15 6.5 28.5t15.5 23.5l196 272h-172q-16 0 -27.5 15.5t-11.5 37.5q0 21 11 36.5t28 15.5h294q17 0 29 -11t12 -33q0 -27 -20 -54l-197 -272h195q16 0 27.5 -15.5t11.5 -37.5q0 -21 -10.5 -36.5t-28.5 -15.5h-315zM183 555
q-16 0 -28 16.5t-12 32.5q0 22 17 31l132 64q7 2 13 2q17 0 28.5 -16t11.5 -33q0 -21 -18 -30l-130 -63q-4 -1 -7 -2.5t-7 -1.5z" />
    <glyph glyph-name="Zdotaccent" unicode="&#x17b;" horiz-adv-x="520" 
d="M52 0q-20 0 -29.5 10t-9.5 26q0 21 14 45l297 536h-253q-19 0 -29.5 17t-10.5 40q0 21 9.5 39t30.5 18h380q20 0 29.5 -10t9.5 -25q0 -21 -15 -47l-296 -535h288q20 0 30.5 -18.5t10.5 -38.5t-10.5 -38.5t-30.5 -18.5h-415zM258 821q-21 0 -36.5 16t-15.5 37t15.5 37
t36.5 16t36 -16t15 -37t-15 -37t-36 -16z" />
    <glyph glyph-name="zdotaccent" unicode="&#x17c;" horiz-adv-x="434" 
d="M64 0q-24 0 -34 14.5t-10 31.5q0 15 6.5 28.5t15.5 23.5l196 272h-172q-16 0 -27.5 15.5t-11.5 37.5q0 21 11 36.5t28 15.5h294q17 0 29 -11t12 -33q0 -27 -20 -54l-197 -272h195q16 0 27.5 -15.5t11.5 -37.5q0 -21 -10.5 -36.5t-28.5 -15.5h-315zM217 565
q-21 0 -36.5 16t-15.5 37t15.5 37t36.5 16t36 -16t15 -37t-15 -37t-36 -16z" />
    <glyph glyph-name="Zcaron" unicode="&#x17d;" horiz-adv-x="520" 
d="M52 0q-20 0 -29.5 10t-9.5 26q0 21 14 45l297 536h-253q-19 0 -29.5 17t-10.5 40q0 21 9.5 39t30.5 18h380q20 0 29.5 -10t9.5 -25q0 -21 -15 -47l-296 -535h288q20 0 30.5 -18.5t10.5 -38.5t-10.5 -38.5t-30.5 -18.5h-415zM258 826q-8 0 -18 6l-103 66q-11 7 -16.5 16.5
t-5.5 21.5q0 14 8 26.5t20 12.5q6 0 12 -4l103 -66l102 66q7 4 12 4q13 0 20.5 -12.5t7.5 -26.5q0 -12 -4.5 -21.5t-16.5 -16.5l-103 -66q-11 -6 -18 -6z" />
    <glyph glyph-name="zcaron" unicode="&#x17e;" horiz-adv-x="434" 
d="M64 0q-24 0 -34 14.5t-10 31.5q0 15 6.5 28.5t15.5 23.5l196 272h-172q-16 0 -27.5 15.5t-11.5 37.5q0 21 11 36.5t28 15.5h294q17 0 29 -11t12 -33q0 -27 -20 -54l-197 -272h195q16 0 27.5 -15.5t11.5 -37.5q0 -21 -10.5 -36.5t-28.5 -15.5h-315zM218 570q-8 0 -18 6
l-103 66q-11 7 -16.5 16.5t-5.5 21.5q0 14 8 26.5t20 12.5q6 0 12 -4l103 -66l102 66q7 4 12 4q13 0 20.5 -12.5t7.5 -26.5q0 -12 -4.5 -21.5t-16.5 -16.5l-103 -66q-11 -6 -18 -6z" />
    <glyph glyph-name="florin" unicode="&#x192;" horiz-adv-x="411" 
d="M-7 -137q-19 0 -29 17t-10 40q0 27 12.5 45t31.5 18h22q14 0 23.5 13t16.5 34t10 45l67 492q7 55 39 101t79.5 73t101.5 27h52q17 0 27.5 -16t10.5 -38q0 -26 -13 -42.5t-30 -16.5h-49q-24 0 -43 -11.5t-30.5 -31t-15.5 -45.5l-18 -122h124q17 0 25 -14.5t8 -31.5
q0 -18 -8.5 -33t-25.5 -15h-137l-38 -276q-8 -55 -28.5 -104t-57.5 -78.5t-92 -29.5h-25z" />
    <glyph glyph-name="Ohorn" unicode="&#x1a0;" 
d="M287 -6q-66 0 -119 22.5t-84 73t-31 133.5v279q0 83 31 133.5t83.5 73t119.5 22.5q66 0 119.5 -22.5t84.5 -73t31 -133.5v-279q0 -83 -31 -133.5t-84.5 -73t-119.5 -22.5zM287 108q49 0 77 28t28 87v279q0 59 -28 87t-77 28t-77 -28t-28 -87v-279q0 -59 28 -87t77 -28z
M310 647v85q41 0 64.5 15.5t23.5 47.5q0 17 11 32.5t32 15.5q25 0 34 -16.5t9 -31.5q0 -40 -17.5 -74t-55.5 -54t-101 -20z" />
    <glyph glyph-name="ohorn" unicode="&#x1a1;" horiz-adv-x="497" 
d="M248 -9q-58 0 -107 28.5t-79 75.5t-30 101v82q0 54 29 100.5t78.5 74.5t108.5 28t108.5 -27.5t79 -73.5t29.5 -102v-82q0 -53 -30 -100t-79.5 -76t-107.5 -29zM248 104q24 0 44 13t32 34.5t12 44.5v82q0 23 -12 43t-31.5 33.5t-44.5 13.5q-24 0 -44 -13t-31.5 -33.5
t-11.5 -43.5v-82q0 -23 11.5 -44.5t31.5 -34.5t44 -13zM293 391v85q41 0 64.5 15.5t23.5 47.5q0 17 11 32.5t32 15.5q25 0 34 -16.5t9 -31.5q0 -40 -17.5 -74t-55.5 -54t-101 -20z" />
    <glyph glyph-name="Uhorn" unicode="&#x1af;" horiz-adv-x="594" 
d="M297 -6q-68 0 -122 22.5t-86 73t-32 133.5v468q0 21 20 30.5t45 9.5q24 0 44.5 -9.5t20.5 -30.5v-468q0 -58 29 -86.5t81 -28.5q51 0 80.5 28.5t29.5 86.5v468q0 21 19.5 30.5t45.5 9.5q24 0 44.5 -9.5t20.5 -30.5v-468q0 -83 -32 -133.5t-86.5 -73t-121.5 -22.5z
M471 647v85q41 0 64.5 15.5t23.5 47.5q0 17 11 32.5t32 15.5q25 0 34 -16.5t9 -31.5q0 -40 -17.5 -74t-55.5 -54t-101 -20z" />
    <glyph glyph-name="uhorn" unicode="&#x1b0;" horiz-adv-x="524" 
d="M263 -9q-60 0 -109.5 28.5t-79 75t-29.5 99.5v240q0 15 19.5 28t45.5 13t45 -13t19 -28v-240q0 -23 12 -43t32 -33.5t44 -13.5q25 0 44.5 13t31.5 34t12 43v241q0 16 19.5 28t44.5 12q29 0 47 -12t18 -28v-241q0 -54 -29.5 -100.5t-79 -74.5t-107.5 -28zM413 391v85
q41 0 64.5 15.5t23.5 47.5q0 17 11 32.5t32 15.5q25 0 34 -16.5t9 -31.5q0 -40 -17.5 -74t-55.5 -54t-101 -20z" />
    <glyph glyph-name="AEacute" unicode="&#x1fc;" horiz-adv-x="787" 
d="M114 0q-31 0 -44 13.5t-13 32.5v456q0 83 30.5 133.5t82 73t114.5 22.5h446q21 0 30.5 -18t9.5 -38q0 -24 -10 -41t-30 -17h-229v-200h120q19 0 29.5 -15.5t10.5 -36.5q0 -17 -9.5 -33.5t-30.5 -16.5h-120v-201h229q20 0 30 -17t10 -41q0 -20 -9.5 -38t-30.5 -18h-301
q-22 0 -40 10.5t-18 30.5v274h-192v-269q0 -19 -10.5 -32.5t-54.5 -13.5zM179 417h192v200h-87q-49 0 -77 -28.5t-28 -86.5v-85zM405 811q-16 0 -28 16.5t-12 32.5q0 22 17 31l132 64q7 2 13 2q17 0 28.5 -16t11.5 -33q0 -21 -18 -30l-130 -63q-4 -1 -7 -2.5t-7 -1.5z" />
    <glyph glyph-name="aeacute" unicode="&#x1fd;" horiz-adv-x="748" 
d="M174 -9q-41 0 -75.5 14.5t-56 44t-21.5 73.5q0 58 29.5 90t82 45t121.5 13h41v14q0 21 -8.5 42t-27.5 35.5t-52 14.5q-39 0 -59 -8t-31.5 -16t-23.5 -8q-21 0 -33 21t-12 44q0 21 26 37t63 25t72 9q56 0 94.5 -21.5t62.5 -56.5q27 35 65 56.5t83 21.5q39 0 76.5 -12.5
t67 -37.5t46.5 -60.5t17 -80.5q0 -40 -13 -58.5t-34.5 -23t-46.5 -4.5h-203v-15q0 -43 32.5 -69.5t83.5 -26.5q33 0 55 10t38.5 19t30.5 9q15 0 25.5 -10t17 -23t6.5 -24q0 -18 -23.5 -37.5t-63.5 -32.5t-92 -13q-58 0 -106 25.5t-79 70.5q-35 -45 -82 -70.5t-93 -25.5z
M203 87q22 0 42.5 14t35 36t14.5 46v21h-15q-34 0 -63.5 -4t-47.5 -17.5t-18 -42.5q0 -27 15 -40t37 -13zM424 280h146q17 0 23 5.5t6 20.5q0 24 -12 42t-31.5 28t-44.5 10q-22 0 -42 -9.5t-32.5 -27t-12.5 -41.5v-28zM322 566q-16 0 -28 16.5t-12 32.5q0 22 17 31l132 64
q7 2 13 2q17 0 28.5 -16t11.5 -33q0 -21 -18 -30l-130 -63q-4 -1 -7 -2.5t-7 -1.5z" />
    <glyph glyph-name="Oslashacute" unicode="&#x1fe;" 
d="M287 -6q-66 0 -119 22.5t-84 73t-31 133.5v279q0 83 31 133.5t83.5 73t119.5 22.5q66 0 119.5 -22.5t84.5 -73t31 -133.5v-279q0 -83 -31 -133.5t-84.5 -73t-119.5 -22.5zM287 108q49 0 77 28t28 87v279q0 59 -28 87t-77 28t-77 -28t-28 -87v-279q0 -59 28 -87t77 -28z
M118 -45q-20 0 -33.5 14t-13.5 30q0 9 4 17l360 729q10 21 36 21q18 0 34 -12.5t16 -32.5q0 -10 -4 -18l-360 -726q-4 -10 -15.5 -16t-23.5 -6zM254 811q-16 0 -28 16.5t-12 32.5q0 22 17 31l132 64q7 2 13 2q17 0 28.5 -16t11.5 -33q0 -21 -18 -30l-130 -63q-4 -1 -7 -2.5
t-7 -1.5z" />
    <glyph glyph-name="oslashacute" unicode="&#x1ff;" horiz-adv-x="497" 
d="M248 -9q-58 0 -107 28.5t-79 75.5t-30 101v82q0 54 29 100.5t78.5 74.5t108.5 28t108.5 -27.5t79 -73.5t29.5 -102v-82q0 -53 -30 -100t-79.5 -76t-107.5 -29zM248 104q24 0 44 13t32 34.5t12 44.5v82q0 23 -12 43t-31.5 33.5t-44.5 13.5q-24 0 -44 -13t-31.5 -33.5
t-11.5 -43.5v-82q0 -23 11.5 -44.5t31.5 -34.5t44 -13zM77 -32q-10 0 -19 8t-9 19q0 8 6 16l34 49l273 390l34 48q8 12 20 12t21 -8.5t9 -20.5q0 -9 -7 -19l-33 -46l-277 -390l-35 -49q-6 -9 -17 -9zM215 555q-16 0 -28 16.5t-12 32.5q0 22 17 31l132 64q7 2 13 2
q17 0 28.5 -16t11.5 -33q0 -21 -18 -30l-130 -63q-4 -1 -7 -2.5t-7 -1.5z" />
    <glyph glyph-name="uni0218" unicode="&#x218;" horiz-adv-x="522" 
d="M255 -9q-65 0 -117.5 19t-83 47.5t-30.5 57.5q0 14 7.5 30.5t20.5 28t29 11.5t30 -11.5t32 -27t44 -27t64 -11.5q30 0 55.5 9.5t41 28.5t15.5 49q0 32 -17 54t-46 38t-63 31t-68.5 32t-63 41t-46 59t-17.5 86q0 56 21.5 94t57 61.5t78.5 34t86 10.5q23 0 54.5 -3.5
t63 -12.5t52 -24.5t20.5 -39.5q0 -12 -5.5 -28t-17 -28.5t-29.5 -12.5q-16 0 -31.5 9.5t-40 19t-66.5 9.5q-35 0 -61 -9.5t-39 -26t-13 -41.5q0 -26 17.5 -44t46 -32t62.5 -28t68.5 -32.5t63.5 -44.5t46 -64.5t17 -94.5q0 -71 -31 -119.5t-84.5 -73t-122.5 -24.5zM205 -194
q-16 0 -28 16.5t-12 32.5q0 22 17 30l132 64q7 3 13 3q17 0 28.5 -16t11.5 -33q0 -22 -18 -31l-130 -62q-4 -1 -7 -2.5t-7 -1.5z" />
    <glyph glyph-name="uni0219" unicode="&#x219;" horiz-adv-x="417" 
d="M205 -9q-50 0 -91.5 12.5t-65 32.5t-23.5 41q0 10 5.5 23.5t15 23.5t22.5 10q14 0 29.5 -11.5t39 -22.5t65.5 -11q45 0 59.5 14t14.5 29q0 22 -17.5 34t-44.5 20t-57.5 16.5t-57.5 23t-44 40t-17 66.5q0 36 17 70t56 56.5t106 22.5q41 0 77.5 -8.5t59.5 -23.5t23 -33
q0 -9 -6 -23.5t-16.5 -26.5t-25.5 -12q-11 0 -26.5 7.5t-35.5 14.5t-48 7q-25 0 -40 -7t-22 -17t-7 -21q0 -18 17 -28t44.5 -17t58 -15.5t58 -25t44.5 -43.5t17 -72q0 -66 -47.5 -106t-136.5 -40zM149 -194q-16 0 -28 16.5t-12 32.5q0 22 17 30l132 64q7 3 13 3
q17 0 28.5 -16t11.5 -33q0 -22 -18 -31l-130 -62q-4 -1 -7 -2.5t-7 -1.5z" />
    <glyph glyph-name="uni0237" unicode="&#x237;" horiz-adv-x="229" 
d="M28 -221q-40 0 -53.5 16.5t-13.5 36.5q0 26 14.5 41t34.5 15q18 0 26.5 10t11 28.5t2.5 41.5v467q0 18 18 29t45 11q28 0 47 -11t19 -29v-467q0 -55 -17 -98t-50.5 -67t-83.5 -24z" />
    <glyph glyph-name="uni0259" unicode="&#x259;" horiz-adv-x="485" 
d="M234 -9q-55 0 -102 24t-76 66.5t-29 97.5q0 43 14 61.5t36 23t44 4.5h203v15q0 43 -32.5 69.5t-84.5 26.5q-33 0 -55 -9.5t-37.5 -19t-30.5 -9.5t-26 10t-17 23.5t-6 23.5q0 17 21.5 36.5t61.5 33t93 13.5q71 0 125.5 -25.5t85.5 -71.5t31 -108v-85q0 -54 -29.5 -99.5
t-79 -73t-110.5 -27.5zM236 86q23 0 43 9.5t32.5 27t12.5 41.5v28h-146q-16 0 -23 -5.5t-7 -21.5q0 -23 12 -41t32.5 -28t43.5 -10z" />
    <glyph glyph-name="circumflex" unicode="&#x2c6;" horiz-adv-x="285" 
d="M28 576q-12 0 -20 12.5t-8 27.5q0 11 5 21t17 16l104 56q9 5 17 5q7 0 17 -5l104 -55q12 -6 16.5 -16.5t4.5 -22.5q0 -14 -7.5 -26.5t-20.5 -12.5q-2 0 -5 1t-5 2l-104 56l-104 -56l-6 -2t-5 -1z" />
    <glyph glyph-name="caron" unicode="&#x2c7;" horiz-adv-x="285" 
d="M143 583q-8 0 -18 6l-103 66q-11 7 -16.5 16.5t-5.5 21.5q0 14 8 26.5t20 12.5q6 0 12 -4l103 -66l102 66q7 4 12 4q13 0 20.5 -12.5t7.5 -26.5q0 -12 -4.5 -21.5t-16.5 -16.5l-103 -66q-11 -6 -18 -6z" />
    <glyph glyph-name="breve" unicode="&#x2d8;" horiz-adv-x="261" 
d="M130 588q-44 0 -81.5 30.5t-48.5 73.5q-3 14 4.5 21.5t21.5 7.5h16q12 0 18.5 -6.5t10.5 -17.5q6 -23 23.5 -37t35.5 -14q20 0 36 14t23 37q4 11 10.5 17.5t18.5 6.5h16q13 0 21 -8t4 -22q-11 -42 -48 -72.5t-81 -30.5z" />
    <glyph glyph-name="dotaccent" unicode="&#x2d9;" horiz-adv-x="199" 
d="M100 578q-21 0 -36.5 16t-15.5 37t15.5 37t36.5 16t36 -16t15 -37t-15 -37t-36 -16z" />
    <glyph glyph-name="uni030A" unicode="&#x2da;" horiz-adv-x="0" 
d="M97 569q-26 0 -48.5 14t-35.5 37.5t-13 49.5t13 48t35 36.5t49 14.5q26 0 48.5 -13.5t36.5 -36.5t14 -49t-14 -49.5t-36.5 -37.5t-48.5 -14zM98 621q19 0 31.5 15t12.5 33q0 17 -12.5 31t-31.5 14q-20 0 -33.5 -14.5t-13.5 -29.5q0 -18 14 -33.5t33 -15.5z" />
    <glyph glyph-name="ogonek" unicode="&#x2db;" horiz-adv-x="146" 
d="M117 -213q-39 0 -64.5 11.5t-39 32t-13.5 46.5q0 41 25.5 82t68.5 67l47 -19q-33 -21 -55.5 -54t-22.5 -64q0 -22 14.5 -34.5t45.5 -12.5q12 0 17.5 -9.5t5.5 -19.5q0 -11 -5.5 -18.5t-23.5 -7.5z" />
    <glyph glyph-name="tilde" unicode="&#x2dc;" horiz-adv-x="342" 
d="M257 588q-32 0 -55 7.5t-42.5 14.5t-44.5 7q-21 0 -35.5 -6t-25.5 -12t-21 -6q-13 0 -20 8t-10 18.5t-3 15.5q0 23 10 36.5t24.5 20.5t29 9t22.5 2q30 0 51 -7t42.5 -14.5t48.5 -7.5q21 0 35 6t25 12t21 6q14 0 20.5 -8.5t9.5 -18.5t3 -15q0 -24 -10 -37t-24 -20
t-28.5 -9t-22.5 -2z" />
    <glyph glyph-name="uni030B" unicode="&#x2dd;" horiz-adv-x="0" 
d="M197 566q-15 0 -27.5 12.5t-12.5 25.5q0 9 7 16l84 88q5 5 9.5 6.5t9.5 1.5q14 0 26 -12.5t12 -25.5q0 -9 -7 -17l-82 -86q-7 -9 -19 -9zM40 566q-15 0 -27.5 12.5t-12.5 25.5q0 9 7 16l84 88q5 5 9.5 6.5t9.5 1.5q14 0 26 -12.5t12 -25.5q0 -9 -7 -17l-82 -86
q-8 -9 -19 -9z" />
    <glyph glyph-name="gravecomb" unicode="&#x300;" horiz-adv-x="0" 
d="M162 568q-4 0 -7 1.5t-7 2.5l-130 63q-18 9 -18 30q0 17 11.5 33t28.5 16q6 0 13 -2l132 -64q17 -9 17 -31q0 -16 -11.5 -32.5t-28.5 -16.5z" />
    <glyph glyph-name="acutecomb" unicode="&#x301;" horiz-adv-x="0" 
d="M40 568q-16 0 -28 16.5t-12 32.5q0 22 17 31l132 64q7 2 13 2q17 0 28.5 -16t11.5 -33q0 -21 -18 -30l-130 -63q-4 -1 -7 -2.5t-7 -1.5z" />
    <glyph glyph-name="uni0302" unicode="&#x302;" horiz-adv-x="0" 
d="M28 576q-12 0 -20 12.5t-8 27.5q0 11 5 21t17 16l104 56q9 5 17 5q7 0 17 -5l104 -55q12 -6 16.5 -16.5t4.5 -22.5q0 -14 -7.5 -26.5t-20.5 -12.5q-2 0 -5 1t-5 2l-104 56l-104 -56l-6 -2t-5 -1z" />
    <glyph glyph-name="tildecomb" unicode="&#x303;" horiz-adv-x="0" 
d="M257 588q-32 0 -55 7.5t-42.5 14.5t-44.5 7q-21 0 -35.5 -6t-25.5 -12t-21 -6q-13 0 -20 8t-10 18.5t-3 15.5q0 23 10 36.5t24.5 20.5t29 9t22.5 2q30 0 51 -7t42.5 -14.5t48.5 -7.5q21 0 35 6t25 12t21 6q14 0 20.5 -8.5t9.5 -18.5t3 -15q0 -24 -10 -37t-24 -20
t-28.5 -9t-22.5 -2z" />
    <glyph glyph-name="uni0306" unicode="&#x306;" horiz-adv-x="0" 
d="M133 588q-44 0 -81.5 30.5t-48.5 73.5q-3 14 4.5 21.5t21.5 7.5h16q12 0 18.5 -6.5t10.5 -17.5q6 -23 23.5 -37t35.5 -14q20 0 36 14t23 37q4 11 10.5 17.5t18.5 6.5h16q13 0 21 -8t4 -22q-11 -42 -48 -72.5t-81 -30.5z" />
    <glyph glyph-name="uni0307" unicode="&#x307;" horiz-adv-x="0" 
d="M100 578q-21 0 -36.5 16t-15.5 37t15.5 37t36.5 16t36 -16t15 -37t-15 -37t-36 -16z" />
    <glyph glyph-name="uni0308" unicode="&#x308;" horiz-adv-x="0" 
d="M201 577q-21 0 -36.5 16t-15.5 37t15.5 36.5t36.5 15.5q20 0 35 -15.5t15 -36.5t-15 -37t-35 -16zM51 577q-21 0 -36 16t-15 37t15 36.5t36 15.5t35.5 -15.5t14.5 -36.5t-14.5 -37t-35.5 -16z" />
    <glyph glyph-name="hookabovecomb" unicode="&#x309;" horiz-adv-x="0" 
d="M108 693q14 12 30.5 19.5t39.5 7.5q36 0 54.5 -12.5t26 -30t7.5 -33.5q0 -15 -5 -27t-16 -24q-8 -9 -13.5 -16.5t-5.5 -14.5q0 -10 -8 -16.5t-20 -6.5q-10 0 -18.5 6.5t-8.5 16.5q0 9 4 17.5t10 18.5q9 11 16 21t7 18q0 12 -9.5 19t-22.5 7q-12 0 -21.5 -5t-17.5 -11
q-7 -5 -16 -5.5t-19 10.5q-11 10 -7 22t13 19z" />
    <glyph glyph-name="uni030C" unicode="&#x30c;" horiz-adv-x="0" 
d="M145 583q-8 0 -18 6l-103 66q-11 7 -16.5 16.5t-5.5 21.5q0 14 8 26.5t20 12.5q6 0 12 -4l103 -66l102 66q7 4 12 4q13 0 20.5 -12.5t7.5 -26.5q0 -12 -4.5 -21.5t-16.5 -16.5l-103 -66q-11 -6 -18 -6z" />
    <glyph glyph-name="uni0312" unicode="&#x312;" horiz-adv-x="0" 
d="M189 568q-16 0 -28 16.5t-12 32.5q0 22 18 31l131 64q7 2 13 2q17 0 28.5 -16t11.5 -33q0 -21 -18 -30l-130 -63q-4 -1 -7 -2.5t-7 -1.5z" />
    <glyph glyph-name="uni031B" unicode="&#x31b;" horiz-adv-x="0" 
d="M100 391v85q41 0 64.5 15.5t23.5 47.5q0 17 11 32.5t32 15.5q25 0 34 -16.5t9 -31.5q0 -40 -17.5 -74t-55.5 -54t-101 -20z" />
    <glyph glyph-name="dotbelowcomb" unicode="&#x323;" horiz-adv-x="0" 
d="M96 -132q-29 0 -48.5 20.5t-19.5 47.5q0 28 19.5 48t48.5 20q27 0 47 -20t20 -48q0 -27 -20 -47.5t-47 -20.5z" />
    <glyph glyph-name="uni0326" unicode="&#x326;" horiz-adv-x="0" 
d="M57 -194q-16 0 -28 16.5t-12 32.5q0 22 17 30l132 64q7 3 13 3q17 0 28.5 -16t11.5 -33q0 -22 -18 -31l-130 -62q-4 -1 -7 -2.5t-7 -1.5z" />
    <glyph glyph-name="uni0327" unicode="&#x327;" horiz-adv-x="0" 
d="M85 -216q-17 0 -36.5 3t-34 10t-14.5 16q0 4 2.5 12.5t7.5 16.5t13 8t20.5 -7t37.5 -7q22 0 34.5 8.5t12.5 24.5q0 15 -11.5 25t-36.5 12l-55 5l28 98h57l-19 -60q51 -2 75 -24t24 -53q0 -17 -9.5 -38t-32.5 -35.5t-63 -14.5z" />
    <glyph glyph-name="uni0328" unicode="&#x328;" horiz-adv-x="0" 
d="M117 -213q-39 0 -64.5 11.5t-39 32t-13.5 46.5q0 41 25.5 82t68.5 67l47 -19q-33 -21 -55.5 -54t-22.5 -64q0 -22 14.5 -34.5t45.5 -12.5q12 0 17.5 -9.5t5.5 -19.5q0 -11 -5.5 -18.5t-23.5 -7.5z" />
    <glyph glyph-name="uni0335" unicode="&#x335;" horiz-adv-x="0" 
d="M76 187q-18 0 -29.5 15t-11.5 38t11.5 38.5t29.5 15.5h260q15 0 28 -15.5t13 -38.5t-13 -38t-28 -15h-260z" />
    <glyph glyph-name="pi" unicode="&#x3c0;" horiz-adv-x="541" 
d="M115 0q-24 0 -44.5 9.5t-20.5 30.5v394q0 20 18 30.5t39 10.5h326q23 0 40.5 -10.5t17.5 -30.5v-394q0 -21 -20.5 -30.5t-44.5 -9.5q-25 0 -45 9.5t-20 30.5v321h-181v-321q0 -21 -20.5 -30.5t-44.5 -9.5z" />
    <glyph glyph-name="Wgrave" unicode="&#x1e80;" horiz-adv-x="881" 
d="M293 -6q-28 0 -53 11t-32 33l-198 629q-2 6 -2 12q0 15 13 26.5t32.5 18.5t37.5 7q15 0 27.5 -6t15.5 -20l158 -542l85 348q5 18 23.5 27t39.5 9q23 0 41.5 -9t22.5 -27l85 -348l158 542q4 14 16 20t27 6q19 0 38 -7t32 -18.5t13 -26.5q0 -6 -2 -12l-198 -629
q-8 -22 -32 -33t-53 -11q-28 0 -53 11t-30 33l-65 270l-64 -270q-5 -22 -30 -33t-53 -11zM481 811q-4 0 -7 1.5t-7 2.5l-130 63q-18 9 -18 30q0 17 11.5 33t28.5 16q6 0 13 -2l132 -64q17 -9 17 -31q0 -16 -11.5 -32.5t-28.5 -16.5z" />
    <glyph glyph-name="wgrave" unicode="&#x1e81;" horiz-adv-x="692" 
d="M215 -11q-17 0 -31 5t-19 19l-155 395q-2 7 -3 11.5t-1 7.5q0 16 13.5 27.5t33.5 18.5t36 7q13 0 23.5 -5t14.5 -16l100 -284l75 247q5 17 17 21.5t27 4.5t27 -4.5t17 -21.5l74 -248l101 285q7 21 36 21q16 0 36 -7t34 -19t14 -28q0 -4 -1 -9t-3 -9l-155 -396
q-5 -13 -19 -18t-31 -5q-18 0 -33 6t-20 17l-77 218l-77 -217q-3 -12 -19 -18t-35 -6zM386 555q-4 0 -7 1.5t-7 2.5l-130 63q-18 9 -18 30q0 17 11.5 33t28.5 16q6 0 13 -2l132 -64q17 -9 17 -31q0 -16 -11.5 -32.5t-28.5 -16.5z" />
    <glyph glyph-name="Wacute" unicode="&#x1e82;" horiz-adv-x="881" 
d="M293 -6q-28 0 -53 11t-32 33l-198 629q-2 6 -2 12q0 15 13 26.5t32.5 18.5t37.5 7q15 0 27.5 -6t15.5 -20l158 -542l85 348q5 18 23.5 27t39.5 9q23 0 41.5 -9t22.5 -27l85 -348l158 542q4 14 16 20t27 6q19 0 38 -7t32 -18.5t13 -26.5q0 -6 -2 -12l-198 -629
q-8 -22 -32 -33t-53 -11q-28 0 -53 11t-30 33l-65 270l-64 -270q-5 -22 -30 -33t-53 -11zM406 811q-16 0 -28 16.5t-12 32.5q0 22 17 31l132 64q7 2 13 2q17 0 28.5 -16t11.5 -33q0 -21 -18 -30l-130 -63q-4 -1 -7 -2.5t-7 -1.5z" />
    <glyph glyph-name="wacute" unicode="&#x1e83;" horiz-adv-x="692" 
d="M215 -11q-17 0 -31 5t-19 19l-155 395q-2 7 -3 11.5t-1 7.5q0 16 13.5 27.5t33.5 18.5t36 7q13 0 23.5 -5t14.5 -16l100 -284l75 247q5 17 17 21.5t27 4.5t27 -4.5t17 -21.5l74 -248l101 285q7 21 36 21q16 0 36 -7t34 -19t14 -28q0 -4 -1 -9t-3 -9l-155 -396
q-5 -13 -19 -18t-31 -5q-18 0 -33 6t-20 17l-77 218l-77 -217q-3 -12 -19 -18t-35 -6zM312 555q-16 0 -28 16.5t-12 32.5q0 22 17 31l132 64q7 2 13 2q17 0 28.5 -16t11.5 -33q0 -21 -18 -30l-130 -63q-4 -1 -7 -2.5t-7 -1.5z" />
    <glyph glyph-name="Wdieresis" unicode="&#x1e84;" horiz-adv-x="881" 
d="M293 -6q-28 0 -53 11t-32 33l-198 629q-2 6 -2 12q0 15 13 26.5t32.5 18.5t37.5 7q15 0 27.5 -6t15.5 -20l158 -542l85 348q5 18 23.5 27t39.5 9q23 0 41.5 -9t22.5 -27l85 -348l158 542q4 14 16 20t27 6q19 0 38 -7t32 -18.5t13 -26.5q0 -6 -2 -12l-198 -629
q-8 -22 -32 -33t-53 -11q-28 0 -53 11t-30 33l-65 270l-64 -270q-5 -22 -30 -33t-53 -11zM515 820q-21 0 -36.5 16t-15.5 37t15.5 36.5t36.5 15.5q20 0 35 -15.5t15 -36.5t-15 -37t-35 -16zM365 820q-21 0 -36 16t-15 37t15 36.5t36 15.5t35.5 -15.5t14.5 -36.5t-14.5 -37
t-35.5 -16z" />
    <glyph glyph-name="wdieresis" unicode="&#x1e85;" horiz-adv-x="692" 
d="M215 -11q-17 0 -31 5t-19 19l-155 395q-2 7 -3 11.5t-1 7.5q0 16 13.5 27.5t33.5 18.5t36 7q13 0 23.5 -5t14.5 -16l100 -284l75 247q5 17 17 21.5t27 4.5t27 -4.5t17 -21.5l74 -248l101 285q7 21 36 21q16 0 36 -7t34 -19t14 -28q0 -4 -1 -9t-3 -9l-155 -396
q-5 -13 -19 -18t-31 -5q-18 0 -33 6t-20 17l-77 218l-77 -217q-3 -12 -19 -18t-35 -6zM420 564q-21 0 -36.5 16t-15.5 37t15.5 36.5t36.5 15.5q20 0 35 -15.5t15 -36.5t-15 -37t-35 -16zM270 564q-21 0 -36 16t-15 37t15 36.5t36 15.5t35.5 -15.5t14.5 -36.5t-14.5 -37
t-35.5 -16z" />
    <glyph glyph-name="uni1EA0" unicode="&#x1ea0;" horiz-adv-x="521" 
d="M91 0q-18 0 -37 7t-32 19t-13 28q0 3 1 10l193 629q7 22 31.5 33t52.5 11q29 0 53 -11t31 -33l193 -629q2 -7 2 -10q0 -15 -13.5 -27.5t-32.5 -19.5t-37 -7q-16 0 -27.5 5.5t-15.5 20.5l-38 133h-230l-37 -133q-4 -15 -16 -20.5t-28 -5.5zM200 261h174l-87 307zM276 -132
q-29 0 -48.5 20.5t-19.5 47.5q0 28 19.5 48t48.5 20q27 0 47 -20t20 -48q0 -27 -20 -47.5t-47 -20.5z" />
    <glyph glyph-name="uni1EA1" unicode="&#x1ea1;" horiz-adv-x="423" 
d="M152 -9q-53 0 -91.5 32.5t-38.5 100.5q0 57 29.5 89t82 45t121.5 13h41v13q0 22 -8.5 43t-27 35t-52.5 14q-38 0 -58.5 -7.5t-31.5 -15.5t-24 -8q-21 0 -32.5 21t-11.5 43q0 21 25.5 37.5t62.5 25.5t72 9q78 0 125 -28t68.5 -72t21.5 -95v-245q0 -17 -18 -29t-45 -12
q-25 0 -41.5 12t-16.5 29v29q-27 -31 -63.5 -55t-88.5 -24zM204 87q21 0 42 14t35.5 36t14.5 46v21h-15q-33 0 -63 -4t-48.5 -17.5t-18.5 -41.5t15.5 -41t37.5 -13zM227 -132q-29 0 -48.5 20.5t-19.5 47.5q0 28 19.5 48t48.5 20q27 0 47 -20t20 -48q0 -27 -20 -47.5
t-47 -20.5z" />
    <glyph glyph-name="uni1EA2" unicode="&#x1ea2;" 
d="M91 0q-18 0 -37 7t-32 19t-13 28q0 3 1 10l193 629q7 22 31.5 33t52.5 11q29 0 53 -11t31 -33l193 -629q2 -7 2 -10q0 -15 -13.5 -27.5t-32.5 -19.5t-37 -7q-16 0 -27.5 5.5t-15.5 20.5l-38 133h-230l-37 -133q-4 -15 -16 -20.5t-28 -5.5zM200 261h174l-87 307zM203 949
q14 12 30.5 19.5t39.5 7.5q36 0 54.5 -12.5t26 -30t7.5 -33.5q0 -15 -5 -27t-16 -24q-8 -9 -13.5 -16.5t-5.5 -14.5q0 -10 -8 -16.5t-20 -6.5q-10 0 -18.5 6.5t-8.5 16.5q0 9 4 17.5t10 18.5q9 11 16 21t7 18q0 12 -9.5 19t-22.5 7q-12 0 -21.5 -5t-17.5 -11q-7 -5 -16 -5.5
t-19 10.5q-11 10 -7 22t13 19z" />
    <glyph glyph-name="uni1EA3" unicode="&#x1ea3;" horiz-adv-x="471" 
d="M152 -9q-53 0 -91.5 32.5t-38.5 100.5q0 57 29.5 89t82 45t121.5 13h41v13q0 22 -8.5 43t-27 35t-52.5 14q-38 0 -58.5 -7.5t-31.5 -15.5t-24 -8q-21 0 -32.5 21t-11.5 43q0 21 25.5 37.5t62.5 25.5t72 9q78 0 125 -28t68.5 -72t21.5 -95v-245q0 -17 -18 -29t-45 -12
q-25 0 -41.5 12t-16.5 29v29q-27 -31 -63.5 -55t-88.5 -24zM204 87q21 0 42 14t35.5 36t14.5 46v21h-15q-33 0 -63 -4t-48.5 -17.5t-18.5 -41.5t15.5 -41t37.5 -13zM136 702q14 12 30.5 19.5t39.5 7.5q36 0 54.5 -12.5t26 -30t7.5 -33.5q0 -15 -5 -27t-16 -24
q-8 -9 -13.5 -16.5t-5.5 -14.5q0 -10 -8 -16.5t-20 -6.5q-10 0 -18.5 6.5t-8.5 16.5q0 9 4 17.5t10 18.5q9 11 16 21t7 18q0 12 -9.5 19t-22.5 7q-12 0 -21.5 -5t-17.5 -11q-7 -5 -16 -5.5t-19 10.5q-11 10 -7 22t13 19z" />
    <glyph glyph-name="uni1EA4" unicode="&#x1ea4;" horiz-adv-x="521" 
d="M91 0q-18 0 -37 7t-32 19t-13 28q0 3 1 10l193 629q7 22 31.5 33t52.5 11q29 0 53 -11t31 -33l193 -629q2 -7 2 -10q0 -15 -13.5 -27.5t-32.5 -19.5t-37 -7q-16 0 -27.5 5.5t-15.5 20.5l-38 133h-230l-37 -133q-4 -15 -16 -20.5t-28 -5.5zM200 261h174l-87 307zM181 788
q-11 0 -19.5 12.5t-8.5 27.5q0 23 22 37l82 56q8 5 17 5t17 -5l81 -55q22 -15 22 -39q0 -14 -8 -26.5t-20 -12.5q-2 0 -5 1l-6 2l-81 56l-82 -56l-6 -2t-5 -1zM238 889q-16 0 -28 16.5t-12 32.5q0 22 17 31l132 64q7 2 13 2q17 0 28.5 -16t11.5 -33q0 -21 -18 -30l-130 -63
q-4 -1 -7 -2.5t-7 -1.5z" />
    <glyph glyph-name="uni1EA5" unicode="&#x1ea5;" horiz-adv-x="423" 
d="M152 -9q-53 0 -91.5 32.5t-38.5 100.5q0 57 29.5 89t82 45t121.5 13h41v13q0 22 -8.5 43t-27 35t-52.5 14q-38 0 -58.5 -7.5t-31.5 -15.5t-24 -8q-21 0 -32.5 21t-11.5 43q0 21 25.5 37.5t62.5 25.5t72 9q78 0 125 -28t68.5 -72t21.5 -95v-245q0 -17 -18 -29t-45 -12
q-25 0 -41.5 12t-16.5 29v29q-27 -31 -63.5 -55t-88.5 -24zM204 87q21 0 42 14t35.5 36t14.5 46v21h-15q-33 0 -63 -4t-48.5 -17.5t-18.5 -41.5t15.5 -41t37.5 -13zM132 529q-11 0 -19.5 12.5t-8.5 27.5q0 23 22 37l82 56q8 5 17 5t17 -5l81 -55q22 -15 22 -39
q0 -14 -8 -26.5t-20 -12.5q-2 0 -5 1l-6 2l-81 56l-82 -56l-6 -2t-5 -1zM189 630q-16 0 -28 16.5t-12 32.5q0 22 17 31l132 64q7 2 13 2q17 0 28.5 -16t11.5 -33q0 -21 -18 -30l-130 -63q-4 -1 -7 -2.5t-7 -1.5z" />
    <glyph glyph-name="uni1EA6" unicode="&#x1ea6;" horiz-adv-x="521" 
d="M91 0q-18 0 -37 7t-32 19t-13 28q0 3 1 10l193 629q7 22 31.5 33t52.5 11q29 0 53 -11t31 -33l193 -629q2 -7 2 -10q0 -15 -13.5 -27.5t-32.5 -19.5t-37 -7q-16 0 -27.5 5.5t-15.5 20.5l-38 133h-230l-37 -133q-4 -15 -16 -20.5t-28 -5.5zM200 261h174l-87 307zM181 790
q-11 0 -19.5 12.5t-8.5 27.5q0 23 22 37l82 56q8 5 17 5t17 -5l81 -55q22 -15 22 -39q0 -14 -8 -26.5t-20 -12.5q-2 0 -5 1l-6 2l-81 56l-82 -56l-6 -2t-5 -1zM367 887q-4 0 -7 1.5t-7 2.5l-130 63q-18 9 -18 30q0 17 11.5 33t28.5 16q6 0 13 -2l132 -64q17 -9 17 -31
q0 -16 -11.5 -32.5t-28.5 -16.5z" />
    <glyph glyph-name="uni1EA7" unicode="&#x1ea7;" horiz-adv-x="423" 
d="M152 -9q-53 0 -91.5 32.5t-38.5 100.5q0 57 29.5 89t82 45t121.5 13h41v13q0 22 -8.5 43t-27 35t-52.5 14q-38 0 -58.5 -7.5t-31.5 -15.5t-24 -8q-21 0 -32.5 21t-11.5 43q0 21 25.5 37.5t62.5 25.5t72 9q78 0 125 -28t68.5 -72t21.5 -95v-245q0 -17 -18 -29t-45 -12
q-25 0 -41.5 12t-16.5 29v29q-27 -31 -63.5 -55t-88.5 -24zM204 87q21 0 42 14t35.5 36t14.5 46v21h-15q-33 0 -63 -4t-48.5 -17.5t-18.5 -41.5t15.5 -41t37.5 -13zM132 531q-11 0 -19.5 12.5t-8.5 27.5q0 23 22 37l82 56q8 5 17 5t17 -5l81 -55q22 -15 22 -39
q0 -14 -8 -26.5t-20 -12.5q-2 0 -5 1l-6 2l-81 56l-82 -56l-6 -2t-5 -1zM318 628q-4 0 -7 1.5t-7 2.5l-130 63q-18 9 -18 30q0 17 11.5 33t28.5 16q6 0 13 -2l132 -64q17 -9 17 -31q0 -16 -11.5 -32.5t-28.5 -16.5z" />
    <glyph glyph-name="uni1EA8" unicode="&#x1ea8;" 
d="M91 0q-18 0 -37 7t-32 19t-13 28q0 3 1 10l193 629q7 22 31.5 33t52.5 11q29 0 53 -11t31 -33l193 -629q2 -7 2 -10q0 -15 -13.5 -27.5t-32.5 -19.5t-37 -7q-16 0 -27.5 5.5t-15.5 20.5l-38 133h-230l-37 -133q-4 -15 -16 -20.5t-28 -5.5zM200 261h174l-87 307zM195 798
q-11 0 -19.5 12.5t-8.5 27.5q0 23 22 37l82 56q8 5 17 5t17 -5l81 -55q22 -15 22 -39q0 -14 -8 -26.5t-20 -12.5q-2 0 -5 1l-6 2l-81 56l-82 -56l-6 -2t-5 -1zM331 1047q14 12 30.5 19.5t39.5 7.5q36 0 54.5 -12.5t26 -30t7.5 -33.5q0 -15 -5 -27t-16 -24q-8 -9 -13.5 -16.5
t-5.5 -14.5q0 -10 -8 -16.5t-20 -6.5q-10 0 -18.5 6.5t-8.5 16.5q0 9 4 17.5t10 18.5q9 11 16 21t7 18q0 12 -9.5 19t-22.5 7q-12 0 -21.5 -5t-17.5 -11q-7 -5 -16 -5.5t-19 10.5q-11 10 -7 22t13 19z" />
    <glyph glyph-name="uni1EA9" unicode="&#x1ea9;" horiz-adv-x="471" 
d="M152 -9q-53 0 -91.5 32.5t-38.5 100.5q0 57 29.5 89t82 45t121.5 13h41v13q0 22 -8.5 43t-27 35t-52.5 14q-38 0 -58.5 -7.5t-31.5 -15.5t-24 -8q-21 0 -32.5 21t-11.5 43q0 21 25.5 37.5t62.5 25.5t72 9q78 0 125 -28t68.5 -72t21.5 -95v-245q0 -17 -18 -29t-45 -12
q-25 0 -41.5 12t-16.5 29v29q-27 -31 -63.5 -55t-88.5 -24zM204 87q21 0 42 14t35.5 36t14.5 46v21h-15q-33 0 -63 -4t-48.5 -17.5t-18.5 -41.5t15.5 -41t37.5 -13zM128 550q-11 0 -19.5 12.5t-8.5 27.5q0 23 22 37l82 56q8 5 17 5t17 -5l81 -55q22 -15 22 -39
q0 -14 -8 -26.5t-20 -12.5q-2 0 -5 1l-6 2l-81 56l-82 -56l-6 -2t-5 -1zM264 800q14 12 30.5 19.5t39.5 7.5q36 0 54.5 -12.5t26 -30t7.5 -33.5q0 -15 -5 -27t-16 -24q-8 -9 -13.5 -16.5t-5.5 -14.5q0 -10 -8 -16.5t-20 -6.5q-10 0 -18.5 6.5t-8.5 16.5q0 9 4 17.5t10 18.5
q9 11 16 21t7 18q0 12 -9.5 19t-22.5 7q-12 0 -21.5 -5t-17.5 -11q-7 -5 -16 -5.5t-19 10.5q-11 10 -7 22t13 19z" />
    <glyph glyph-name="uni1EAA" unicode="&#x1eaa;" horiz-adv-x="521" 
d="M91 0q-18 0 -37 7t-32 19t-13 28q0 3 1 10l193 629q7 22 31.5 33t52.5 11q29 0 53 -11t31 -33l193 -629q2 -7 2 -10q0 -15 -13.5 -27.5t-32.5 -19.5t-37 -7q-16 0 -27.5 5.5t-15.5 20.5l-38 133h-230l-37 -133q-4 -15 -16 -20.5t-28 -5.5zM200 261h174l-87 307zM181 788
q-11 0 -19.5 12.5t-8.5 27.5q0 23 22 37l82 56q8 5 17 5t17 -5l81 -55q22 -15 22 -39q0 -14 -8 -26.5t-20 -12.5q-2 0 -5 1l-6 2l-81 56l-82 -56l-6 -2t-5 -1zM370 884q-32 0 -55 7.5t-42.5 14.5t-44.5 7q-21 0 -35.5 -6t-25.5 -12t-21 -6q-13 0 -20 8t-10 18.5t-3 15.5
q0 23 10 36.5t24.5 20.5t29 9t22.5 2q30 0 51 -7t42.5 -14.5t48.5 -7.5q21 0 35 6t25 12t21 6q14 0 20.5 -8.5t9.5 -18.5t3 -15q0 -24 -10 -37t-24 -20t-28.5 -9t-22.5 -2z" />
    <glyph glyph-name="uni1EAB" unicode="&#x1eab;" horiz-adv-x="423" 
d="M152 -9q-53 0 -91.5 32.5t-38.5 100.5q0 57 29.5 89t82 45t121.5 13h41v13q0 22 -8.5 43t-27 35t-52.5 14q-38 0 -58.5 -7.5t-31.5 -15.5t-24 -8q-21 0 -32.5 21t-11.5 43q0 21 25.5 37.5t62.5 25.5t72 9q78 0 125 -28t68.5 -72t21.5 -95v-245q0 -17 -18 -29t-45 -12
q-25 0 -41.5 12t-16.5 29v29q-27 -31 -63.5 -55t-88.5 -24zM204 87q21 0 42 14t35.5 36t14.5 46v21h-15q-33 0 -63 -4t-48.5 -17.5t-18.5 -41.5t15.5 -41t37.5 -13zM132 529q-11 0 -19.5 12.5t-8.5 27.5q0 23 22 37l82 56q8 5 17 5t17 -5l81 -55q22 -15 22 -39
q0 -14 -8 -26.5t-20 -12.5q-2 0 -5 1l-6 2l-81 56l-82 -56l-6 -2t-5 -1zM321 625q-32 0 -55 7.5t-42.5 14.5t-44.5 7q-21 0 -35.5 -6t-25.5 -12t-21 -6q-13 0 -20 8t-10 18.5t-3 15.5q0 23 10 36.5t24.5 20.5t29 9t22.5 2q30 0 51 -7t42.5 -14.5t48.5 -7.5q21 0 35 6t25 12
t21 6q14 0 20.5 -8.5t9.5 -18.5t3 -15q0 -24 -10 -37t-24 -20t-28.5 -9t-22.5 -2z" />
    <glyph glyph-name="uni1EAC" unicode="&#x1eac;" horiz-adv-x="521" 
d="M91 0q-18 0 -37 7t-32 19t-13 28q0 3 1 10l193 629q7 22 31.5 33t52.5 11q29 0 53 -11t31 -33l193 -629q2 -7 2 -10q0 -15 -13.5 -27.5t-32.5 -19.5t-37 -7q-16 0 -27.5 5.5t-15.5 20.5l-38 133h-230l-37 -133q-4 -15 -16 -20.5t-28 -5.5zM200 261h174l-87 307zM276 -132
q-29 0 -48.5 20.5t-19.5 47.5q0 28 19.5 48t48.5 20q27 0 47 -20t20 -48q0 -27 -20 -47.5t-47 -20.5zM159 835q-12 0 -20 12.5t-8 27.5q0 11 5 21t17 16l104 56q9 5 17 5q7 0 17 -5l104 -55q12 -6 16.5 -16.5t4.5 -22.5q0 -14 -7.5 -26.5t-20.5 -12.5q-2 0 -5 1t-5 2
l-104 56l-104 -56l-6 -2t-5 -1z" />
    <glyph glyph-name="uni1EAD" unicode="&#x1ead;" horiz-adv-x="423" 
d="M152 -9q-53 0 -91.5 32.5t-38.5 100.5q0 57 29.5 89t82 45t121.5 13h41v13q0 22 -8.5 43t-27 35t-52.5 14q-38 0 -58.5 -7.5t-31.5 -15.5t-24 -8q-21 0 -32.5 21t-11.5 43q0 21 25.5 37.5t62.5 25.5t72 9q78 0 125 -28t68.5 -72t21.5 -95v-245q0 -17 -18 -29t-45 -12
q-25 0 -41.5 12t-16.5 29v29q-27 -31 -63.5 -55t-88.5 -24zM204 87q21 0 42 14t35.5 36t14.5 46v21h-15q-33 0 -63 -4t-48.5 -17.5t-18.5 -41.5t15.5 -41t37.5 -13zM227 -132q-29 0 -48.5 20.5t-19.5 47.5q0 28 19.5 48t48.5 20q27 0 47 -20t20 -48q0 -27 -20 -47.5
t-47 -20.5zM110 576q-12 0 -20 12.5t-8 27.5q0 11 5 21t17 16l104 56q9 5 17 5q7 0 17 -5l104 -55q12 -6 16.5 -16.5t4.5 -22.5q0 -14 -7.5 -26.5t-20.5 -12.5q-2 0 -5 1t-5 2l-104 56l-104 -56l-6 -2t-5 -1z" />
    <glyph glyph-name="uni1EAE" unicode="&#x1eae;" 
d="M91 0q-18 0 -37 7t-32 19t-13 28q0 3 1 10l193 629q7 22 31.5 33t52.5 11q29 0 53 -11t31 -33l193 -629q2 -7 2 -10q0 -15 -13.5 -27.5t-32.5 -19.5t-37 -7q-16 0 -27.5 5.5t-15.5 20.5l-38 133h-230l-37 -133q-4 -15 -16 -20.5t-28 -5.5zM200 261h174l-87 307zM287 796
q-44 0 -81.5 30.5t-48.5 73.5q-3 14 4.5 21.5t21.5 7.5h16q12 0 18.5 -6.5t10.5 -17.5q6 -23 23.5 -37t35.5 -14q20 0 36 14t23 37q4 11 10.5 17.5t18.5 6.5h16q13 0 21 -8t4 -22q-11 -42 -48 -72.5t-81 -30.5zM267 962q-16 0 -28 16.5t-12 32.5q0 22 17 31l132 64q7 2 13 2
q17 0 28.5 -16t11.5 -33q0 -21 -18 -30l-130 -63q-4 -1 -7 -2.5t-7 -1.5z" />
    <glyph glyph-name="uni1EAF" unicode="&#x1eaf;" horiz-adv-x="471" 
d="M152 -9q-53 0 -91.5 32.5t-38.5 100.5q0 57 29.5 89t82 45t121.5 13h41v13q0 22 -8.5 43t-27 35t-52.5 14q-38 0 -58.5 -7.5t-31.5 -15.5t-24 -8q-21 0 -32.5 21t-11.5 43q0 21 25.5 37.5t62.5 25.5t72 9q78 0 125 -28t68.5 -72t21.5 -95v-245q0 -17 -18 -29t-45 -12
q-25 0 -41.5 12t-16.5 29v29q-27 -31 -63.5 -55t-88.5 -24zM204 87q21 0 42 14t35.5 36t14.5 46v21h-15q-33 0 -63 -4t-48.5 -17.5t-18.5 -41.5t15.5 -41t37.5 -13zM220 549q-44 0 -81.5 30.5t-48.5 73.5q-3 14 4.5 21.5t21.5 7.5h16q12 0 18.5 -6.5t10.5 -17.5
q6 -23 23.5 -37t35.5 -14q20 0 36 14t23 37q4 11 10.5 17.5t18.5 6.5h16q13 0 21 -8t4 -22q-11 -42 -48 -72.5t-81 -30.5zM200 715q-16 0 -28 16.5t-12 32.5q0 22 17 31l132 64q7 2 13 2q17 0 28.5 -16t11.5 -33q0 -21 -18 -30l-130 -63q-4 -1 -7 -2.5t-7 -1.5z" />
    <glyph glyph-name="uni1EB0" unicode="&#x1eb0;" 
d="M91 0q-18 0 -37 7t-32 19t-13 28q0 3 1 10l193 629q7 22 31.5 33t52.5 11q29 0 53 -11t31 -33l193 -629q2 -7 2 -10q0 -15 -13.5 -27.5t-32.5 -19.5t-37 -7q-16 0 -27.5 5.5t-15.5 20.5l-38 133h-230l-37 -133q-4 -15 -16 -20.5t-28 -5.5zM200 261h174l-87 307zM283 797
q-44 0 -81.5 30.5t-48.5 73.5q-3 14 4.5 21.5t21.5 7.5h16q12 0 18.5 -6.5t10.5 -17.5q6 -23 23.5 -37t35.5 -14q20 0 36 14t23 37q4 11 10.5 17.5t18.5 6.5h16q13 0 21 -8t4 -22q-11 -42 -48 -72.5t-81 -30.5zM288 947q-4 0 -7 1.5t-7 2.5l-130 63q-18 9 -18 30
q0 17 11.5 33t28.5 16q6 0 13 -2l132 -64q17 -9 17 -31q0 -16 -11.5 -32.5t-28.5 -16.5z" />
    <glyph glyph-name="uni1EB1" unicode="&#x1eb1;" horiz-adv-x="471" 
d="M152 -9q-53 0 -91.5 32.5t-38.5 100.5q0 57 29.5 89t82 45t121.5 13h41v13q0 22 -8.5 43t-27 35t-52.5 14q-38 0 -58.5 -7.5t-31.5 -15.5t-24 -8q-21 0 -32.5 21t-11.5 43q0 21 25.5 37.5t62.5 25.5t72 9q78 0 125 -28t68.5 -72t21.5 -95v-245q0 -17 -18 -29t-45 -12
q-25 0 -41.5 12t-16.5 29v29q-27 -31 -63.5 -55t-88.5 -24zM204 87q21 0 42 14t35.5 36t14.5 46v21h-15q-33 0 -63 -4t-48.5 -17.5t-18.5 -41.5t15.5 -41t37.5 -13zM216 550q-44 0 -81.5 30.5t-48.5 73.5q-3 14 4.5 21.5t21.5 7.5h16q12 0 18.5 -6.5t10.5 -17.5
q6 -23 23.5 -37t35.5 -14q20 0 36 14t23 37q4 11 10.5 17.5t18.5 6.5h16q13 0 21 -8t4 -22q-11 -42 -48 -72.5t-81 -30.5zM221 699q-4 0 -7 1.5t-7 2.5l-130 63q-18 9 -18 30q0 17 11.5 33t28.5 16q6 0 13 -2l132 -64q17 -9 17 -31q0 -16 -11.5 -32.5t-28.5 -16.5z" />
    <glyph glyph-name="uni1EB2" unicode="&#x1eb2;" 
d="M91 0q-18 0 -37 7t-32 19t-13 28q0 3 1 10l193 629q7 22 31.5 33t52.5 11q29 0 53 -11t31 -33l193 -629q2 -7 2 -10q0 -15 -13.5 -27.5t-32.5 -19.5t-37 -7q-16 0 -27.5 5.5t-15.5 20.5l-38 133h-230l-37 -133q-4 -15 -16 -20.5t-28 -5.5zM200 261h174l-87 307zM287 796
q-44 0 -81.5 30.5t-48.5 73.5q-3 14 4.5 21.5t21.5 7.5h16q12 0 18.5 -6.5t10.5 -17.5q6 -23 23.5 -37t35.5 -14q20 0 36 14t23 37q4 11 10.5 17.5t18.5 6.5h16q13 0 21 -8t4 -22q-11 -42 -48 -72.5t-81 -30.5zM200 1076q14 12 30.5 19.5t39.5 7.5q36 0 54.5 -12.5t26 -30
t7.5 -33.5q0 -15 -5 -27t-16 -24q-8 -9 -13.5 -16.5t-5.5 -14.5q0 -10 -8 -16.5t-20 -6.5q-10 0 -18.5 6.5t-8.5 16.5q0 9 4 17.5t10 18.5q9 11 16 21t7 18q0 12 -9.5 19t-22.5 7q-12 0 -21.5 -5t-17.5 -11q-7 -5 -16 -5.5t-19 10.5q-11 10 -7 22t13 19z" />
    <glyph glyph-name="uni1EB3" unicode="&#x1eb3;" horiz-adv-x="471" 
d="M152 -9q-53 0 -91.5 32.5t-38.5 100.5q0 57 29.5 89t82 45t121.5 13h41v13q0 22 -8.5 43t-27 35t-52.5 14q-38 0 -58.5 -7.5t-31.5 -15.5t-24 -8q-21 0 -32.5 21t-11.5 43q0 21 25.5 37.5t62.5 25.5t72 9q78 0 125 -28t68.5 -72t21.5 -95v-245q0 -17 -18 -29t-45 -12
q-25 0 -41.5 12t-16.5 29v29q-27 -31 -63.5 -55t-88.5 -24zM204 87q21 0 42 14t35.5 36t14.5 46v21h-15q-33 0 -63 -4t-48.5 -17.5t-18.5 -41.5t15.5 -41t37.5 -13zM220 549q-44 0 -81.5 30.5t-48.5 73.5q-3 14 4.5 21.5t21.5 7.5h16q12 0 18.5 -6.5t10.5 -17.5
q6 -23 23.5 -37t35.5 -14q20 0 36 14t23 37q4 11 10.5 17.5t18.5 6.5h16q13 0 21 -8t4 -22q-11 -42 -48 -72.5t-81 -30.5zM133 829q14 12 30.5 19.5t39.5 7.5q36 0 54.5 -12.5t26 -30t7.5 -33.5q0 -15 -5 -27t-16 -24q-8 -9 -13.5 -16.5t-5.5 -14.5q0 -10 -8 -16.5t-20 -6.5
q-10 0 -18.5 6.5t-8.5 16.5q0 9 4 17.5t10 18.5q9 11 16 21t7 18q0 12 -9.5 19t-22.5 7q-12 0 -21.5 -5t-17.5 -11q-7 -5 -16 -5.5t-19 10.5q-11 10 -7 22t13 19z" />
    <glyph glyph-name="uni1EB4" unicode="&#x1eb4;" horiz-adv-x="521" 
d="M91 0q-18 0 -37 7t-32 19t-13 28q0 3 1 10l193 629q7 22 31.5 33t52.5 11q29 0 53 -11t31 -33l193 -629q2 -7 2 -10q0 -15 -13.5 -27.5t-32.5 -19.5t-37 -7q-16 0 -27.5 5.5t-15.5 20.5l-38 133h-230l-37 -133q-4 -15 -16 -20.5t-28 -5.5zM200 261h174l-87 307zM285 800
q-44 0 -81.5 30.5t-48.5 73.5q-3 14 4.5 21.5t21.5 7.5h16q12 0 18.5 -6.5t10.5 -17.5q6 -23 23.5 -37t35.5 -14q20 0 36 14t23 37q4 11 10.5 17.5t18.5 6.5h16q13 0 21 -8t4 -22q-11 -42 -48 -72.5t-81 -30.5zM370 917q-32 0 -55 7.5t-42.5 14.5t-44.5 7q-21 0 -35.5 -6
t-25.5 -12t-21 -6q-13 0 -20 8t-10 18.5t-3 15.5q0 23 10 36.5t24.5 20.5t29 9t22.5 2q30 0 51 -7t42.5 -14.5t48.5 -7.5q21 0 35 6t25 12t21 6q14 0 20.5 -8.5t9.5 -18.5t3 -15q0 -24 -10 -37t-24 -20t-28.5 -9t-22.5 -2z" />
    <glyph glyph-name="uni1EB5" unicode="&#x1eb5;" horiz-adv-x="423" 
d="M152 -9q-53 0 -91.5 32.5t-38.5 100.5q0 57 29.5 89t82 45t121.5 13h41v13q0 22 -8.5 43t-27 35t-52.5 14q-38 0 -58.5 -7.5t-31.5 -15.5t-24 -8q-21 0 -32.5 21t-11.5 43q0 21 25.5 37.5t62.5 25.5t72 9q78 0 125 -28t68.5 -72t21.5 -95v-245q0 -17 -18 -29t-45 -12
q-25 0 -41.5 12t-16.5 29v29q-27 -31 -63.5 -55t-88.5 -24zM204 87q21 0 42 14t35.5 36t14.5 46v21h-15q-33 0 -63 -4t-48.5 -17.5t-18.5 -41.5t15.5 -41t37.5 -13zM236 541q-44 0 -81.5 30.5t-48.5 73.5q-3 14 4.5 21.5t21.5 7.5h16q12 0 18.5 -6.5t10.5 -17.5
q6 -23 23.5 -37t35.5 -14q20 0 36 14t23 37q4 11 10.5 17.5t18.5 6.5h16q13 0 21 -8t4 -22q-11 -42 -48 -72.5t-81 -30.5zM321 658q-32 0 -55 7.5t-42.5 14.5t-44.5 7q-21 0 -35.5 -6t-25.5 -12t-21 -6q-13 0 -20 8t-10 18.5t-3 15.5q0 23 10 36.5t24.5 20.5t29 9t22.5 2
q30 0 51 -7t42.5 -14.5t48.5 -7.5q21 0 35 6t25 12t21 6q14 0 20.5 -8.5t9.5 -18.5t3 -15q0 -24 -10 -37t-24 -20t-28.5 -9t-22.5 -2z" />
    <glyph glyph-name="uni1EB6" unicode="&#x1eb6;" horiz-adv-x="521" 
d="M91 0q-18 0 -37 7t-32 19t-13 28q0 3 1 10l193 629q7 22 31.5 33t52.5 11q29 0 53 -11t31 -33l193 -629q2 -7 2 -10q0 -15 -13.5 -27.5t-32.5 -19.5t-37 -7q-16 0 -27.5 5.5t-15.5 20.5l-38 133h-230l-37 -133q-4 -15 -16 -20.5t-28 -5.5zM200 261h174l-87 307zM276 -132
q-29 0 -48.5 20.5t-19.5 47.5q0 28 19.5 48t48.5 20q27 0 47 -20t20 -48q0 -27 -20 -47.5t-47 -20.5zM285 847q-44 0 -81.5 30.5t-48.5 73.5q-3 14 4.5 21.5t21.5 7.5h16q12 0 18.5 -6.5t10.5 -17.5q6 -23 23.5 -37t35.5 -14q20 0 36 14t23 37q4 11 10.5 17.5t18.5 6.5h16
q13 0 21 -8t4 -22q-11 -42 -48 -72.5t-81 -30.5z" />
    <glyph glyph-name="uni1EB7" unicode="&#x1eb7;" horiz-adv-x="423" 
d="M152 -9q-53 0 -91.5 32.5t-38.5 100.5q0 57 29.5 89t82 45t121.5 13h41v13q0 22 -8.5 43t-27 35t-52.5 14q-38 0 -58.5 -7.5t-31.5 -15.5t-24 -8q-21 0 -32.5 21t-11.5 43q0 21 25.5 37.5t62.5 25.5t72 9q78 0 125 -28t68.5 -72t21.5 -95v-245q0 -17 -18 -29t-45 -12
q-25 0 -41.5 12t-16.5 29v29q-27 -31 -63.5 -55t-88.5 -24zM204 87q21 0 42 14t35.5 36t14.5 46v21h-15q-33 0 -63 -4t-48.5 -17.5t-18.5 -41.5t15.5 -41t37.5 -13zM227 -132q-29 0 -48.5 20.5t-19.5 47.5q0 28 19.5 48t48.5 20q27 0 47 -20t20 -48q0 -27 -20 -47.5
t-47 -20.5zM236 588q-44 0 -81.5 30.5t-48.5 73.5q-3 14 4.5 21.5t21.5 7.5h16q12 0 18.5 -6.5t10.5 -17.5q6 -23 23.5 -37t35.5 -14q20 0 36 14t23 37q4 11 10.5 17.5t18.5 6.5h16q13 0 21 -8t4 -22q-11 -42 -48 -72.5t-81 -30.5z" />
    <glyph glyph-name="uni1EB8" unicode="&#x1eb8;" horiz-adv-x="498" 
d="M117 0q-21 0 -39 10.5t-18 30.5v649q0 20 18 30.5t39 10.5h356q22 0 31.5 -18t9.5 -38q0 -24 -10.5 -41t-30.5 -17h-283v-200h152q20 0 30.5 -15.5t10.5 -36.5q0 -17 -9.5 -33.5t-31.5 -16.5h-152v-201h283q20 0 30.5 -17t10.5 -41q0 -20 -9.5 -38t-31.5 -18h-356z
M264 -132q-29 0 -48.5 20.5t-19.5 47.5q0 28 19.5 48t48.5 20q27 0 47 -20t20 -48q0 -27 -20 -47.5t-47 -20.5z" />
    <glyph glyph-name="uni1EB9" unicode="&#x1eb9;" horiz-adv-x="445" 
d="M274 -9q-71 0 -125.5 25.5t-85.5 72t-31 107.5v85q0 54 29.5 99.5t79 73t110.5 27.5q56 0 102.5 -24t75.5 -66t29 -98q0 -43 -14 -61.5t-35.5 -23t-44.5 -4.5h-203v-15q0 -43 32.5 -69.5t84.5 -26.5q33 0 55 10t38 19t30 9q15 0 26 -10t17 -23.5t6 -23.5
q0 -17 -21.5 -36.5t-61 -33t-93.5 -13.5zM161 280h146q17 0 23.5 5.5t6.5 21.5q0 23 -12 41t-32 28t-44 10q-23 0 -43 -9.5t-32.5 -27t-12.5 -41.5v-28zM244 -132q-29 0 -48.5 20.5t-19.5 47.5q0 28 19.5 48t48.5 20q27 0 47 -20t20 -48q0 -27 -20 -47.5t-47 -20.5z" />
    <glyph glyph-name="uni1EBA" unicode="&#x1eba;" horiz-adv-x="530" 
d="M117 0q-21 0 -39 10.5t-18 30.5v649q0 20 18 30.5t39 10.5h356q22 0 31.5 -18t9.5 -38q0 -24 -10.5 -41t-30.5 -17h-283v-200h152q20 0 30.5 -15.5t10.5 -36.5q0 -17 -9.5 -33.5t-31.5 -16.5h-152v-201h283q20 0 30.5 -17t10.5 -41q0 -20 -9.5 -38t-31.5 -18h-356z
M197 949q14 12 30.5 19.5t39.5 7.5q36 0 54.5 -12.5t26 -30t7.5 -33.5q0 -15 -5 -27t-16 -24q-8 -9 -13.5 -16.5t-5.5 -14.5q0 -10 -8 -16.5t-20 -6.5q-10 0 -18.5 6.5t-8.5 16.5q0 9 4 17.5t10 18.5q9 11 16 21t7 18q0 12 -9.5 19t-22.5 7q-12 0 -21.5 -5t-17.5 -11
q-7 -5 -16 -5.5t-19 10.5q-11 10 -7 22t13 19z" />
    <glyph glyph-name="uni1EBB" unicode="&#x1ebb;" horiz-adv-x="485" 
d="M274 -9q-71 0 -125.5 25.5t-85.5 72t-31 107.5v85q0 54 29.5 99.5t79 73t110.5 27.5q56 0 102.5 -24t75.5 -66t29 -98q0 -43 -14 -61.5t-35.5 -23t-44.5 -4.5h-203v-15q0 -43 32.5 -69.5t84.5 -26.5q33 0 55 10t38 19t30 9q15 0 26 -10t17 -23.5t6 -23.5
q0 -17 -21.5 -36.5t-61 -33t-93.5 -13.5zM161 280h146q17 0 23.5 5.5t6.5 21.5q0 23 -12 41t-32 28t-44 10q-23 0 -43 -9.5t-32.5 -27t-12.5 -41.5v-28zM166 705q14 12 30.5 19.5t39.5 7.5q36 0 54.5 -12.5t26 -30t7.5 -33.5q0 -15 -5 -27t-16 -24q-8 -9 -13.5 -16.5
t-5.5 -14.5q0 -10 -8 -16.5t-20 -6.5q-10 0 -18.5 6.5t-8.5 16.5q0 9 4 17.5t10 18.5q9 11 16 21t7 18q0 12 -9.5 19t-22.5 7q-12 0 -21.5 -5t-17.5 -11q-7 -5 -16 -5.5t-19 10.5q-11 10 -7 22t13 19z" />
    <glyph glyph-name="uni1EBC" unicode="&#x1ebc;" horiz-adv-x="530" 
d="M117 0q-21 0 -39 10.5t-18 30.5v649q0 20 18 30.5t39 10.5h356q22 0 31.5 -18t9.5 -38q0 -24 -10.5 -41t-30.5 -17h-283v-200h152q20 0 30.5 -15.5t10.5 -36.5q0 -17 -9.5 -33.5t-31.5 -16.5h-152v-201h283q20 0 30.5 -17t10.5 -41q0 -20 -9.5 -38t-31.5 -18h-356z
M367 831q-32 0 -55 7.5t-42.5 14.5t-44.5 7q-21 0 -35.5 -6t-25.5 -12t-21 -6q-13 0 -20 8t-10 18.5t-3 15.5q0 23 10 36.5t24.5 20.5t29 9t22.5 2q30 0 51 -7t42.5 -14.5t48.5 -7.5q21 0 35 6t25 12t21 6q14 0 20.5 -8.5t9.5 -18.5t3 -15q0 -24 -10 -37t-24 -20t-28.5 -9
t-22.5 -2z" />
    <glyph glyph-name="uni1EBD" unicode="&#x1ebd;" horiz-adv-x="485" 
d="M274 -9q-71 0 -125.5 25.5t-85.5 72t-31 107.5v85q0 54 29.5 99.5t79 73t110.5 27.5q56 0 102.5 -24t75.5 -66t29 -98q0 -43 -14 -61.5t-35.5 -23t-44.5 -4.5h-203v-15q0 -43 32.5 -69.5t84.5 -26.5q33 0 55 10t38 19t30 9q15 0 26 -10t17 -23.5t6 -23.5
q0 -17 -21.5 -36.5t-61 -33t-93.5 -13.5zM161 280h146q17 0 23.5 5.5t6.5 21.5q0 23 -12 41t-32 28t-44 10q-23 0 -43 -9.5t-32.5 -27t-12.5 -41.5v-28zM336 586q-32 0 -55 7.5t-42.5 14.5t-44.5 7q-21 0 -35.5 -6t-25.5 -12t-21 -6q-13 0 -20 8t-10 18.5t-3 15.5
q0 23 10 36.5t24.5 20.5t29 9t22.5 2q30 0 51 -7t42.5 -14.5t48.5 -7.5q21 0 35 6t25 12t21 6q14 0 20.5 -8.5t9.5 -18.5t3 -15q0 -24 -10 -37t-24 -20t-28.5 -9t-22.5 -2z" />
    <glyph glyph-name="uni1EBE" unicode="&#x1ebe;" horiz-adv-x="498" 
d="M117 0q-21 0 -39 10.5t-18 30.5v649q0 20 18 30.5t39 10.5h356q22 0 31.5 -18t9.5 -38q0 -24 -10.5 -41t-30.5 -17h-283v-200h152q20 0 30.5 -15.5t10.5 -36.5q0 -17 -9.5 -33.5t-31.5 -16.5h-152v-201h283q20 0 30.5 -17t10.5 -41q0 -20 -9.5 -38t-31.5 -18h-356z
M200 788q-11 0 -19.5 12.5t-8.5 27.5q0 23 22 37l82 56q8 5 17 5t17 -5l81 -55q22 -15 22 -39q0 -14 -8 -26.5t-20 -12.5q-2 0 -5 1l-6 2l-81 56l-82 -56l-6 -2t-5 -1zM257 889q-16 0 -28 16.5t-12 32.5q0 22 17 31l132 64q7 2 13 2q17 0 28.5 -16t11.5 -33q0 -21 -18 -30
l-130 -63q-4 -1 -7 -2.5t-7 -1.5z" />
    <glyph glyph-name="uni1EBF" unicode="&#x1ebf;" horiz-adv-x="445" 
d="M274 -9q-71 0 -125.5 25.5t-85.5 72t-31 107.5v85q0 54 29.5 99.5t79 73t110.5 27.5q56 0 102.5 -24t75.5 -66t29 -98q0 -43 -14 -61.5t-35.5 -23t-44.5 -4.5h-203v-15q0 -43 32.5 -69.5t84.5 -26.5q33 0 55 10t38 19t30 9q15 0 26 -10t17 -23.5t6 -23.5
q0 -17 -21.5 -36.5t-61 -33t-93.5 -13.5zM161 280h146q17 0 23.5 5.5t6.5 21.5q0 23 -12 41t-32 28t-44 10q-23 0 -43 -9.5t-32.5 -27t-12.5 -41.5v-28zM149 529q-11 0 -19.5 12.5t-8.5 27.5q0 23 22 37l82 56q8 5 17 5t17 -5l81 -55q22 -15 22 -39q0 -14 -8 -26.5
t-20 -12.5q-2 0 -5 1l-6 2l-81 56l-82 -56l-6 -2t-5 -1zM206 630q-16 0 -28 16.5t-12 32.5q0 22 17 31l132 64q7 2 13 2q17 0 28.5 -16t11.5 -33q0 -21 -18 -30l-130 -63q-4 -1 -7 -2.5t-7 -1.5z" />
    <glyph glyph-name="uni1EC0" unicode="&#x1ec0;" horiz-adv-x="498" 
d="M117 0q-21 0 -39 10.5t-18 30.5v649q0 20 18 30.5t39 10.5h356q22 0 31.5 -18t9.5 -38q0 -24 -10.5 -41t-30.5 -17h-283v-200h152q20 0 30.5 -15.5t10.5 -36.5q0 -17 -9.5 -33.5t-31.5 -16.5h-152v-201h283q20 0 30.5 -17t10.5 -41q0 -20 -9.5 -38t-31.5 -18h-356z
M200 790q-11 0 -19.5 12.5t-8.5 27.5q0 23 22 37l82 56q8 5 17 5t17 -5l81 -55q22 -15 22 -39q0 -14 -8 -26.5t-20 -12.5q-2 0 -5 1l-6 2l-81 56l-82 -56l-6 -2t-5 -1zM386 887q-4 0 -7 1.5t-7 2.5l-130 63q-18 9 -18 30q0 17 11.5 33t28.5 16q6 0 13 -2l132 -64
q17 -9 17 -31q0 -16 -11.5 -32.5t-28.5 -16.5z" />
    <glyph glyph-name="uni1EC1" unicode="&#x1ec1;" horiz-adv-x="445" 
d="M274 -9q-71 0 -125.5 25.5t-85.5 72t-31 107.5v85q0 54 29.5 99.5t79 73t110.5 27.5q56 0 102.5 -24t75.5 -66t29 -98q0 -43 -14 -61.5t-35.5 -23t-44.5 -4.5h-203v-15q0 -43 32.5 -69.5t84.5 -26.5q33 0 55 10t38 19t30 9q15 0 26 -10t17 -23.5t6 -23.5
q0 -17 -21.5 -36.5t-61 -33t-93.5 -13.5zM161 280h146q17 0 23.5 5.5t6.5 21.5q0 23 -12 41t-32 28t-44 10q-23 0 -43 -9.5t-32.5 -27t-12.5 -41.5v-28zM149 531q-11 0 -19.5 12.5t-8.5 27.5q0 23 22 37l82 56q8 5 17 5t17 -5l81 -55q22 -15 22 -39q0 -14 -8 -26.5
t-20 -12.5q-2 0 -5 1l-6 2l-81 56l-82 -56l-6 -2t-5 -1zM335 628q-4 0 -7 1.5t-7 2.5l-130 63q-18 9 -18 30q0 17 11.5 33t28.5 16q6 0 13 -2l132 -64q17 -9 17 -31q0 -16 -11.5 -32.5t-28.5 -16.5z" />
    <glyph glyph-name="uni1EC2" unicode="&#x1ec2;" horiz-adv-x="530" 
d="M117 0q-21 0 -39 10.5t-18 30.5v649q0 20 18 30.5t39 10.5h356q22 0 31.5 -18t9.5 -38q0 -24 -10.5 -41t-30.5 -17h-283v-200h152q20 0 30.5 -15.5t10.5 -36.5q0 -17 -9.5 -33.5t-31.5 -16.5h-152v-201h283q20 0 30.5 -17t10.5 -41q0 -20 -9.5 -38t-31.5 -18h-356z
M189 798q-11 0 -19.5 12.5t-8.5 27.5q0 23 22 37l82 56q8 5 17 5t17 -5l81 -55q22 -15 22 -39q0 -14 -8 -26.5t-20 -12.5q-2 0 -5 1l-6 2l-81 56l-82 -56l-6 -2t-5 -1zM325 1047q14 12 30.5 19.5t39.5 7.5q36 0 54.5 -12.5t26 -30t7.5 -33.5q0 -15 -5 -27t-16 -24
q-8 -9 -13.5 -16.5t-5.5 -14.5q0 -10 -8 -16.5t-20 -6.5q-10 0 -18.5 6.5t-8.5 16.5q0 9 4 17.5t10 18.5q9 11 16 21t7 18q0 12 -9.5 19t-22.5 7q-12 0 -21.5 -5t-17.5 -11q-7 -5 -16 -5.5t-19 10.5q-11 10 -7 22t13 19z" />
    <glyph glyph-name="uni1EC3" unicode="&#x1ec3;" horiz-adv-x="485" 
d="M274 -9q-71 0 -125.5 25.5t-85.5 72t-31 107.5v85q0 54 29.5 99.5t79 73t110.5 27.5q56 0 102.5 -24t75.5 -66t29 -98q0 -43 -14 -61.5t-35.5 -23t-44.5 -4.5h-203v-15q0 -43 32.5 -69.5t84.5 -26.5q33 0 55 10t38 19t30 9q15 0 26 -10t17 -23.5t6 -23.5
q0 -17 -21.5 -36.5t-61 -33t-93.5 -13.5zM161 280h146q17 0 23.5 5.5t6.5 21.5q0 23 -12 41t-32 28t-44 10q-23 0 -43 -9.5t-32.5 -27t-12.5 -41.5v-28zM158 553q-11 0 -19.5 12.5t-8.5 27.5q0 23 22 37l82 56q8 5 17 5t17 -5l81 -55q22 -15 22 -39q0 -14 -8 -26.5
t-20 -12.5q-2 0 -5 1l-6 2l-81 56l-82 -56l-6 -2t-5 -1zM295 803q14 12 30.5 19.5t39.5 7.5q36 0 54.5 -12.5t26 -30t7.5 -33.5q0 -15 -5 -27t-16 -24q-8 -9 -13.5 -16.5t-5.5 -14.5q0 -10 -8 -16.5t-20 -6.5q-10 0 -18.5 6.5t-8.5 16.5q0 9 4 17.5t10 18.5q9 11 16 21t7 18
q0 12 -9.5 19t-22.5 7q-12 0 -21.5 -5t-17.5 -11q-7 -5 -16 -5.5t-19 10.5q-11 10 -7 22t13 19z" />
    <glyph glyph-name="uni1EC4" unicode="&#x1ec4;" horiz-adv-x="498" 
d="M117 0q-21 0 -39 10.5t-18 30.5v649q0 20 18 30.5t39 10.5h356q22 0 31.5 -18t9.5 -38q0 -24 -10.5 -41t-30.5 -17h-283v-200h152q20 0 30.5 -15.5t10.5 -36.5q0 -17 -9.5 -33.5t-31.5 -16.5h-152v-201h283q20 0 30.5 -17t10.5 -41q0 -20 -9.5 -38t-31.5 -18h-356z
M200 788q-11 0 -19.5 12.5t-8.5 27.5q0 23 22 37l82 56q8 5 17 5t17 -5l81 -55q22 -15 22 -39q0 -14 -8 -26.5t-20 -12.5q-2 0 -5 1l-6 2l-81 56l-82 -56l-6 -2t-5 -1zM389 884q-32 0 -55 7.5t-42.5 14.5t-44.5 7q-21 0 -35.5 -6t-25.5 -12t-21 -6q-13 0 -20 8t-10 18.5
t-3 15.5q0 23 10 36.5t24.5 20.5t29 9t22.5 2q30 0 51 -7t42.5 -14.5t48.5 -7.5q21 0 35 6t25 12t21 6q14 0 20.5 -8.5t9.5 -18.5t3 -15q0 -24 -10 -37t-24 -20t-28.5 -9t-22.5 -2z" />
    <glyph glyph-name="uni1EC5" unicode="&#x1ec5;" horiz-adv-x="445" 
d="M274 -9q-71 0 -125.5 25.5t-85.5 72t-31 107.5v85q0 54 29.5 99.5t79 73t110.5 27.5q56 0 102.5 -24t75.5 -66t29 -98q0 -43 -14 -61.5t-35.5 -23t-44.5 -4.5h-203v-15q0 -43 32.5 -69.5t84.5 -26.5q33 0 55 10t38 19t30 9q15 0 26 -10t17 -23.5t6 -23.5
q0 -17 -21.5 -36.5t-61 -33t-93.5 -13.5zM161 280h146q17 0 23.5 5.5t6.5 21.5q0 23 -12 41t-32 28t-44 10q-23 0 -43 -9.5t-32.5 -27t-12.5 -41.5v-28zM149 529q-11 0 -19.5 12.5t-8.5 27.5q0 23 22 37l82 56q8 5 17 5t17 -5l81 -55q22 -15 22 -39q0 -14 -8 -26.5
t-20 -12.5q-2 0 -5 1l-6 2l-81 56l-82 -56l-6 -2t-5 -1zM338 625q-32 0 -55 7.5t-42.5 14.5t-44.5 7q-21 0 -35.5 -6t-25.5 -12t-21 -6q-13 0 -20 8t-10 18.5t-3 15.5q0 23 10 36.5t24.5 20.5t29 9t22.5 2q30 0 51 -7t42.5 -14.5t48.5 -7.5q21 0 35 6t25 12t21 6
q14 0 20.5 -8.5t9.5 -18.5t3 -15q0 -24 -10 -37t-24 -20t-28.5 -9t-22.5 -2z" />
    <glyph glyph-name="uni1EC6" unicode="&#x1ec6;" horiz-adv-x="498" 
d="M117 0q-21 0 -39 10.5t-18 30.5v649q0 20 18 30.5t39 10.5h356q22 0 31.5 -18t9.5 -38q0 -24 -10.5 -41t-30.5 -17h-283v-200h152q20 0 30.5 -15.5t10.5 -36.5q0 -17 -9.5 -33.5t-31.5 -16.5h-152v-201h283q20 0 30.5 -17t10.5 -41q0 -20 -9.5 -38t-31.5 -18h-356z
M264 -132q-29 0 -48.5 20.5t-19.5 47.5q0 28 19.5 48t48.5 20q27 0 47 -20t20 -48q0 -27 -20 -47.5t-47 -20.5zM178 835q-12 0 -20 12.5t-8 27.5q0 11 5 21t17 16l104 56q9 5 17 5q7 0 17 -5l104 -55q12 -6 16.5 -16.5t4.5 -22.5q0 -14 -7.5 -26.5t-20.5 -12.5q-2 0 -5 1
t-5 2l-104 56l-104 -56l-6 -2t-5 -1z" />
    <glyph glyph-name="uni1EC7" unicode="&#x1ec7;" horiz-adv-x="445" 
d="M274 -9q-71 0 -125.5 25.5t-85.5 72t-31 107.5v85q0 54 29.5 99.5t79 73t110.5 27.5q56 0 102.5 -24t75.5 -66t29 -98q0 -43 -14 -61.5t-35.5 -23t-44.5 -4.5h-203v-15q0 -43 32.5 -69.5t84.5 -26.5q33 0 55 10t38 19t30 9q15 0 26 -10t17 -23.5t6 -23.5
q0 -17 -21.5 -36.5t-61 -33t-93.5 -13.5zM161 280h146q17 0 23.5 5.5t6.5 21.5q0 23 -12 41t-32 28t-44 10q-23 0 -43 -9.5t-32.5 -27t-12.5 -41.5v-28zM244 -132q-29 0 -48.5 20.5t-19.5 47.5q0 28 19.5 48t48.5 20q27 0 47 -20t20 -48q0 -27 -20 -47.5t-47 -20.5zM127 576
q-12 0 -20 12.5t-8 27.5q0 11 5 21t17 16l104 56q9 5 17 5q7 0 17 -5l104 -55q12 -6 16.5 -16.5t4.5 -22.5q0 -14 -7.5 -26.5t-20.5 -12.5q-2 0 -5 1t-5 2l-104 56l-104 -56l-6 -2t-5 -1z" />
    <glyph glyph-name="uni1EC8" unicode="&#x1ec8;" horiz-adv-x="251" 
d="M125 0q-24 0 -44.5 10.5t-20.5 30.5v650q0 21 20.5 30.5t44.5 9.5q25 0 45 -9.5t20 -30.5v-650q0 -20 -20 -30.5t-45 -10.5zM41 949q14 12 30.5 19.5t39.5 7.5q36 0 54.5 -12.5t26 -30t7.5 -33.5q0 -15 -5 -27t-16 -24q-8 -9 -13.5 -16.5t-5.5 -14.5q0 -10 -8 -16.5
t-20 -6.5q-10 0 -18.5 6.5t-8.5 16.5q0 9 4 17.5t10 18.5q9 11 16 21t7 18q0 12 -9.5 19t-22.5 7q-12 0 -21.5 -5t-17.5 -11q-7 -5 -16 -5.5t-19 10.5q-11 10 -7 22t13 19z" />
    <glyph glyph-name="uni1EC9" unicode="&#x1ec9;" horiz-adv-x="228" 
d="M114 0q-28 0 -46 13t-18 28v394q0 18 18 29t46 11q27 0 46 -11t19 -29v-394q0 -15 -19 -28t-46 -13zM29 704q14 12 30.5 19.5t39.5 7.5q36 0 54.5 -12.5t26 -30t7.5 -33.5q0 -15 -5 -27t-16 -24q-8 -9 -13.5 -16.5t-5.5 -14.5q0 -10 -8 -16.5t-20 -6.5q-10 0 -18.5 6.5
t-8.5 16.5q0 9 4 17.5t10 18.5q9 11 16 21t7 18q0 12 -9.5 19t-22.5 7q-12 0 -21.5 -5t-17.5 -11q-7 -5 -16 -5.5t-19 10.5q-11 10 -7 22t13 19z" />
    <glyph glyph-name="uni1ECA" unicode="&#x1eca;" horiz-adv-x="202" 
d="M125 0q-24 0 -44.5 10.5t-20.5 30.5v650q0 21 20.5 30.5t44.5 9.5q25 0 45 -9.5t20 -30.5v-650q0 -20 -20 -30.5t-45 -10.5zM116 -132q-29 0 -48.5 20.5t-19.5 47.5q0 28 19.5 48t48.5 20q27 0 47 -20t20 -48q0 -27 -20 -47.5t-47 -20.5z" />
    <glyph glyph-name="uni1ECB" unicode="&#x1ecb;" horiz-adv-x="171" 
d="M114 581q-29 0 -50 19.5t-21 43.5q0 26 21 44.5t50 18.5q30 0 50 -18.5t20 -44.5q0 -24 -20 -43.5t-50 -19.5zM114 0q-28 0 -46 13t-18 28v394q0 18 18 29t46 11q27 0 46 -11t19 -29v-394q0 -15 -19 -28t-46 -13zM101 -132q-29 0 -48.5 20.5t-19.5 47.5q0 28 19.5 48
t48.5 20q27 0 47 -20t20 -48q0 -27 -20 -47.5t-47 -20.5z" />
    <glyph glyph-name="uni1ECC" unicode="&#x1ecc;" horiz-adv-x="543" 
d="M287 -6q-66 0 -119 22.5t-84 73t-31 133.5v279q0 83 31 133.5t83.5 73t119.5 22.5q66 0 119.5 -22.5t84.5 -73t31 -133.5v-279q0 -83 -31 -133.5t-84.5 -73t-119.5 -22.5zM287 108q49 0 77 28t28 87v279q0 59 -28 87t-77 28t-77 -28t-28 -87v-279q0 -59 28 -87t77 -28z
M287 -132q-29 0 -48.5 20.5t-19.5 47.5q0 28 19.5 48t48.5 20q27 0 47 -20t20 -48q0 -27 -20 -47.5t-47 -20.5z" />
    <glyph glyph-name="uni1ECD" unicode="&#x1ecd;" horiz-adv-x="455" 
d="M248 -9q-58 0 -107 28.5t-79 75.5t-30 101v82q0 54 29 100.5t78.5 74.5t108.5 28t108.5 -27.5t79 -73.5t29.5 -102v-82q0 -53 -30 -100t-79.5 -76t-107.5 -29zM248 104q24 0 44 13t32 34.5t12 44.5v82q0 23 -12 43t-31.5 33.5t-44.5 13.5q-24 0 -44 -13t-31.5 -33.5
t-11.5 -43.5v-82q0 -23 11.5 -44.5t31.5 -34.5t44 -13zM243 -132q-29 0 -48.5 20.5t-19.5 47.5q0 28 19.5 48t48.5 20q27 0 47 -20t20 -48q0 -27 -20 -47.5t-47 -20.5z" />
    <glyph glyph-name="uni1ECE" unicode="&#x1ece;" 
d="M287 -6q-66 0 -119 22.5t-84 73t-31 133.5v279q0 83 31 133.5t83.5 73t119.5 22.5q66 0 119.5 -22.5t84.5 -73t31 -133.5v-279q0 -83 -31 -133.5t-84.5 -73t-119.5 -22.5zM287 108q49 0 77 28t28 87v279q0 59 -28 87t-77 28t-77 -28t-28 -87v-279q0 -59 28 -87t77 -28z
M203 949q14 12 30.5 19.5t39.5 7.5q36 0 54.5 -12.5t26 -30t7.5 -33.5q0 -15 -5 -27t-16 -24q-8 -9 -13.5 -16.5t-5.5 -14.5q0 -10 -8 -16.5t-20 -6.5q-10 0 -18.5 6.5t-8.5 16.5q0 9 4 17.5t10 18.5q9 11 16 21t7 18q0 12 -9.5 19t-22.5 7q-12 0 -21.5 -5t-17.5 -11
q-7 -5 -16 -5.5t-19 10.5q-11 10 -7 22t13 19z" />
    <glyph glyph-name="uni1ECF" unicode="&#x1ecf;" horiz-adv-x="497" 
d="M248 -9q-58 0 -107 28.5t-79 75.5t-30 101v82q0 54 29 100.5t78.5 74.5t108.5 28t108.5 -27.5t79 -73.5t29.5 -102v-82q0 -53 -30 -100t-79.5 -76t-107.5 -29zM248 104q24 0 44 13t32 34.5t12 44.5v82q0 23 -12 43t-31.5 33.5t-44.5 13.5q-24 0 -44 -13t-31.5 -33.5
t-11.5 -43.5v-82q0 -23 11.5 -44.5t31.5 -34.5t44 -13zM164 704q14 12 30.5 19.5t39.5 7.5q36 0 54.5 -12.5t26 -30t7.5 -33.5q0 -15 -5 -27t-16 -24q-8 -9 -13.5 -16.5t-5.5 -14.5q0 -10 -8 -16.5t-20 -6.5q-10 0 -18.5 6.5t-8.5 16.5q0 9 4 17.5t10 18.5q9 11 16 21t7 18
q0 12 -9.5 19t-22.5 7q-12 0 -21.5 -5t-17.5 -11q-7 -5 -16 -5.5t-19 10.5q-11 10 -7 22t13 19z" />
    <glyph glyph-name="uni1ED0" unicode="&#x1ed0;" horiz-adv-x="543" 
d="M287 -6q-66 0 -119 22.5t-84 73t-31 133.5v279q0 83 31 133.5t83.5 73t119.5 22.5q66 0 119.5 -22.5t84.5 -73t31 -133.5v-279q0 -83 -31 -133.5t-84.5 -73t-119.5 -22.5zM287 108q49 0 77 28t28 87v279q0 59 -28 87t-77 28t-77 -28t-28 -87v-279q0 -59 28 -87t77 -28z
M192 788q-11 0 -19.5 12.5t-8.5 27.5q0 23 22 37l82 56q8 5 17 5t17 -5l81 -55q22 -15 22 -39q0 -14 -8 -26.5t-20 -12.5q-2 0 -5 1l-6 2l-81 56l-82 -56l-6 -2t-5 -1zM249 889q-16 0 -28 16.5t-12 32.5q0 22 17 31l132 64q7 2 13 2q17 0 28.5 -16t11.5 -33q0 -21 -18 -30
l-130 -63q-4 -1 -7 -2.5t-7 -1.5z" />
    <glyph glyph-name="uni1ED1" unicode="&#x1ed1;" horiz-adv-x="455" 
d="M248 -9q-58 0 -107 28.5t-79 75.5t-30 101v82q0 54 29 100.5t78.5 74.5t108.5 28t108.5 -27.5t79 -73.5t29.5 -102v-82q0 -53 -30 -100t-79.5 -76t-107.5 -29zM248 104q24 0 44 13t32 34.5t12 44.5v82q0 23 -12 43t-31.5 33.5t-44.5 13.5q-24 0 -44 -13t-31.5 -33.5
t-11.5 -43.5v-82q0 -23 11.5 -44.5t31.5 -34.5t44 -13zM148 529q-11 0 -19.5 12.5t-8.5 27.5q0 23 22 37l82 56q8 5 17 5t17 -5l81 -55q22 -15 22 -39q0 -14 -8 -26.5t-20 -12.5q-2 0 -5 1l-6 2l-81 56l-82 -56l-6 -2t-5 -1zM205 630q-16 0 -28 16.5t-12 32.5q0 22 17 31
l132 64q7 2 13 2q17 0 28.5 -16t11.5 -33q0 -21 -18 -30l-130 -63q-4 -1 -7 -2.5t-7 -1.5z" />
    <glyph glyph-name="uni1ED2" unicode="&#x1ed2;" horiz-adv-x="543" 
d="M287 -6q-66 0 -119 22.5t-84 73t-31 133.5v279q0 83 31 133.5t83.5 73t119.5 22.5q66 0 119.5 -22.5t84.5 -73t31 -133.5v-279q0 -83 -31 -133.5t-84.5 -73t-119.5 -22.5zM287 108q49 0 77 28t28 87v279q0 59 -28 87t-77 28t-77 -28t-28 -87v-279q0 -59 28 -87t77 -28z
M192 790q-11 0 -19.5 12.5t-8.5 27.5q0 23 22 37l82 56q8 5 17 5t17 -5l81 -55q22 -15 22 -39q0 -14 -8 -26.5t-20 -12.5q-2 0 -5 1l-6 2l-81 56l-82 -56l-6 -2t-5 -1zM378 887q-4 0 -7 1.5t-7 2.5l-130 63q-18 9 -18 30q0 17 11.5 33t28.5 16q6 0 13 -2l132 -64
q17 -9 17 -31q0 -16 -11.5 -32.5t-28.5 -16.5z" />
    <glyph glyph-name="uni1ED3" unicode="&#x1ed3;" horiz-adv-x="455" 
d="M248 -9q-58 0 -107 28.5t-79 75.5t-30 101v82q0 54 29 100.5t78.5 74.5t108.5 28t108.5 -27.5t79 -73.5t29.5 -102v-82q0 -53 -30 -100t-79.5 -76t-107.5 -29zM248 104q24 0 44 13t32 34.5t12 44.5v82q0 23 -12 43t-31.5 33.5t-44.5 13.5q-24 0 -44 -13t-31.5 -33.5
t-11.5 -43.5v-82q0 -23 11.5 -44.5t31.5 -34.5t44 -13zM148 531q-11 0 -19.5 12.5t-8.5 27.5q0 23 22 37l82 56q8 5 17 5t17 -5l81 -55q22 -15 22 -39q0 -14 -8 -26.5t-20 -12.5q-2 0 -5 1l-6 2l-81 56l-82 -56l-6 -2t-5 -1zM334 628q-4 0 -7 1.5t-7 2.5l-130 63
q-18 9 -18 30q0 17 11.5 33t28.5 16q6 0 13 -2l132 -64q17 -9 17 -31q0 -16 -11.5 -32.5t-28.5 -16.5z" />
    </font>
</defs>
</svg>
