<?xml version="1.0" standalone="no"?>
<!DOCTYPE svg PUBLIC "-//W3C//DTD SVG 1.1//EN" "http://www.w3.org/Graphics/SVG/1.1/DTD/svg11.dtd" >
<svg xmlns="http://www.w3.org/2000/svg" xmlns:xlink="http://www.w3.org/1999/xlink" version="1.1">
<metadata>
Created by FontForge 20201107 at Tue Aug 31 23:41:11 2021
 By 
Copyright 2011 The Dosis Project Authors (https://github.com/googlefonts/dosis-vf)
</metadata>
<defs>
<font id="Dosis-ExtraLight" horiz-adv-x="455" >
  <font-face 
    font-family="Dosis ExtraLight"
    font-weight="250"
    font-stretch="normal"
    units-per-em="1000"
    panose-1="0 0 0 0 0 0 0 0 0 0"
    ascent="800"
    descent="-200"
    x-height="472"
    cap-height="731"
    bbox="-143 -237 994 1057"
    underline-thickness="50"
    underline-position="-125"
    unicode-range="U+000D-FB02"
  />
<missing-glyph horiz-adv-x="317" 
d="M78 95q-7 0 -12.5 5t-5.5 12q0 3 1 5.5t2 4.5l74 114l-74 115q-1 2 -2 4.5t-1 4.5q0 8 5.5 13t12.5 5q9 0 15 -8l66 -102l66 102q5 8 14 8q7 0 12.5 -5t5.5 -13q0 -2 -0.5 -4.5t-2.5 -4.5l-74 -115l73 -114q2 -2 2.5 -4.5t0.5 -5.5q0 -7 -5 -12t-13 -5q-9 0 -14 8
l-65 100l-66 -100q-6 -8 -15 -8z" />
    <glyph glyph-name="fi" unicode="fi" horiz-adv-x="477" 
d="M85 0q-7 0 -11.5 5t-4.5 12v573q0 42 21.5 83t63.5 68t105 27q35 0 68 -8t55 -21.5t22 -28.5q0 -5 -2.5 -9.5t-6.5 -6.5t-7 -2q-7 0 -21 10.5t-38.5 20.5t-66.5 10q-47 0 -78 -15t-48.5 -38t-24.5 -47t-7 -43v-118h139q8 0 13 -5t5 -12t-5 -12.5t-13 -5.5h-139v-420
q0 -7 -5.5 -12t-13.5 -5zM392 0q-7 0 -12 5.5t-5 12.5v437q0 8 5 12.5t12 4.5q8 0 13 -4.5t5 -12.5v-437q0 -7 -5 -12.5t-13 -5.5z" />
    <glyph glyph-name="fl" unicode="fl" horiz-adv-x="487" 
d="M85 0q-7 0 -11.5 5t-4.5 12v573q0 55 28 95t72.5 61.5t92.5 21.5q27 0 54 -7.5t51 -23t43 -39.5v-680q0 -7 -5 -12.5t-13 -5.5q-7 0 -12 5.5t-5 12.5v675q-23 24 -53 35.5t-60 11.5q-40 0 -76 -18.5t-59 -52t-23 -79.5v-118h139q8 0 13 -5t5 -12t-5 -12.5t-13 -5.5h-139
v-420q0 -7 -5.5 -12t-13.5 -5z" />
    <glyph glyph-name=".notdef" horiz-adv-x="317" 
d="M78 95q-7 0 -12.5 5t-5.5 12q0 3 1 5.5t2 4.5l74 114l-74 115q-1 2 -2 4.5t-1 4.5q0 8 5.5 13t12.5 5q9 0 15 -8l66 -102l66 102q5 8 14 8q7 0 12.5 -5t5.5 -13q0 -2 -0.5 -4.5t-2.5 -4.5l-74 -115l73 -114q2 -2 2.5 -4.5t0.5 -5.5q0 -7 -5 -12t-13 -5q-9 0 -14 8
l-65 100l-66 -100q-6 -8 -15 -8z" />
    <glyph glyph-name=".null" horiz-adv-x="0" 
 />
    <glyph glyph-name="nonmarkingreturn" horiz-adv-x="333" 
 />
    <glyph glyph-name="NULL" horiz-adv-x="0" 
 />
    <glyph glyph-name="NULL" horiz-adv-x="0" 
 />
    <glyph glyph-name="CR" unicode="&#xd;" horiz-adv-x="200" 
 />
    <glyph glyph-name="space" unicode=" " horiz-adv-x="200" 
 />
    <glyph glyph-name="exclam" unicode="!" horiz-adv-x="193" 
d="M96 147q-5 0 -10 4.5t-5 11.5q0 90 -2.5 183.5t-5.5 187t-3 183.5q0 15 7.5 23t18.5 8t19 -8t8 -23q0 -90 -2.5 -183.5t-5.5 -187t-3 -183.5q0 -7 -5.5 -11.5t-10.5 -4.5zM97 -6q-16 0 -26 11t-10 25q0 15 10 25.5t26 10.5q14 0 24.5 -10.5t10.5 -25.5q0 -14 -10.5 -25
t-24.5 -11z" />
    <glyph glyph-name="quotedbl" unicode="&#x22;" horiz-adv-x="255" 
d="M187 581q-7 0 -10.5 5.5t-3.5 12.5l-10 152q0 8 8.5 12.5t15.5 4.5q8 0 16.5 -4.5t8.5 -12.5l-10 -152q0 -7 -3.5 -12.5t-11.5 -5.5zM67 581q-7 0 -10.5 5.5t-3.5 12.5l-10 152q0 8 8.5 12.5t15.5 4.5q8 0 16.5 -4.5t8.5 -12.5l-10 -152q0 -7 -3.5 -12.5t-11.5 -5.5z" />
    <glyph glyph-name="numbersign" unicode="#" horiz-adv-x="547" 
d="M140 36q-7 0 -12 5t-5 14l31 213h-104q-10 0 -14 4t-4 11q0 6 3.5 10.5t8.5 4.5h116l26 177h-105q-10 0 -14 4.5t-4 11.5q0 6 3.5 10t8.5 4h116l30 198q1 5 4.5 7.5t7.5 2.5q10 0 14.5 -6t4.5 -14l-29 -188h135l30 198q1 5 4.5 7.5t7.5 2.5q10 0 14.5 -6t4.5 -14
l-29 -188h107q6 0 12.5 -3.5t6.5 -11.5q0 -5 -4 -10t-9 -5h-117l-27 -177h107q6 0 12.5 -4t6.5 -12q0 -5 -4 -9.5t-9 -4.5h-118l-32 -217q-1 -7 -6 -11t-11 -4q-4 0 -8 2.5t-6 6.5t-2 10l32 213h-134l-32 -216q-1 -9 -5.5 -12.5t-9.5 -3.5zM192 298h134l27 177h-134z" />
    <glyph glyph-name="dollar" unicode="$" horiz-adv-x="484" 
d="M256 -52q-7 0 -12.5 5t-5.5 12v39q-64 0 -107 19.5t-65 44t-22 37.5q0 5 3 10t7 8t7 3q7 0 16 -13t26.5 -30t49.5 -30t85 -13v335q-33 11 -64 23t-56.5 31t-40.5 50t-15 79q0 47 16 77.5t42 48.5t57 26.5t61 9.5v31q0 7 5.5 12t12.5 5t12.5 -5t5.5 -12v-30
q29 -1 54.5 -6.5t45.5 -13t31.5 -16t11.5 -16.5q0 -4 -2.5 -9t-6.5 -9t-9 -4q-6 0 -20.5 8.5t-40 17.5t-64.5 11v-282q30 -11 59 -25.5t52 -37t36.5 -57.5t13.5 -87q0 -90 -45 -135.5t-116 -53.5v-41q0 -7 -5.5 -12t-12.5 -5zM274 43q62 9 93.5 47t31.5 102q0 53 -17.5 85
t-45.5 52t-62 33v-319zM238 414v270q-35 -2 -67 -13.5t-52.5 -37.5t-20.5 -72q0 -47 19.5 -75t51.5 -43.5t69 -28.5z" />
    <glyph glyph-name="percent" unicode="%" horiz-adv-x="741" 
d="M179 -20q-6 0 -11 4t-5 11q0 6 2 9l391 756q4 8 13 8q6 0 12 -5.5t6 -13.5q0 -5 -3 -11l-388 -747q-3 -6 -7.5 -8.5t-9.5 -2.5zM161 362q-49 0 -82 24.5t-33 82.5v155q0 58 33 82.5t82 24.5q33 0 59 -10.5t41 -34t15 -62.5v-155q0 -39 -15 -62.5t-41 -34t-59 -10.5z
M161 393q38 0 60 18.5t22 57.5v155q0 39 -22 57.5t-60 18.5t-59.5 -18.5t-21.5 -57.5v-155q0 -39 21.5 -57.5t59.5 -18.5zM580 -3q-49 0 -82 24.5t-33 82.5v155q0 58 33 82.5t82 24.5q33 0 59 -10.5t41 -34t15 -62.5v-155q0 -39 -15 -62.5t-41 -34t-59 -10.5zM580 28
q38 0 60 18.5t22 57.5v155q0 39 -22 57.5t-60 18.5t-59.5 -18.5t-21.5 -57.5v-155q0 -39 21.5 -57.5t59.5 -18.5z" />
    <glyph glyph-name="ampersand" unicode="&#x26;" horiz-adv-x="595" 
d="M260 -10q-70 0 -119 29t-74.5 76.5t-25.5 103.5q0 54 21 92.5t53.5 65t66.5 40.5q-31 37 -58.5 81t-27.5 105q0 53 23 90t61 56t83 19q52 0 84.5 -17.5t48 -38.5t15.5 -31q0 -7 -4.5 -11.5t-12.5 -4.5q-7 0 -14.5 10.5t-20 25t-34.5 25t-58 10.5q-61 0 -95 -37.5
t-34 -98.5q0 -37 12 -67.5t32.5 -57.5t44.5 -54l223 -247q23 53 30.5 110t8.5 95q0 12 4 16.5t13 4.5q8 0 11.5 -5t3.5 -18q0 -18 -3 -55.5t-12.5 -84t-31.5 -90.5l97 -106q2 -3 3.5 -6t1.5 -5q0 -7 -5 -11.5t-11 -4.5q-3 0 -6 1.5t-6 4.5l-90 97q-29 -46 -77 -76.5
t-121 -30.5zM266 25q64 0 104 27.5t64 69.5l-231 249q-25 -13 -54 -33.5t-50 -52.5t-21 -82q0 -46 22 -87t64 -66t102 -25z" />
    <glyph glyph-name="quotesingle" unicode="'" horiz-adv-x="135" 
d="M67 581q-7 0 -10.5 5.5t-3.5 12.5l-10 152q0 8 8.5 12.5t15.5 4.5q8 0 16.5 -4.5t8.5 -12.5l-10 -152q0 -7 -3.5 -12.5t-11.5 -5.5z" />
    <glyph glyph-name="parenleft" unicode="(" horiz-adv-x="278" 
d="M241 -20q-39 0 -71 11t-55 32t-35.5 51.5t-12.5 68.5v448q0 35 12.5 66.5t36 56.5t55 39.5t70.5 14.5q7 0 12 -5t5 -12t-5 -12.5t-12 -5.5q-44 0 -75 -21t-47 -53.5t-16 -67.5v-448q0 -52 22 -80t54 -38t62 -10q10 0 13.5 -6t3.5 -11q0 -8 -5.5 -13t-11.5 -5z" />
    <glyph glyph-name="parenright" unicode=")" horiz-adv-x="278" 
d="M37 -20q-6 0 -11.5 5t-5.5 13q0 5 3.5 11t13.5 6q31 0 62.5 10t53.5 38t22 80v448q0 35 -16 67.5t-47 53.5t-75 21q-7 0 -12 5.5t-5 12.5t5 12t12 5q39 0 70.5 -14.5t55 -39.5t36 -56.5t12.5 -66.5v-448q0 -38 -12.5 -68.5t-35.5 -51.5t-55 -32t-71 -11z" />
    <glyph glyph-name="asterisk" unicode="*" horiz-adv-x="416" 
d="M117 407q-4 0 -9 2t-8.5 6.5t-3.5 9.5q0 6 4 11l84 110l-134 40q-6 2 -8.5 6.5t-2.5 9.5q0 8 5 14t13 6h2.5t2.5 -1l133 -47l-5 140q0 8 5.5 12.5t12.5 4.5t12.5 -4.5t5.5 -12.5l-5 -141l133 48q2 1 6 1q7 0 12 -6.5t5 -13.5q0 -5 -3 -9.5t-9 -6.5l-133 -39l85 -112
q3 -4 3 -9q0 -8 -6 -13.5t-14 -5.5q-3 0 -6.5 1.5t-6.5 5.5l-79 115l-80 -116q-2 -3 -5 -4.5t-6 -1.5z" />
    <glyph glyph-name="plus" unicode="+" horiz-adv-x="427" 
d="M214 107q-7 0 -12.5 5t-5.5 12v143h-143q-7 0 -12 5t-5 12q0 8 5 13t12 5h143v142q0 7 5.5 12.5t12.5 5.5q8 0 12.5 -5.5t4.5 -12.5v-142h142q7 0 12.5 -5t5.5 -13q0 -7 -5.5 -12t-12.5 -5h-142v-143q0 -7 -4.5 -12t-12.5 -5z" />
    <glyph glyph-name="comma" unicode="," horiz-adv-x="162" 
d="M69 -77q-6 0 -11 3.5t-5 9.5q0 5 1 8l18 51q-12 3 -19.5 13t-7.5 22q0 15 10 25.5t25 10.5q13 0 24.5 -9t11.5 -28q0 -2 -0.5 -6.5t-3.5 -14.5t-9.5 -27.5t-17.5 -46.5q-2 -5 -6.5 -8t-9.5 -3z" />
    <glyph glyph-name="hyphen" unicode="-" horiz-adv-x="395" 
d="M67 223q-7 0 -12 5t-5 12q0 8 5 13t12 5h260q7 0 12.5 -5t5.5 -13q0 -7 -5.5 -12t-12.5 -5h-260z" />
    <glyph glyph-name="period" unicode="." horiz-adv-x="161" 
d="M81 -6q-16 0 -26 11t-10 25q0 15 10 25.5t26 10.5q14 0 24.5 -10.5t10.5 -25.5q0 -14 -10.5 -25t-24.5 -11z" />
    <glyph glyph-name="slash" unicode="/" horiz-adv-x="468" 
d="M38 -20q-6 0 -11 4t-5 11q0 6 2 9l391 756q4 8 13 8q6 0 12 -5.5t6 -13.5q0 -5 -3 -11l-388 -747q-3 -6 -7.5 -8.5t-9.5 -2.5z" />
    <glyph glyph-name="zero" unicode="0" horiz-adv-x="521" 
d="M260 -6q-55 0 -99 20.5t-70 65.5t-26 120v325q0 75 26 120t70 65.5t99 20.5t99.5 -20.5t70.5 -65.5t26 -120v-325q0 -75 -26 -120t-70.5 -65.5t-99.5 -20.5zM260 30q75 0 117.5 41.5t42.5 128.5v325q0 87 -42.5 128.5t-117.5 41.5t-117 -41.5t-42 -128.5v-325
q0 -87 42 -128.5t117 -41.5zM261 330q-13 0 -22.5 9.5t-9.5 22.5t9.5 22t22.5 9t22 -9t9 -22t-9 -22.5t-22 -9.5z" />
    <glyph glyph-name="one" unicode="1" horiz-adv-x="209" 
d="M116 0q-7 0 -12.5 4.5t-5.5 13.5v621l-43 -80q-4 -7 -8.5 -10t-9.5 -3q-7 0 -12.5 5t-5.5 12q0 5 4.5 12.5t5.5 10.5l66 128q4 7 8.5 12t14.5 5q7 0 11.5 -4t4.5 -13v-696q0 -9 -5.5 -13.5t-12.5 -4.5z" />
    <glyph glyph-name="two" unicode="2" horiz-adv-x="461" 
d="M56 0q-6 0 -12 5t-6 13v97q0 42 25 77t64 66.5t83.5 62t83.5 64t64 72t25 86.5q0 37 -17 71.5t-51 57.5t-86 23q-59 0 -98 -33.5t-39 -98.5q0 -6 -4.5 -11.5t-14.5 -5.5t-13.5 6.5t-3.5 21.5q0 44 22.5 79.5t62 56.5t90.5 21q58 0 100 -26t65 -68.5t23 -92.5
q0 -53 -25 -96t-64 -78t-83.5 -65.5t-83.5 -60t-64 -61t-25 -68.5v-79h338q7 0 12 -5t5 -13q0 -7 -5 -12.5t-12 -5.5h-356z" />
    <glyph glyph-name="three" unicode="3" horiz-adv-x="473" 
d="M230 -6q-49 0 -86 14.5t-62 37.5t-37 50.5t-12 54.5q0 17 4.5 22.5t11.5 5.5q11 0 15 -6.5t4 -14.5q0 -15 6.5 -37t23.5 -42.5t48 -34.5t80 -14q77 0 119.5 41.5t42.5 128.5v19q0 75 -42.5 112.5t-115.5 37.5q-10 0 -14.5 5.5t-4.5 12.5t4.5 12.5t13.5 5.5q47 0 78.5 14
t47 45.5t15.5 83.5q0 72 -31.5 109.5t-105.5 37.5q-46 0 -75 -13t-44.5 -33t-21 -41t-5.5 -38q0 -11 -5 -17.5t-13 -6.5q-6 0 -10 2.5t-6 9.5t-2 18q0 18 7.5 44t27 51.5t56 42.5t94.5 17q51 0 89 -17t59.5 -55t21.5 -102q0 -73 -25 -113.5t-59 -57.5q44 -19 73 -59t29 -108
v-19q0 -75 -26 -120t-70 -65.5t-98 -20.5z" />
    <glyph glyph-name="four" unicode="4" horiz-adv-x="417" 
d="M307 0q-7 0 -12.5 4.5t-5.5 13.5v160h-261q-9 0 -13 5.5t-4 12.5q0 4 1 7t2 5l257 509q4 8 9.5 11t10.5 3t8.5 -2t6 -5.5t2.5 -8.5t-3 -11l-248 -490h232v234q0 9 5.5 13t12.5 4t12.5 -4t5.5 -13v-234h59q9 0 13.5 -5.5t4.5 -12.5t-4.5 -12.5t-13.5 -5.5h-59v-160
q0 -9 -5.5 -13.5t-12.5 -4.5z" />
    <glyph glyph-name="five" unicode="5" horiz-adv-x="459" 
d="M227 -6q-61 0 -105 22.5t-67 59.5t-23 83q0 11 5 15.5t12 4.5t13 -4.5t6 -13.5q0 -41 21.5 -70.5t57.5 -45t80 -15.5q75 0 117.5 41.5t42.5 128.5v19q0 83 -42.5 123.5t-116.5 40.5h-135q-16 0 -20.5 4.5t-4.5 9.5t0.5 9t0.5 8l18 299q1 8 5.5 13t12.5 5h267
q8 0 11.5 -5.5t3.5 -12.5t-3.5 -12.5t-11.5 -5.5h-249l-19 -276h124q55 0 99 -19.5t70 -63.5t26 -117v-19q0 -75 -26 -120t-70.5 -65.5t-99.5 -20.5z" />
    <glyph glyph-name="six" unicode="6" horiz-adv-x="504" 
d="M261 -6q-55 0 -99.5 20.5t-70.5 65.5t-26 120v325q0 75 26 120t70 65.5t99 20.5q46 0 82.5 -13t61.5 -36.5t38.5 -53t13.5 -62.5q0 -10 -5 -15t-12 -5t-13 4.5t-6 13.5q0 40 -21.5 69t-58 45.5t-80.5 16.5q-75 0 -117 -41.5t-42 -128.5v-174q26 38 68 56t92 18
q55 0 99 -18t70 -60.5t26 -117.5v-29q0 -75 -26 -120t-70 -65.5t-99 -20.5zM261 30q75 0 117 41.5t42 128.5v29q0 87 -42 123.5t-117 36.5q-73 0 -116.5 -34t-43.5 -117v-38q0 -87 42.5 -128.5t117.5 -41.5z" />
    <glyph glyph-name="seven" unicode="7" horiz-adv-x="442" 
d="M89 0q-5 0 -10 1.5t-7.5 5t-2.5 8.5t3 11l316 620v49h-319v-131q0 -7 -5.5 -12.5t-12.5 -5.5t-12.5 5.5t-5.5 12.5v149q0 7 5.5 12.5t12.5 5.5h355q6 0 12 -5.5t6 -12.5v-72v-4t-2 -4l-318 -623q-5 -10 -15 -10z" />
    <glyph glyph-name="eight" unicode="8" horiz-adv-x="489" 
d="M245 -6q-55 0 -99.5 20.5t-70.5 66t-26 119.5v12q0 77 29 122t75 64q-38 17 -61.5 55.5t-23.5 103.5q0 67 23.5 105t63.5 53.5t90 15.5t90 -15.5t63.5 -53.5t23.5 -105q0 -65 -23.5 -103.5t-61.5 -55.5q47 -19 75 -64t28 -122v-12q0 -74 -26 -119.5t-70 -66t-99 -20.5z
M246 30q74 0 116 42t42 128v12q0 86 -42.5 126.5t-116.5 40.5t-117 -40.5t-43 -126.5v-12q0 -87 43 -128.5t118 -41.5zM245 416q66 0 103.5 33t37.5 108q0 74 -37.5 106t-103.5 32t-103.5 -32t-37.5 -106q0 -75 37.5 -108t103.5 -33z" />
    <glyph glyph-name="nine" unicode="9" horiz-adv-x="504" 
d="M244 -6q-46 0 -82.5 13t-61.5 36.5t-38.5 53t-13.5 62.5q0 11 5 15.5t12 4.5t13 -4.5t6 -13.5q0 -40 21.5 -69t58 -45.5t80.5 -16.5q75 0 117 41.5t42 128.5v174q-26 -37 -68 -55.5t-92 -18.5q-55 0 -99 18t-70 60.5t-26 117.5v29q0 75 26 120t70 65.5t99 20.5
t99.5 -20.5t70.5 -65.5t26 -120v-325q0 -75 -26 -120t-70 -65.5t-99 -20.5zM243 336q73 0 116.5 34.5t43.5 116.5v38q0 87 -42.5 128.5t-117.5 41.5t-117 -41.5t-42 -128.5v-29q0 -87 42 -123.5t117 -36.5z" />
    <glyph glyph-name="colon" unicode=":" horiz-adv-x="193" 
d="M97 350q-16 0 -26 11t-10 25q0 15 10 25.5t26 10.5q14 0 24.5 -10.5t10.5 -25.5q0 -14 -10.5 -25t-24.5 -11zM97 -6q-16 0 -26 11t-10 25q0 15 10 25.5t26 10.5q14 0 24.5 -10.5t10.5 -25.5q0 -14 -10.5 -25t-24.5 -11z" />
    <glyph glyph-name="semicolon" unicode=";" horiz-adv-x="195" 
d="M85 -77q-6 0 -11 3.5t-5 9.5q0 5 1 8l18 51q-12 3 -19.5 13t-7.5 22q0 15 10 25.5t25 10.5q13 0 24.5 -9t11.5 -28q0 -2 -0.5 -6.5t-3.5 -14.5t-9.5 -27.5t-17.5 -46.5q-2 -5 -6.5 -8t-9.5 -3zM98 350q-16 0 -26 11t-10 25q0 15 10 25.5t26 10.5q14 0 24.5 -10.5
t10.5 -25.5q0 -14 -10.5 -25t-24.5 -11z" />
    <glyph glyph-name="less" unicode="&#x3c;" horiz-adv-x="395" 
d="M324 74q-4 0 -9 3l-275 182q-4 2 -7 7t-3 11t3.5 11.5t6.5 7.5l275 182q5 3 9 3q7 0 13 -4.5t6 -12.5q0 -10 -9 -15l-258 -172l258 -171q9 -5 9 -15q0 -7 -6 -12t-13 -5z" />
    <glyph glyph-name="equal" unicode="=" horiz-adv-x="431" 
d="M90 372q-7 0 -12 5t-5 12q0 8 5 13t12 5h250q7 0 12.5 -5t5.5 -13q0 -7 -5.5 -12t-12.5 -5h-250zM90 169q-7 0 -12 5t-5 12q0 8 5 13t12 5h250q7 0 12.5 -5t5.5 -13q0 -7 -5.5 -12t-12.5 -5h-250z" />
    <glyph glyph-name="greater" unicode="&#x3e;" horiz-adv-x="395" 
d="M71 74q-7 0 -13 5t-6 12q0 10 9 15l258 171l-258 172q-9 5 -9 15q0 8 6 12.5t13 4.5q5 0 9 -3l275 -182q3 -2 6.5 -7.5t3.5 -11.5t-3 -11t-7 -7l-275 -182q-4 -3 -9 -3z" />
    <glyph glyph-name="question" unicode="?" horiz-adv-x="383" 
d="M160 147q-6 0 -11.5 4t-5.5 13q0 60 4 94.5t12 53.5t19 33q17 19 39 39t43.5 45t35.5 58t14 78q0 68 -37.5 108t-112.5 40q-31 0 -52 -6t-34 -14t-21 -14t-14 -6q-4 0 -9 5t-5 12q0 13 20 26t51.5 22.5t67.5 9.5q62 0 102 -24.5t59.5 -65.5t19.5 -92t-16 -87.5t-39.5 -64
t-47 -48.5t-38.5 -41q-13 -16 -18.5 -38t-7 -51.5t-1.5 -71.5q0 -9 -5.5 -13t-11.5 -4zM160 -6q-16 0 -26 11t-10 25q0 15 10.5 25.5t25.5 10.5q14 0 24.5 -10.5t10.5 -25.5q0 -14 -10 -25t-25 -11z" />
    <glyph glyph-name="at" unicode="@" horiz-adv-x="707" 
d="M326 -90q-51 0 -98.5 18t-85 55.5t-59.5 96.5t-22 140q0 91 30.5 166.5t97 120.5t174.5 45q96 0 162 -36t100 -106.5t34 -175.5q0 -48 -9.5 -92.5t-32.5 -72.5t-66 -28q-35 0 -61 19t-33 42q-26 -25 -51.5 -37.5t-69.5 -12.5q-35 0 -64 10t-45.5 33t-16.5 63
q0 45 23 68.5t66.5 32t104.5 8.5h49v21q0 47 -25.5 69t-81.5 22q-33 0 -50 -5.5t-26 -11.5t-17 -6q-5 0 -9 3t-6 7.5t-2 7.5q0 12 18.5 21t46 14t54.5 5q44 0 73.5 -15t44.5 -42.5t15 -67.5v-164q2 -21 22.5 -36t42.5 -15t36 14.5t22 38.5t11 51.5t3 54.5q0 131 -65.5 206.5
t-199.5 75.5q-75 0 -125.5 -24t-81.5 -66t-44.5 -94.5t-13.5 -109.5q0 -53 12 -102.5t39.5 -88.5t72.5 -62t110 -23q46 0 74.5 8.5t45.5 16.5t26 8q6 0 10.5 -4.5t4.5 -9.5q0 -8 -13.5 -17t-37 -17.5t-53 -14t-60.5 -5.5zM334 85q39 0 65.5 13t40 32t13.5 36v67h-48
q-45 0 -81 -4t-57.5 -20t-21.5 -52q0 -39 26 -55.5t63 -16.5z" />
    <glyph glyph-name="A" unicode="A" horiz-adv-x="521" 
d="M43 0q-4 0 -8.5 2t-7 5.5t-2.5 8.5q0 4 1 6l217 701q2 8 7 11t11 3t11.5 -3.5t7.5 -10.5l215 -701q1 -2 1 -5q0 -4 -3 -8t-7.5 -6.5t-9.5 -2.5t-9.5 3t-6.5 10l-51 164h-298l-50 -164q-2 -7 -7 -10t-11 -3zM122 213h276l-137 448z" />
    <glyph glyph-name="B" unicode="B" horiz-adv-x="527" 
d="M101 0q-8 0 -13 5t-5 12v696q0 9 5.5 13.5t12.5 4.5h150q58 0 104.5 -12.5t73.5 -48.5t27 -106q0 -64 -23.5 -107.5t-61.5 -60.5q31 -13 54 -34.5t36 -55.5t13 -86v-17q0 -75 -26 -119.5t-70.5 -64t-99.5 -19.5h-177zM119 36h159q75 0 117.5 40t42.5 127v17
q0 87 -42.5 122.5t-117.5 35.5h-159v-342zM119 414h139q83 0 122.5 31.5t39.5 118.5q0 56 -21.5 84t-59 37.5t-86.5 9.5h-134v-281z" />
    <glyph glyph-name="C" unicode="C" horiz-adv-x="512" 
d="M272 -6q-53 0 -98 20.5t-71.5 65.5t-26.5 120v325q0 75 27.5 120t72.5 65.5t99 20.5q64 0 106.5 -23t64 -59t21.5 -75q0 -17 -4.5 -22.5t-13.5 -5.5q-13 0 -15.5 6.5t-2.5 11.5q-1 18 -7.5 40.5t-23 43t-47 34t-79.5 13.5q-79 0 -120.5 -41.5t-41.5 -128.5v-325
q0 -88 42 -129t124 -41q50 0 79 13t44 33t21 43t9 42q1 7 4 12.5t14 5.5q9 0 13.5 -6t4.5 -23q0 -38 -22 -74t-65.5 -59t-107.5 -23z" />
    <glyph glyph-name="D" unicode="D" horiz-adv-x="550" 
d="M101 0q-8 0 -13 5t-5 12v697q0 7 5 12t13 5h177q55 0 99.5 -20.5t70.5 -65.5t26 -120v-319q0 -75 -26 -120t-70.5 -65.5t-99.5 -20.5h-177zM119 36h159q75 0 117.5 41.5t42.5 128.5v319q0 87 -42.5 128.5t-117.5 41.5h-159v-659z" />
    <glyph glyph-name="E" unicode="E" horiz-adv-x="498" 
d="M101 0q-7 0 -12.5 4.5t-5.5 13.5v695q0 9 5.5 13.5t12.5 4.5h356q9 0 13 -5.5t4 -11.5q0 -7 -4.5 -13t-12.5 -6h-338v-311h160q8 0 12.5 -5.5t4.5 -13.5q0 -6 -4 -11.5t-13 -5.5h-160v-312h338q8 0 12.5 -5.5t4.5 -13.5q0 -6 -4 -11.5t-13 -5.5h-356z" />
    <glyph glyph-name="F" unicode="F" horiz-adv-x="489" 
d="M101 0q-7 0 -12.5 4t-5.5 13v696q0 9 5.5 13.5t12.5 4.5h356q9 0 13 -5.5t4 -11.5q0 -7 -4.5 -13t-12.5 -6h-338v-311h160q8 0 12.5 -5.5t4.5 -13.5q0 -6 -4 -11.5t-13 -5.5h-160v-331q0 -9 -5.5 -13t-12.5 -4z" />
    <glyph glyph-name="G" unicode="G" horiz-adv-x="531" 
d="M271 -6q-55 0 -99 20.5t-70 65.5t-26 120v325q0 75 26 120t70 65.5t99 20.5q62 0 105.5 -22t67 -59.5t23.5 -83.5q0 -10 -5.5 -15t-12.5 -5t-12 4.5t-6 13.5q-6 45 -27 74t-55 43t-78 14q-75 0 -117 -41.5t-42 -128.5v-325q0 -87 42 -128.5t117 -41.5t117.5 41.5
t42.5 128.5v148h-159q-8 0 -12.5 5.5t-4.5 12.5t4.5 12.5t12.5 5.5h178q8 0 12.5 -5.5t4.5 -13.5v-165q0 -75 -26 -120t-70.5 -65.5t-99.5 -20.5z" />
    <glyph glyph-name="H" unicode="H" horiz-adv-x="557" 
d="M101 0q-7 0 -12.5 4.5t-5.5 13.5v696q0 9 5.5 13t12.5 4t12.5 -4t5.5 -13v-317h319v317q0 9 5.5 13t12.5 4t12.5 -4t5.5 -13v-696q0 -9 -5.5 -13.5t-12.5 -4.5t-12.5 4.5t-5.5 13.5v343h-319v-343q0 -9 -5.5 -13.5t-12.5 -4.5z" />
    <glyph glyph-name="I" unicode="I" horiz-adv-x="202" 
d="M101 0q-7 0 -12.5 4.5t-5.5 13.5v696q0 9 5.5 13t12.5 4t12.5 -4t5.5 -13v-696q0 -9 -5.5 -13.5t-12.5 -4.5z" />
    <glyph glyph-name="J" unicode="J" horiz-adv-x="496" 
d="M222 -6q-61 0 -105 22t-67.5 59.5t-23.5 83.5q0 11 5 15.5t12 4.5t13 -4.5t6 -13.5q0 -44 21.5 -73.5t58 -43.5t80.5 -14q75 0 117 41.5t42 128.5v495h-159q-8 0 -12.5 6t-4.5 13q0 6 4 11.5t13 5.5h177q7 0 12.5 -4.5t5.5 -13.5v-513q0 -75 -26 -120t-70 -65.5
t-99 -20.5z" />
    <glyph glyph-name="K" unicode="K" horiz-adv-x="508" 
d="M101 0q-7 0 -12.5 4.5t-5.5 13.5v696q0 9 5.5 13t12.5 4t12.5 -4t5.5 -13v-392l323 403q5 6 14 6q5 0 9 -2.5t6.5 -7t2.5 -9.5q0 -2 -1 -5t-3 -5l-231 -287l258 -388q3 -4 3 -9t-2.5 -9t-7 -6.5t-9.5 -2.5q-4 0 -8 2.5t-7 6.5l-251 376l-96 -120v-247q0 -9 -5.5 -13.5
t-12.5 -4.5z" />
    <glyph glyph-name="L" unicode="L" horiz-adv-x="452" 
d="M101 0q-7 0 -12.5 4.5t-5.5 13.5v696q0 9 5.5 13t12.5 4t12.5 -4t5.5 -13v-678h304q8 0 11.5 -5.5t3.5 -12.5t-3.5 -12.5t-11.5 -5.5h-322z" />
    <glyph glyph-name="M" unicode="M" horiz-adv-x="653" 
d="M101 0q-7 0 -12.5 4.5t-5.5 13.5v696q0 10 5.5 13.5t12.5 3.5t13 -7t11 -15.5t7 -13.5l194 -382l195 382q3 5 7.5 13.5t11 15.5t12.5 7q8 0 13 -3.5t5 -13.5v-696q0 -9 -5.5 -13.5t-12.5 -4.5t-12.5 4.5t-5.5 13.5v625l-189 -364q-5 -10 -9.5 -14.5t-9.5 -4.5
q-4 0 -9 4.5t-10 14.5l-188 364v-625q0 -9 -5.5 -13.5t-12.5 -4.5z" />
    <glyph glyph-name="N" unicode="N" horiz-adv-x="557" 
d="M101 0q-7 0 -12.5 4.5t-5.5 13.5v696q0 10 5.5 13.5t12.5 3.5t13 -7t11 -15.5t7 -13.5l306 -606v625q0 9 5.5 13t12.5 4t12.5 -4t5.5 -13v-696q0 -9 -5.5 -13.5t-12.5 -4.5q-10 0 -17 13t-12 23l-308 607v-625q0 -9 -5.5 -13.5t-12.5 -4.5z" />
    <glyph glyph-name="O" unicode="O" horiz-adv-x="543" 
d="M271 -6q-55 0 -99 20.5t-70 65.5t-26 120v325q0 75 26 120t70 65.5t99 20.5t99.5 -20.5t70.5 -65.5t26 -120v-325q0 -75 -26 -120t-70.5 -65.5t-99.5 -20.5zM271 30q75 0 117.5 41.5t42.5 128.5v325q0 87 -42.5 128.5t-117.5 41.5t-117 -41.5t-42 -128.5v-325
q0 -87 42 -128.5t117 -41.5z" />
    <glyph glyph-name="P" unicode="P" horiz-adv-x="513" 
d="M101 0q-7 0 -12.5 4.5t-5.5 13.5v696q0 7 5 11.5t13 5.5h177q55 0 99.5 -20.5t70.5 -65.5t26 -120v-12q0 -75 -26 -120.5t-70.5 -66t-99.5 -20.5h-159v-288q0 -9 -5.5 -13.5t-12.5 -4.5zM119 342h159q75 0 117.5 42t42.5 129v12q0 87 -42.5 128.5t-117.5 41.5h-159v-353z
" />
    <glyph glyph-name="Q" unicode="Q" horiz-adv-x="543" 
d="M272 -109q-7 0 -12.5 4.5t-5.5 13.5v86q-51 3 -91.5 24t-63.5 65.5t-23 115.5v325q0 75 26 120t70 65.5t99 20.5t99.5 -20.5t70.5 -65.5t26 -120v-325q0 -71 -23 -115.5t-63 -65.5t-91 -24v-86q0 -9 -5.5 -13.5t-12.5 -4.5zM254 30v84q0 9 5.5 13t12.5 4t12.5 -4t5.5 -13
v-83q66 5 103.5 46t37.5 123v325q0 87 -42.5 128.5t-117.5 41.5t-117 -41.5t-42 -128.5v-325q0 -82 37.5 -123.5t104.5 -46.5z" />
    <glyph glyph-name="R" unicode="R" horiz-adv-x="509" 
d="M456 0q-10 0 -17 13t-12 23l-160 312h-148v-330q0 -9 -5.5 -13.5t-12.5 -4.5t-12.5 4.5t-5.5 13.5v696q0 7 5 11.5t13 5.5h167q55 0 102 -17.5t75.5 -59t28.5 -114.5q0 -64 -22.5 -104t-60.5 -60t-85 -26l165 -321q2 -3 2.5 -6t0.5 -5q0 -5 -2.5 -9t-6.5 -6.5t-9 -2.5z
M119 384h149q75 0 122.5 36.5t47.5 119.5t-47.5 119t-122.5 36h-149v-311z" />
    <glyph glyph-name="S" unicode="S" horiz-adv-x="481" 
d="M235 -6q-64 0 -107 19.5t-64.5 44t-21.5 37.5q0 5 3 10t7 8t7 3q7 0 16 -13t26 -30t47.5 -30t81.5 -13q55 0 92 18.5t56 54.5t19 89q0 55 -18.5 88t-48.5 53t-65.5 32.5t-71.5 24.5t-66 31t-48.5 51.5t-18.5 85.5q0 54 19 88t49 52.5t64 25.5t65 7t59 -5t50.5 -12.5
t35.5 -16.5t13 -18q0 -4 -2.5 -9t-6.5 -9t-9 -4q-7 0 -23 9.5t-44.5 19t-73.5 9.5q-37 0 -74 -11t-61.5 -40t-24.5 -83q0 -46 18.5 -73.5t48.5 -43.5t65.5 -27.5t71.5 -25.5t66 -36.5t48.5 -60.5t18.5 -99q0 -71 -25.5 -115.5t-70 -65t-102.5 -20.5z" />
    <glyph glyph-name="T" unicode="T" 
d="M228 0q-7 0 -12.5 4.5t-5.5 13.5v677h-178q-8 0 -13 5.5t-5 12.5t5 12.5t13 5.5h391q9 0 13.5 -5t4.5 -12t-4 -13t-14 -6h-177v-677q0 -9 -5.5 -13.5t-12.5 -4.5z" />
    <glyph glyph-name="U" unicode="U" horiz-adv-x="549" 
d="M274 -6q-55 0 -99 20.5t-70 65.5t-26 120v514q0 9 5.5 13t12.5 4t12.5 -4t5.5 -13v-514q0 -87 42 -128.5t117 -41.5t117.5 41.5t42.5 128.5v514q0 9 5.5 13t12.5 4t12.5 -4t5.5 -13v-514q0 -75 -26 -120t-70.5 -65.5t-99.5 -20.5z" />
    <glyph glyph-name="V" unicode="V" horiz-adv-x="519" 
d="M260 -6q-6 0 -11 3.5t-7 10.5l-217 701q-1 2 -1 6q0 5 2.5 8.5t7 5.5t8.5 2q6 0 11 -3t7 -10l200 -648l199 648q2 7 6.5 10t9.5 3t9.5 -2.5t7.5 -6t3 -8.5q0 -1 -0.5 -2t-0.5 -3l-215 -701q-2 -7 -7.5 -10.5t-11.5 -3.5z" />
    <glyph glyph-name="W" unicode="W" horiz-adv-x="739" 
d="M242 -6q-6 0 -11 3.5t-7 10.5l-197 701q-1 3 -1 6q0 6 2.5 9.5t6.5 5t8 1.5q6 0 12 -3.5t7 -9.5l180 -648l106 385q3 11 9 14t13 3q8 0 12.5 -3t7.5 -14l108 -385l179 648q2 6 7.5 9.5t11.5 3.5q5 0 8.5 -1.5t6 -5t2.5 -9.5q0 -3 -1 -6l-195 -701q-2 -7 -7 -10.5
t-12 -3.5q-6 0 -11 3.5t-7 10.5l-110 392l-109 -392q-2 -7 -7 -10.5t-12 -3.5z" />
    <glyph glyph-name="X" unicode="X" horiz-adv-x="447" 
d="M46 0q-5 0 -9 2.5t-6.5 6.5t-2.5 9t3 11l172 337l-170 334q-5 10 -5 17q0 5 2 8t6 4.5t10 1.5q11 0 18 -12.5t12 -23.5l147 -290l148 290q5 11 12.5 23.5t17.5 12.5q6 0 10 -1.5t6 -4.5t2 -8q0 -7 -5 -17l-171 -334l173 -337q3 -6 3 -11t-2.5 -9t-6.5 -6.5t-9 -2.5
q-10 0 -17 13t-12 23l-149 291l-148 -291l-11.5 -23t-17.5 -13z" />
    <glyph glyph-name="Y" unicode="Y" horiz-adv-x="509" 
d="M254 0q-7 0 -12.5 4.5t-5.5 13.5v255q0 4 -1 6l-207 416q-3 6 -4.5 11t-1.5 9q0 5 2 8.5t4.5 5.5t6.5 2q5 0 10.5 -4t9.5 -13l199 -401l200 401q5 9 10.5 13t9.5 4t6.5 -2t4 -5.5t1.5 -8.5q0 -4 -1 -9t-4 -11l-208 -416q-1 -2 -1 -6v-255q0 -9 -5.5 -13.5t-12.5 -4.5z
" />
    <glyph glyph-name="Z" unicode="Z" horiz-adv-x="464" 
d="M45 0q-7 0 -12.5 5t-5.5 12q0 6 3 12l350 666h-325q-9 0 -13.5 5.5t-4.5 12.5t4.5 12.5t13.5 5.5h355q9 0 13.5 -4t4.5 -11q0 -8 -5 -16l-349 -664h346q9 0 13.5 -5.5t4.5 -12.5t-4.5 -12.5t-13.5 -5.5h-375z" />
    <glyph glyph-name="bracketleft" unicode="[" horiz-adv-x="285" 
d="M92 -21q-7 0 -12.5 5t-5.5 12v755q0 7 5.5 12t12.5 5h156q7 0 12 -5t5 -12t-5 -12.5t-12 -5.5h-138v-719h138q7 0 12 -5t5 -13q0 -7 -5 -12t-12 -5h-156z" />
    <glyph glyph-name="backslash" unicode="\" horiz-adv-x="340" 
d="M296 0q-5 0 -10 2.5t-7 9.5l-250 715q-1 3 -1 8q0 9 5.5 14t12.5 5q5 0 9 -2t5 -7l252 -724q1 -1 1 -2.5v-3.5q0 -7 -5 -11t-12 -4z" />
    <glyph glyph-name="bracketright" unicode="]" horiz-adv-x="285" 
d="M37 -21q-7 0 -12 5t-5 12q0 8 5 13t12 5h138v719h-138q-7 0 -12 5.5t-5 12.5t5 12t12 5h156q8 0 13 -5t5 -12v-755q0 -7 -5.5 -12t-12.5 -5h-156z" />
    <glyph glyph-name="asciicircum" unicode="^" horiz-adv-x="260" 
d="M18 600q-7 0 -12.5 5.5t-5.5 13.5q0 4 2.5 8t6.5 6l104 56q8 5 17 5t17 -5l104 -55q5 -2 7 -7t2 -10q0 -7 -5 -11.5t-12 -4.5q-2 0 -4.5 1t-4.5 2l-104 55l-104 -56l-4 -2t-4 -1z" />
    <glyph glyph-name="underscore" unicode="_" horiz-adv-x="345" 
d="M13 -35q-7 0 -12 5t-5 12q0 8 5 13t12 5h320q7 0 12.5 -5t5.5 -13q0 -7 -5.5 -12t-12.5 -5h-320z" />
    <glyph glyph-name="grave" unicode="`" horiz-adv-x="133" 
d="M114 601q-2 0 -4.5 1t-4.5 2l-95 54q-10 6 -10 18q0 7 4.5 12.5t11.5 5.5q3 0 7 -2l102 -60q8 -4 8 -13q0 -7 -5.5 -12.5t-13.5 -5.5z" />
    <glyph glyph-name="a" unicode="a" horiz-adv-x="423" 
d="M174 -6q-58 0 -98.5 32.5t-40.5 99.5q0 53 29.5 81.5t82 39.5t121.5 11h56v28q0 38 -13 74t-42 59.5t-77 23.5q-31 0 -52 -6.5t-33.5 -13.5t-18.5 -7q-8 0 -13 7.5t-5 12.5q0 10 18.5 19.5t47 16t58.5 6.5q62 0 98 -27.5t51.5 -71t15.5 -93.5v-268q0 -7 -4.5 -12.5
t-12.5 -5.5q-7 0 -12.5 5.5t-5.5 12.5v52q-25 -29 -62.5 -52.5t-87.5 -23.5zM173 29q38 0 72.5 18.5t56.5 44.5t22 47v84h-55q-51 0 -96.5 -6t-74 -26.5t-28.5 -64.5q0 -50 30 -73.5t73 -23.5z" />
    <glyph glyph-name="b" unicode="b" horiz-adv-x="468" 
d="M240 -6q-46 0 -82.5 22.5t-53.5 53.5v-52q0 -7 -5 -12.5t-13 -5.5q-7 0 -12 5.5t-5 12.5v733q0 8 5 12.5t12 4.5q8 0 13 -4.5t5 -12.5v-349q17 29 50.5 52.5t83.5 23.5q49 0 90 -24.5t65.5 -65t24.5 -90.5v-122q0 -47 -24.5 -89t-65 -67.5t-88.5 -25.5zM242 29
q38 0 70 21t51.5 55t19.5 71v122q0 37 -19.5 70t-51.5 54t-71 21q-34 0 -65.5 -17.5t-51.5 -49.5t-20 -78v-159q0 -17 18 -43t49.5 -46.5t70.5 -20.5z" />
    <glyph glyph-name="c" unicode="c" horiz-adv-x="402" 
d="M235 -6q-62 0 -102.5 24t-60.5 65t-20 93v120q0 51 19.5 92.5t60.5 65.5t103 24q40 0 69.5 -10.5t45.5 -24t16 -24.5q0 -4 -2.5 -8t-6.5 -6.5t-9 -2.5q-8 0 -19.5 10.5t-32.5 20.5t-61 10q-72 0 -110 -39.5t-38 -107.5v-120q0 -68 38 -107.5t111 -39.5q42 0 64.5 10.5
t34 20.5t20.5 10q5 0 8.5 -2.5t6 -6t2.5 -8.5q0 -10 -16.5 -24t-47 -24.5t-73.5 -10.5z" />
    <glyph glyph-name="d" unicode="d" horiz-adv-x="468" 
d="M228 -6q-47 0 -88 25.5t-65.5 67.5t-24.5 89v122q0 50 24.5 90.5t65.5 65t90 24.5q50 0 84 -23.5t50 -52.5v349q0 8 5.5 12.5t12.5 4.5q8 0 12.5 -4.5t4.5 -12.5v-733q0 -7 -4.5 -12.5t-12.5 -5.5q-7 0 -12.5 5.5t-5.5 12.5v52q-16 -31 -53 -53.5t-83 -22.5zM226 29
q40 0 71 20.5t49 46.5t18 43v159q0 46 -20 78t-51.5 49.5t-65.5 17.5q-39 0 -71 -21t-51.5 -54t-19.5 -70v-122q0 -37 19.5 -71t51.5 -55t70 -21z" />
    <glyph glyph-name="e" unicode="e" horiz-adv-x="445" 
d="M253 -6q-59 0 -104.5 23t-71.5 63.5t-26 95.5v125q0 48 24.5 88.5t65 64.5t88.5 24q47 0 87.5 -23.5t65 -64t24.5 -92.5q0 -36 -12 -52t-30.5 -19.5t-40.5 -3.5h-237v-47q0 -68 48 -107.5t121 -39.5q42 0 64 10.5t33.5 20.5t20.5 10q5 0 9 -3t6.5 -7t2.5 -8
q0 -9 -16.5 -23t-47.5 -24.5t-74 -10.5zM86 258h225q37 0 48.5 7t11.5 30q0 36 -17.5 70t-49.5 56t-75 22q-40 0 -72.5 -20t-51.5 -52t-19 -70v-43z" />
    <glyph glyph-name="f" unicode="f" horiz-adv-x="289" 
d="M85 0q-7 0 -11.5 5t-4.5 12v573q0 48 24.5 88.5t65 65t88.5 24.5h10q8 0 13 -5t5 -13q0 -7 -5 -12t-13 -5h-10q-40 0 -72.5 -20.5t-51 -53t-19.5 -69.5v-118h153q8 0 13 -5t5 -12t-5 -12.5t-13 -5.5h-153v-420q0 -7 -5.5 -12t-13.5 -5z" />
    <glyph glyph-name="g" unicode="g" horiz-adv-x="446" 
d="M226 -237q-58 0 -101.5 16t-68 45t-24.5 68q0 46 28.5 72.5t62.5 38.5q-27 8 -44 23.5t-17 47.5q0 28 13.5 43.5t35.5 25.5q-25 22 -38.5 54.5t-13.5 71.5v45q0 48 20 85t56.5 58t84.5 21q37 0 67 -12.5t52 -35.5q14 26 35 43.5t40 17.5q11 0 16 -6t5 -14q0 -9 -5.5 -14
t-12.5 -5q-13 0 -29.5 -9t-30.5 -37q13 -18 19 -42t6 -50v-45q0 -47 -20.5 -85t-57.5 -59.5t-85 -21.5q-46 0 -82 21q-15 -7 -27.5 -17.5t-12.5 -30.5q0 -25 23 -36t59 -15t76 -8t76 -15t59 -35t23 -69q0 -43 -23 -73t-64.5 -46t-99.5 -16zM226 -205q74 0 113 28t39 74
q0 36 -22.5 54.5t-56.5 26t-68.5 10t-58.5 5.5q-40 -11 -72.5 -33.5t-32.5 -64.5q0 -44 41.5 -72t117.5 -28zM221 138q59 0 92.5 37.5t33.5 93.5v45q0 55 -33.5 92t-93.5 37t-93 -37t-33 -92v-44q0 -56 33.5 -94t93.5 -38z" />
    <glyph glyph-name="h" unicode="h" horiz-adv-x="482" 
d="M86 0q-7 0 -12 5.5t-5 12.5v733q0 8 5 12.5t12 4.5q8 0 13 -4.5t5 -12.5v-349q17 29 50.5 52.5t83.5 23.5q49 0 90 -24.5t65.5 -65t24.5 -90.5v-280q0 -9 -5.5 -13.5t-12.5 -4.5q-6 0 -11.5 4.5t-5.5 13.5v280q0 37 -19.5 70t-51.5 54t-71 21q-34 0 -65.5 -17.5
t-51.5 -49.5t-20 -78v-280q0 -7 -5 -12.5t-13 -5.5z" />
    <glyph glyph-name="i" unicode="i" horiz-adv-x="171" 
d="M86 628q-13 0 -22.5 9.5t-9.5 22.5t9.5 22t22.5 9t22 -9t9 -22t-9 -22.5t-22 -9.5zM85 0q-7 0 -12 5.5t-5 12.5v437q0 8 5 12.5t12 4.5q8 0 13 -4.5t5 -12.5v-437q0 -7 -5 -12.5t-13 -5.5z" />
    <glyph glyph-name="j" unicode="j" horiz-adv-x="173" 
d="M-18 -237q-7 0 -12.5 5.5t-5.5 12.5q0 8 5.5 12.5t12.5 4.5q39 0 57.5 20t24 55t5.5 79v503q0 8 5 12.5t12 4.5q8 0 13 -4.5t5 -12.5v-503q0 -55 -11.5 -98t-38 -67t-72.5 -24zM86 628q-13 0 -22.5 9.5t-9.5 22.5t9.5 22t22.5 9t22 -9t9 -22t-9 -22.5t-22 -9.5z" />
    <glyph glyph-name="k" unicode="k" horiz-adv-x="437" 
d="M86 0q-7 0 -12 5.5t-5 12.5v733q0 8 5 12.5t12 4.5q8 0 13 -4.5t5 -12.5v-518l270 235q6 4 10 4q5 0 9 -1.5t7 -5t3 -9.5q0 -4 -1 -8t-5 -7l-161 -140l185 -273q3 -4 3 -10q0 -4 -2 -8.5t-6 -7t-9 -2.5q-8 0 -14 9l-184 269l-105 -92v-168q0 -7 -5 -12.5t-13 -5.5z" />
    <glyph glyph-name="l" unicode="l" horiz-adv-x="189" 
d="M94 0q-7 0 -12 5.5t-5 12.5v733q0 8 5 12.5t12 4.5q8 0 13 -4.5t5 -12.5v-733q0 -7 -5 -12.5t-13 -5.5z" />
    <glyph glyph-name="m" unicode="m" horiz-adv-x="767" 
d="M85 0q-7 0 -12 5.5t-5 12.5v437q0 8 5 12.5t12 4.5q8 0 13 -4.5t5 -12.5v-53q17 29 50.5 52.5t83.5 23.5q52 0 91.5 -28t58.5 -72q26 51 67.5 75.5t84.5 24.5q42 0 79.5 -21t61 -61t23.5 -98v-280q0 -7 -5 -12.5t-13 -5.5q-7 0 -12 5.5t-5 12.5v280q0 48 -19.5 80
t-49.5 48.5t-61 16.5q-34 0 -64.5 -17.5t-50.5 -48.5t-20 -73v-287q0 -9 -5.5 -13t-12.5 -4q-6 0 -11.5 4t-5.5 13v286q0 40 -17.5 71.5t-46.5 50t-65 18.5q-33 0 -64.5 -17.5t-51.5 -49.5t-20 -78v-280q0 -7 -5 -12.5t-13 -5.5z" />
    <glyph glyph-name="n" unicode="n" horiz-adv-x="481" 
d="M85 0q-7 0 -12 5.5t-5 12.5v437q0 8 5 12.5t12 4.5q8 0 13 -4.5t5 -12.5v-53q17 29 50.5 52.5t83.5 23.5q49 0 90 -24.5t65.5 -65t24.5 -90.5v-280q0 -9 -5.5 -13.5t-12.5 -4.5q-6 0 -11.5 4.5t-5.5 13.5v280q0 37 -19.5 70t-51.5 54t-71 21q-34 0 -65.5 -17.5
t-51.5 -49.5t-20 -78v-280q0 -7 -5 -12.5t-13 -5.5z" />
    <glyph glyph-name="o" unicode="o" 
d="M227 -6q-47 0 -87.5 25.5t-65 67t-24.5 89.5v122q0 48 24 89t64.5 66t88.5 25t88.5 -24.5t65 -65t24.5 -90.5v-122q0 -47 -24.5 -89t-65 -67.5t-88.5 -25.5zM227 29q40 0 72 21t51.5 55t19.5 71v122q0 37 -19 70t-51.5 54t-72.5 21t-72 -21t-51 -54t-19 -70v-122
q0 -37 19 -71t51.5 -55t71.5 -21z" />
    <glyph glyph-name="p" unicode="p" horiz-adv-x="468" 
d="M86 -237q-7 0 -12 5.5t-5 12.5v674q0 8 5 12.5t12 4.5q8 0 13 -4.5t5 -12.5v-53q17 29 50.5 52.5t83.5 23.5q49 0 90 -24.5t65.5 -65t24.5 -90.5v-122q0 -47 -24.5 -89t-65 -67.5t-88.5 -25.5q-46 0 -82.5 22.5t-53.5 53.5v-289q0 -7 -5 -12.5t-13 -5.5zM242 29
q38 0 70 21t51.5 55t19.5 71v122q0 37 -19.5 70t-51.5 54t-71 21q-34 0 -65.5 -17.5t-51.5 -49.5t-20 -78v-159q0 -17 18 -43t49.5 -46.5t70.5 -20.5z" />
    <glyph glyph-name="q" unicode="q" horiz-adv-x="468" 
d="M382 -237q-7 0 -12.5 5.5t-5.5 12.5v289q-16 -31 -53 -53.5t-83 -22.5q-47 0 -88 25.5t-65.5 67.5t-24.5 89v122q0 50 24.5 90.5t65.5 65t90 24.5q50 0 84 -23.5t50 -52.5v53q0 8 5.5 12.5t12.5 4.5q8 0 12.5 -4.5t4.5 -12.5v-674q0 -7 -4.5 -12.5t-12.5 -5.5zM226 29
q40 0 71 20.5t49 46.5t18 43v159q0 46 -20 78t-51.5 49.5t-65.5 17.5q-39 0 -71 -21t-51.5 -54t-19.5 -70v-122q0 -37 19.5 -71t51.5 -55t70 -21z" />
    <glyph glyph-name="r" unicode="r" horiz-adv-x="308" 
d="M85 0q-7 0 -12 5.5t-5 12.5v437q0 8 5 12.5t12 4.5q8 0 13 -4.5t5 -12.5v-53q12 20 31 37t46 28t62 11h37q7 0 12 -5t5 -13q0 -7 -5 -12t-12 -5h-37q-35 0 -67 -17.5t-52 -49.5t-20 -78v-280q0 -7 -5 -12.5t-13 -5.5z" />
    <glyph glyph-name="s" unicode="s" horiz-adv-x="373" 
d="M184 -6q-45 0 -77.5 11.5t-50.5 26.5t-18 27q0 5 2 8.5t5.5 6t6.5 2.5q9 0 21.5 -11.5t37.5 -23.5t72 -12q63 0 90 24.5t27 58.5q0 39 -18 60.5t-47 33t-61 20.5t-61 21.5t-47 36t-18 64.5q0 30 15.5 60t48 50t84.5 20q30 0 58 -6.5t46 -16t18 -19.5q0 -3 -2.5 -8
t-6 -8.5t-8.5 -3.5q-6 0 -19 7t-34 13.5t-51 6.5q-42 0 -67 -15.5t-36 -37t-11 -41.5q0 -33 18 -51t47 -28t61 -19t61 -23.5t47 -41t18 -72.5q0 -55 -40 -87.5t-111 -32.5z" />
    <glyph glyph-name="t" unicode="t" horiz-adv-x="272" 
d="M212 0q-71 0 -108.5 33t-37.5 106v547q0 8 5.5 12.5t11.5 4.5q7 0 12.5 -4.5t5.5 -12.5v-214h135q7 0 12 -5t5 -13q0 -7 -5 -12t-12 -5h-135v-298q0 -57 25 -80.5t86 -23.5h23q7 0 12 -4.5t5 -12.5q0 -7 -5 -12.5t-12 -5.5h-23z" />
    <glyph glyph-name="u" unicode="u" horiz-adv-x="483" 
d="M242 -6q-49 0 -89.5 25t-64.5 66.5t-24 88.5v280q0 7 5.5 12.5t12.5 5.5t12 -5.5t5 -12.5v-280q0 -37 19 -70t51.5 -54t72.5 -21t72 20.5t51 54t19 70.5v281q0 7 5.5 12t12.5 5q8 0 12.5 -5t4.5 -12v-281q0 -48 -24 -89t-64.5 -66t-88.5 -25z" />
    <glyph glyph-name="v" unicode="v" horiz-adv-x="392" 
d="M196 -6q-7 0 -11 3t-6 9l-156 434q-1 2 -2.5 6.5t-1.5 7.5q0 5 2.5 9t6.5 6.5t9 2.5t10 -3t7 -8l142 -393l141 387q2 6 4.5 11.5t12.5 5.5q5 0 9 -2t7 -6t3 -9q0 -4 -1.5 -8.5t-2.5 -6.5l-156 -434q-2 -5 -6.5 -8.5t-10.5 -3.5z" />
    <glyph glyph-name="w" unicode="w" horiz-adv-x="654" 
d="M196 -6q-7 0 -10 3.5t-7 13.5l-156 430q-1 2 -2.5 6.5t-1.5 6.5q0 5 2.5 9t6.5 6.5t9 2.5t10 -3t7 -8l141 -391l115 362q2 6 6.5 9.5t11.5 3.5t11.5 -3.5t6.5 -9.5l111 -367l144 396q3 11 16 11q5 0 9 -2t6.5 -5.5t2.5 -9.5q0 -3 -1.5 -7.5t-2.5 -6.5l-157 -435
q-2 -7 -6 -9.5t-9 -2.5q-6 0 -8.5 2.5t-5.5 8.5l-117 375l-115 -369q-3 -9 -7 -13t-10 -4z" />
    <glyph glyph-name="x" unicode="x" horiz-adv-x="381" 
d="M45 -6q-5 0 -9 2.5t-6.5 6.5t-2.5 8q0 6 3 10l139 217l-139 213q-1 2 -2 4.5t-1 4.5q0 5 2.5 9t6.5 6.5t9 2.5t9 -2t6 -6l131 -200l132 200q2 4 6 6t8 2q5 0 9 -2t6.5 -6t2.5 -10q0 -4 -3 -9l-140 -213l140 -217q2 -2 2.5 -4.5t0.5 -5.5q0 -4 -2.5 -8t-6.5 -6.5t-9 -2.5
q-4 0 -8 2t-6 6l-132 203l-131 -203q-3 -4 -6.5 -6t-8.5 -2z" />
    <glyph glyph-name="y" unicode="y" horiz-adv-x="395" 
d="M36 -237q-7 0 -12 5t-5 12t3.5 12.5t11.5 5.5q27 0 48.5 19.5t39 52t31.5 70t27 73.5l-160 442q-2 4 -2 6q0 5 2.5 8.5t7 6t9.5 2.5t10 -3t6 -8l145 -400l144 400q2 5 6.5 8t9.5 3t9 -2t6.5 -5.5t2.5 -9.5q0 -4 -1 -6l-160 -442q-13 -37 -30 -80.5t-38.5 -82t-49 -63
t-61.5 -24.5z" />
    <glyph glyph-name="z" unicode="z" horiz-adv-x="385" 
d="M44 0q-7 0 -12.5 4.5t-5.5 11.5q0 2 1 6t3 6l267 409h-243q-7 0 -12.5 5t-5.5 12q0 8 5.5 13t12.5 5h277q8 0 13 -5t5 -13q0 -5 -3 -10l-268 -409h263q8 0 13 -5t5 -13q0 -7 -5 -12t-13 -5h-297z" />
    <glyph glyph-name="braceleft" unicode="{" horiz-adv-x="285" 
d="M248 -20q-49 0 -88.5 18.5t-63 52.5t-23.5 78q0 10 2 33t5.5 52t6.5 57.5t5 49t2 26.5q0 12 -9 14.5t-21 3t-21 4t-9 15.5t9 15.5t21 4t21 3.5t9 15q0 7 -3 32t-7.5 56t-7.5 58.5t-3 38.5q0 32 13.5 61t37.5 51.5t56 35.5t68 13q7 0 12 -5t5 -12t-5 -12.5t-12 -5.5
q-41 0 -72.5 -18.5t-49 -48t-17.5 -62.5q0 -12 3 -38.5t7.5 -57t7.5 -55t3 -31.5q0 -16 -12.5 -26t-21.5 -12q9 -3 21.5 -12t12.5 -25q0 -9 -3 -38.5t-7.5 -66t-7.5 -69t-3 -46.5q0 -33 15 -54.5t37.5 -34.5t46 -18t40.5 -5q7 0 10.5 -3t5 -6.5t1.5 -7.5q0 -8 -5.5 -13
t-11.5 -5z" />
    <glyph glyph-name="bar" unicode="|" horiz-adv-x="184" 
d="M92 -21q-7 0 -12.5 5t-5.5 12v755q0 7 5.5 12t12.5 5t12.5 -5t5.5 -12v-755q0 -7 -5.5 -12t-12.5 -5z" />
    <glyph glyph-name="braceright" unicode="}" horiz-adv-x="285" 
d="M37 -20q-6 0 -11.5 5t-5.5 13q0 4 1.5 7.5t5 6.5t10.5 3q17 0 40.5 5t46 18t37.5 34.5t15 54.5q0 14 -3 46.5t-7.5 69t-7.5 66t-3 38.5q0 16 12 25t22 12q-10 2 -22 12t-12 26q0 7 3 31.5t7.5 55t7.5 57t3 38.5q0 33 -17.5 62.5t-49 48t-72.5 18.5q-7 0 -12 5.5t-5 12.5
t5 12t12 5q36 0 68 -13t56 -35.5t37.5 -51.5t13.5 -61q0 -11 -3 -38.5t-7.5 -58.5t-7.5 -56t-3 -32q0 -12 9 -15t21 -3.5t21 -4t9 -15.5t-9 -15.5t-21 -4t-21 -3t-9 -14.5q0 -6 2 -26.5t5.5 -49t6.5 -57.5t5 -52t2 -33q0 -44 -23.5 -78t-63 -52.5t-88.5 -18.5z" />
    <glyph glyph-name="asciitilde" unicode="~" horiz-adv-x="400" 
d="M264 223q-24 0 -42.5 9.5t-38.5 18.5t-48 9q-21 0 -34 -8.5t-20.5 -17.5t-14.5 -9q-3 0 -6 2t-5 6t-2 9q0 10 8.5 19t22.5 16.5t29.5 12t28.5 4.5q25 0 44 -9t38.5 -18.5t44.5 -9.5q23 0 34 8t17 16t14 8q4 0 7 -2t5 -5t2 -8q0 -12 -8.5 -21t-21.5 -16t-27.5 -10.5
t-26.5 -3.5z" />
    <glyph glyph-name="uni00A0" unicode="&#xa0;" horiz-adv-x="200" 
 />
    <glyph glyph-name="exclamdown" unicode="&#xa1;" horiz-adv-x="193" 
d="M96 -6q-11 0 -18.5 8t-7.5 23q0 90 3 183.5t5.5 187t2.5 183.5q0 8 5 12t10 4t10.5 -4t5.5 -12q0 -90 3 -183.5t5.5 -187t2.5 -183.5q0 -15 -8 -23t-19 -8zM97 676q-16 0 -26 10.5t-10 25.5q0 14 10 25t26 11q14 0 24.5 -11t10.5 -25q0 -15 -10.5 -25.5t-24.5 -10.5z" />
    <glyph glyph-name="cent" unicode="&#xa2;" horiz-adv-x="406" 
d="M201 40q-7 0 -12.5 5t-5.5 12v120q-71 11 -106.5 60.5t-35.5 118.5v20q0 45 15 82.5t46.5 63t80.5 33.5v122q0 7 5.5 12t12.5 5t12.5 -5t5.5 -12v-119q38 0 70.5 -8.5t52 -21.5t19.5 -28q0 -5 -3 -9.5t-7 -6.5t-9 -2q-9 0 -20.5 10.5t-35 20.5t-67.5 10v-314
q45 0 68 10.5t34.5 20.5t20.5 10q7 0 13 -5t6 -13q0 -15 -21 -28.5t-53.5 -21.5t-67.5 -8v-117q0 -7 -5.5 -12t-12.5 -5zM183 213v306q-54 -11 -80.5 -48.5t-26.5 -94.5v-20q0 -58 26.5 -95t80.5 -48z" />
    <glyph glyph-name="sterling" unicode="&#xa3;" horiz-adv-x="461" 
d="M43 0q-9 0 -13.5 5.5t-4.5 12.5t4.5 12.5t13.5 5.5h63l46 331h-86q-7 0 -12 5t-5 12q0 8 5 13t12 5h91l27 188q7 48 36.5 88.5t73.5 65t93 24.5h12q10 0 15 -5.5t5 -12.5q0 -6 -5 -11.5t-15 -5.5h-17q-40 0 -75.5 -20.5t-58.5 -53t-29 -69.5l-27 -188h163q8 0 12 -5.5
t4 -12.5q0 -6 -4 -11.5t-12 -5.5h-168l-47 -331h263q8 0 12 -5.5t4 -12.5t-4 -12.5t-12 -5.5h-360z" />
    <glyph glyph-name="currency" unicode="&#xa4;" horiz-adv-x="489" 
d="M246 290q-33 0 -62.5 12.5t-53.5 34.5l-33 -33q-5 -5 -12 -5t-12 5t-5 12t5 12l34 34q-18 23 -28 51t-10 59q0 30 10 58.5t27 50.5l-26 27q-5 5 -5 13t5.5 12.5t12.5 4.5t12 -5l25 -26q23 21 53 33t63 12q31 0 59 -10.5t51 -29.5l28 28q5 5 13 5q7 0 12 -5t5 -12
q0 -8 -5 -13l-28 -28q20 -23 31.5 -52.5t11.5 -62.5q0 -32 -12 -61.5t-32 -53.5l29 -29q5 -7 5 -12q0 -6 -5 -11.5t-12 -5.5q-8 0 -12 5l-29 28q-23 -19 -51 -30.5t-59 -11.5zM246 328q39 0 70.5 20.5t50.5 53.5t19 70q0 36 -18.5 68.5t-50.5 53t-71 20.5t-70.5 -20.5
t-50 -53t-18.5 -68.5q0 -37 18.5 -70t50.5 -53.5t70 -20.5z" />
    <glyph glyph-name="yen" unicode="&#xa5;" horiz-adv-x="479" 
d="M236 0q-7 0 -12.5 5t-5.5 12v180h-124q-7 0 -12 5t-5 12q0 8 5 13t12 5h124v78h-124q-7 0 -12 5t-5 12q0 8 5 13t12 5h115l-180 362q-1 2 -1.5 3.5t-0.5 3.5q0 4 2 8t6.5 6.5t9.5 2.5t9.5 -2.5t7.5 -7.5l174 -346l184 346q3 5 7.5 7.5t9.5 2.5t8.5 -2t5.5 -6t2 -9t-1 -7
l-190 -362h122q7 0 12.5 -5t5.5 -13q0 -7 -5.5 -12t-12.5 -5h-131v-78h131q7 0 12.5 -5t5.5 -13q0 -7 -5.5 -12t-12.5 -5h-131v-180q0 -7 -4.5 -12t-12.5 -5z" />
    <glyph glyph-name="brokenbar" unicode="&#xa6;" horiz-adv-x="186" 
d="M93 452q-7 0 -12.5 5t-5.5 12v282q0 7 5.5 12t12.5 5t12.5 -5t5.5 -12v-282q0 -7 -5.5 -12t-12.5 -5zM93 -21q-7 0 -12.5 5t-5.5 12v282q0 7 5.5 12t12.5 5t12.5 -5t5.5 -12v-282q0 -7 -5.5 -12t-12.5 -5z" />
    <glyph glyph-name="section" unicode="&#xa7;" horiz-adv-x="461" 
d="M230 -66q-53 0 -93.5 22t-62.5 59.5t-22 83.5q0 11 6 15.5t13 4.5q9 0 13 -5.5t4 -12.5q0 -16 6 -38.5t20.5 -43.5t41 -35t68.5 -14q68 0 105.5 36.5t37.5 106.5q0 40 -16 64t-42.5 38t-58 23.5t-63.5 20.5t-58.5 29t-42.5 48t-16 79v132q0 56 15.5 92t40 56t53 28
t54.5 8q50 0 84 -20t51 -55.5t17 -82.5q0 -13 -6 -17.5t-13 -4.5t-13 5t-6 20q0 21 -9 49t-33 49t-70 21q-29 0 -59 -13t-50 -45t-20 -90q0 -40 16 -64t42.5 -38t58.5 -24t63.5 -21t58 -28.5t42.5 -48t16 -78.5v-130q0 -47 -13 -81.5t-37 -56.5t-55.5 -32.5t-67.5 -10.5z
M367 210v33q0 47 -19.5 74t-50.5 41.5t-67 25t-68.5 25t-55.5 40.5v-32q0 -47 19.5 -74t50.5 -42t67 -25.5t69 -25t55 -40.5z" />
    <glyph glyph-name="dieresis" unicode="&#xa8;" horiz-adv-x="170" 
d="M141 600q-13 0 -21.5 8.5t-8.5 21.5t8.5 21t21.5 8t21 -8t8 -21t-8 -21.5t-21 -8.5zM30 600q-13 0 -21.5 8.5t-8.5 21.5t8.5 21t21.5 8t21 -8t8 -21t-8 -21.5t-21 -8.5z" />
    <glyph glyph-name="copyright" unicode="&#xa9;" horiz-adv-x="728" 
d="M361 35q-53 0 -106.5 20t-98.5 60t-72 101t-27 142q0 84 28.5 145.5t74.5 101.5t100.5 60t106.5 20q53 0 106.5 -20t98.5 -60t72 -101t27 -142q0 -84 -28.5 -145.5t-74.5 -101.5t-100.5 -60t-106.5 -20zM361 70q80 0 142 37t97.5 103t35.5 152q0 84 -33.5 149t-94 102
t-141.5 37q-79 0 -141.5 -37t-98 -102.5t-35.5 -152.5q0 -83 33.5 -148.5t94.5 -102.5t141 -37zM364 168q-40 0 -68.5 26t-28.5 89v167q0 63 29 89.5t69 26.5q47 0 72.5 -27t25.5 -64q0 -13 -4 -17.5t-14 -4.5q-9 0 -13.5 4t-4.5 10q0 12 -4.5 27t-17.5 26.5t-39 11.5
q-63 0 -63 -82v-167q0 -82 64 -82q26 0 38 11.5t16.5 27t5.5 28.5q1 7 5.5 10.5t12.5 3.5q10 0 14 -4.5t4 -17.5q0 -37 -26 -64.5t-73 -27.5z" />
    <glyph glyph-name="ordfeminine" unicode="&#xaa;" horiz-adv-x="306" 
d="M130 431h-12.5t-12.5 1q-28 5 -47 24t-19 56q0 50 40.5 67t104.5 17h32v15q0 32 -17 60t-58 28q-20 0 -33 -4.5t-20.5 -9t-12.5 -4.5q-7 0 -11 6.5t-4 12.5q0 8 12.5 15t31.5 11.5t38 4.5q41 0 65 -17t34.5 -44.5t10.5 -58.5v-162q0 -6 -5 -10.5t-13 -4.5q-7 0 -12 4.5
t-5 10.5v28q-15 -17 -36.5 -30.5t-50.5 -15.5zM131 461q21 0 40.5 10.5t32 26t12.5 29.5v42h-31q-28 0 -53.5 -3.5t-41 -15t-15.5 -36.5q0 -28 16.5 -40.5t39.5 -12.5z" />
    <glyph glyph-name="guillemotleft" unicode="&#xab;" horiz-adv-x="361" 
d="M302 74q-10 0 -15 9l-96 177q-2 4 -3.5 8.5t-1.5 8.5q0 5 1.5 9t3.5 8l96 178q5 9 17 9q5 0 8.5 -2.5t5.5 -6t2 -8.5q0 -4 -3 -9l-96 -178l96 -177q3 -4 3 -9t-2.5 -9t-6.5 -6t-9 -2zM156 74q-10 0 -15 9l-96 177q-2 4 -3.5 8.5t-1.5 8.5q0 5 1.5 9t3.5 8l96 178
q5 9 17 9q5 0 8.5 -2.5t5.5 -6t2 -8.5q0 -4 -3 -9l-96 -178l96 -177q3 -4 3 -9t-2.5 -9t-6.5 -6t-9 -2z" />
    <glyph glyph-name="logicalnot" unicode="&#xac;" horiz-adv-x="479" 
d="M389 163q-7 0 -12.5 5t-5.5 12v143h-293q-7 0 -12 5t-5 12q0 8 5 13t12 5h310q7 0 12.5 -5t5.5 -13v-160q0 -7 -4.5 -12t-12.5 -5z" />
    <glyph glyph-name="uni00AD" unicode="&#xad;" 
d="M67 223q-7 0 -12 5t-5 12q0 8 5 13t12 5h320q7 0 12.5 -5t5.5 -13q0 -7 -5.5 -12t-12.5 -5h-320z" />
    <glyph glyph-name="registered" unicode="&#xae;" horiz-adv-x="728" 
d="M361 35q-53 0 -106.5 20t-98.5 60t-72 101t-27 142q0 84 28.5 145.5t74.5 101.5t100.5 60t106.5 20q53 0 106.5 -20t98.5 -60t72 -101t27 -142q0 -84 -28.5 -145.5t-74.5 -101.5t-100.5 -60t-106.5 -20zM361 70q80 0 142 37t97.5 103t35.5 152q0 84 -33.5 149t-94 102
t-141.5 37q-79 0 -141.5 -37t-98 -102.5t-35.5 -152.5q0 -83 33.5 -148.5t94.5 -102.5t141 -37zM453 168q-6 0 -10 6t-7 13l-73 162h-52v-166q0 -7 -5.5 -10.5t-12.5 -3.5t-12.5 3.5t-5.5 10.5v367q0 5 3.5 9t9.5 5h84q28 0 50.5 -10t36.5 -33t14 -64q0 -50 -20 -74t-50 -30
l69 -159q2 -6 2 -7q0 -7 -6.5 -13t-14.5 -6zM311 380h61q29 0 47 17.5t18 57.5q0 41 -18 58t-47 17h-61v-150z" />
    <glyph glyph-name="uni0304" unicode="&#xaf;" horiz-adv-x="0" 
d="M17 647q-7 0 -12 5t-5 12q0 8 5 13t12 5h220q7 0 12.5 -5t5.5 -13q0 -7 -5.5 -12t-12.5 -5h-220z" />
    <glyph glyph-name="degree" unicode="&#xb0;" horiz-adv-x="429" 
d="M214 406q-47 0 -87.5 25.5t-65 67t-24.5 89.5t24 89t64.5 66t88.5 25t88.5 -24.5t65 -65t24.5 -90.5q0 -47 -24.5 -89t-65 -67.5t-88.5 -25.5zM214 444q39 0 70.5 20.5t50.5 53.5t19 70q0 36 -18.5 68.5t-50.5 53t-71 20.5t-70.5 -20.5t-50 -53t-18.5 -68.5
q0 -37 18.5 -70t50.5 -53.5t70 -20.5z" />
    <glyph glyph-name="plusminus" unicode="&#xb1;" horiz-adv-x="477" 
d="M239 168q-7 0 -12.5 5t-5.5 12v143h-143q-7 0 -12 5t-5 12q0 8 5 13t12 5h143v142q0 7 5.5 12.5t12.5 5.5q8 0 12.5 -5.5t4.5 -12.5v-142h142q7 0 12.5 -5t5.5 -13q0 -7 -5.5 -12t-12.5 -5h-142v-143q0 -7 -4.5 -12t-12.5 -5zM78 68q-7 0 -12 5t-5 12q0 8 5 13t12 5h320
q7 0 12.5 -5t5.5 -13q0 -7 -5.5 -12t-12.5 -5h-320z" />
    <glyph glyph-name="uni00B2" unicode="&#xb2;" horiz-adv-x="299" 
d="M53 365q-5 0 -10.5 3.5t-5.5 9.5v48q0 25 19 45t47.5 38.5l57 37t47.5 39.5t19 47q0 24 -19 45t-59 21q-30 0 -49.5 -14.5t-19.5 -44.5q0 -4 -5 -8.5t-13 -4.5q-7 0 -11.5 4.5t-4.5 15.5q0 25 13.5 43.5t37.5 29.5t53 11q33 0 57.5 -13t38.5 -35t14 -49q0 -32 -19 -56.5
t-47 -44t-56.5 -36.5t-47.5 -34t-19 -37v-30h181q5 0 9 -4.5t4 -10.5t-4 -11t-9 -5h-199z" />
    <glyph glyph-name="uni00B3" unicode="&#xb3;" horiz-adv-x="306" 
d="M149 362q-39 0 -64.5 13t-38 32t-12.5 38q0 11 4 14t11 3q11 0 14.5 -4t3.5 -10q0 -10 7 -23t24.5 -22.5t49.5 -9.5q40 0 61.5 18t21.5 57v9q0 35 -22 50.5t-60 15.5q-7 0 -10.5 4.5t-3.5 9.5q0 6 3.5 10.5t10.5 4.5q35 0 53 13.5t18 50.5q0 32 -16.5 48t-52.5 16
q-31 0 -46.5 -9t-21.5 -21t-6 -23q0 -7 -4 -11.5t-12 -4.5q-10 0 -13.5 4t-3.5 15q0 14 8.5 33t32 33.5t67.5 14.5q45 0 73 -20t28 -68q0 -34 -13 -55.5t-33 -29.5q25 -9 41 -28.5t16 -52.5v-9q0 -38 -15.5 -61.5t-41.5 -34t-58 -10.5z" />
    <glyph glyph-name="acute" unicode="&#xb4;" horiz-adv-x="133" 
d="M19 601q-7 0 -13 5.5t-6 12.5q0 9 8 13l102 60q4 2 7 2q8 0 12 -5.5t4 -12.5q0 -12 -10 -18l-95 -54q-2 -1 -4.5 -2t-4.5 -1z" />
    <glyph glyph-name="uni03BC" unicode="&#xb5;" horiz-adv-x="477" 
d="M94 -237q-7 0 -12 5t-5 12v674q0 7 5 12.5t12 5.5q8 0 13 -5.5t5 -12.5v-304q0 -16 12 -37t32.5 -40t46 -31.5t53.5 -12.5q36 0 67 21t49.5 54.5t18.5 69.5v280q0 9 5.5 13.5t11.5 4.5q7 0 12.5 -4.5t5.5 -13.5v-280q0 -49 -22.5 -90t-61.5 -65.5t-88 -24.5
q-50 0 -87.5 23.5t-54.5 52.5v-290q0 -7 -5 -12t-13 -5z" />
    <glyph glyph-name="paragraph" unicode="&#xb6;" horiz-adv-x="512" 
d="M300 0q-7 0 -12.5 4.5t-5.5 13.5v288h-48q-55 0 -99.5 20.5t-70.5 66t-26 120.5v12q0 75 26 120t70.5 65.5t99.5 20.5h177q7 0 12.5 -4.5t5.5 -13.5v-696q0 -9 -5.5 -13t-12.5 -4t-12.5 4t-5.5 13v678h-75v-677q0 -9 -5.5 -13.5t-12.5 -4.5z" />
    <glyph glyph-name="periodcentered" unicode="&#xb7;" horiz-adv-x="176" 
d="M89 264q-16 0 -26 11t-10 25q0 15 10 25.5t26 10.5q14 0 24.5 -10.5t10.5 -25.5q0 -14 -10.5 -25t-24.5 -11z" />
    <glyph glyph-name="cedilla" unicode="&#xb8;" horiz-adv-x="156" 
d="M74 -207q-12 0 -29.5 2.5t-31 8t-13.5 13.5q0 3 2 7.5t4.5 7.5t5.5 3q5 0 18 -6.5t38 -6.5q32 0 43.5 12.5t11.5 28.5q0 23 -19 33t-51 12l-29 2l24 99h32l-18 -74q51 -1 72.5 -22.5t21.5 -47.5q0 -18 -9.5 -34.5t-28 -27t-44.5 -10.5z" />
    <glyph glyph-name="uni00B9" unicode="&#xb9;" horiz-adv-x="158" 
d="M87 365q-7 0 -12 3t-5 10v296l-23 -32q-4 -6 -10 -6t-10 4.5t-4 9.5q0 4 3 9t4 6l45 59q5 7 14 7q5 0 9.5 -3.5t4.5 -9.5v-340q0 -7 -5 -10t-11 -3z" />
    <glyph glyph-name="ordmasculine" unicode="&#xba;" horiz-adv-x="320" 
d="M160 430q-31 0 -57.5 16.5t-42.5 43t-16 56.5v70q0 31 15.5 57t42 42t58.5 16q31 0 57.5 -15.5t42.5 -41.5t16 -58v-70q0 -30 -16 -56.5t-42.5 -43t-57.5 -16.5zM160 463q33 0 56.5 26t23.5 57v70q0 31 -23 56t-57 25t-57 -25t-23 -56v-70q0 -31 23 -57t57 -26z" />
    <glyph glyph-name="guillemotright" unicode="&#xbb;" horiz-adv-x="361" 
d="M205 74q-4 0 -8.5 2t-7 6t-2.5 9t3 9l96 177l-96 178q-3 5 -3 9q0 5 2 8.5t6 6t8 2.5q13 0 17 -9l96 -178q2 -4 3.5 -8t1.5 -9q0 -4 -1.5 -8.5t-3.5 -8.5l-96 -177q-5 -9 -15 -9zM59 74q-4 0 -8.5 2t-7 6t-2.5 9t3 9l96 177l-96 178q-3 5 -3 9q0 5 2 8.5t6 6t8 2.5
q13 0 17 -9l96 -178q2 -4 3.5 -8t1.5 -9q0 -4 -1.5 -8.5t-3.5 -8.5l-96 -177q-5 -9 -15 -9z" />
    <glyph glyph-name="onequarter" unicode="&#xbc;" horiz-adv-x="562" 
d="M87 365q-7 0 -12 3t-5 10v296l-23 -32q-4 -6 -10 -6t-10 4.5t-4 9.5q0 4 3 9t4 6l45 59q5 7 14 7q5 0 9.5 -3.5t4.5 -9.5v-340q0 -7 -5 -10t-11 -3zM31 -20q-6 0 -11 4t-5 11q0 6 2 9l391 756q4 8 13 8q6 0 12 -5.5t6 -13.5q0 -5 -3 -11l-388 -747q-3 -6 -7.5 -8.5
t-9.5 -2.5zM479 0q-6 0 -11 3t-5 10v73h-144q-6 0 -9.5 4t-3.5 10q0 2 2 8l141 247q3 5 7.5 8t8.5 3q6 0 11.5 -4t5.5 -10q0 -3 -2 -7l-131 -227h114v96q0 6 5 9t11 3q7 0 12 -3t5 -9v-96h31q7 0 10.5 -5t3.5 -11t-4 -11t-10 -5h-31v-73q0 -7 -5 -10t-12 -3z" />
    <glyph glyph-name="onehalf" unicode="&#xbd;" horiz-adv-x="587" 
d="M87 365q-7 0 -12 3t-5 10v296l-23 -32q-4 -6 -10 -6t-10 4.5t-4 9.5q0 4 3 9t4 6l45 59q5 7 14 7q5 0 9.5 -3.5t4.5 -9.5v-340q0 -7 -5 -10t-11 -3zM31 -20q-6 0 -11 4t-5 11q0 6 2 9l391 756q4 8 13 8q6 0 12 -5.5t6 -13.5q0 -5 -3 -11l-388 -747q-3 -6 -7.5 -8.5
t-9.5 -2.5zM341 0q-5 0 -10.5 3.5t-5.5 9.5v48q0 25 19 45t47.5 38.5l57 37t47.5 39.5t19 47q0 24 -19 45t-59 21q-30 0 -49.5 -14.5t-19.5 -44.5q0 -4 -5 -8.5t-13 -4.5q-7 0 -11.5 4.5t-4.5 15.5q0 25 13.5 43.5t37.5 29.5t53 11q33 0 57.5 -13t38.5 -35t14 -49
q0 -32 -19 -56.5t-47 -44t-56.5 -36.5t-47.5 -34t-19 -37v-30h181q5 0 9 -4.5t4 -10.5t-4 -11t-9 -5h-199z" />
    <glyph glyph-name="threequarters" unicode="&#xbe;" horiz-adv-x="710" 
d="M149 362q-39 0 -64.5 13t-38 32t-12.5 38q0 11 4 14t11 3q11 0 14.5 -4t3.5 -10q0 -10 7 -23t24.5 -22.5t49.5 -9.5q40 0 61.5 18t21.5 57v9q0 35 -22 50.5t-60 15.5q-7 0 -10.5 4.5t-3.5 9.5q0 6 3.5 10.5t10.5 4.5q35 0 53 13.5t18 50.5q0 32 -16.5 48t-52.5 16
q-31 0 -46.5 -9t-21.5 -21t-6 -23q0 -7 -4 -11.5t-12 -4.5q-10 0 -13.5 4t-3.5 15q0 14 8.5 33t32 33.5t67.5 14.5q45 0 73 -20t28 -68q0 -34 -13 -55.5t-33 -29.5q25 -9 41 -28.5t16 -52.5v-9q0 -38 -15.5 -61.5t-41.5 -34t-58 -10.5zM179 -20q-6 0 -11 4t-5 11q0 6 2 9
l391 756q4 8 13 8q6 0 12 -5.5t6 -13.5q0 -5 -3 -11l-388 -747q-3 -6 -7.5 -8.5t-9.5 -2.5zM627 0q-6 0 -11 3t-5 10v73h-144q-6 0 -9.5 4t-3.5 10q0 2 2 8l141 247q3 5 7.5 8t8.5 3q6 0 11.5 -4t5.5 -10q0 -3 -2 -7l-131 -227h114v96q0 6 5 9t11 3q7 0 12 -3t5 -9v-96h31
q7 0 10.5 -5t3.5 -11t-4 -11t-10 -5h-31v-73q0 -7 -5 -10t-12 -3z" />
    <glyph glyph-name="questiondown" unicode="&#xbf;" horiz-adv-x="383" 
d="M219 -6q-62 0 -102 24.5t-59.5 66t-19.5 91.5q0 51 16 87.5t39.5 64t47 49t38.5 40.5q13 17 18.5 38.5t7 51.5t1.5 71q0 9 5.5 13t11.5 4t11.5 -4t5.5 -13q0 -60 -4 -94.5t-11.5 -53.5t-19.5 -33q-16 -19 -38.5 -39.5t-44 -45t-35.5 -57.5t-14 -78q0 -68 37.5 -108
t112.5 -40q32 0 52.5 6t33.5 14t21 14t14 6q5 0 9.5 -4.5t4.5 -12.5q0 -12 -19.5 -25.5t-51.5 -23t-68 -9.5zM223 676q-14 0 -24.5 10.5t-10.5 25.5q0 14 10 25t25 11q16 0 26 -11t10 -25q0 -15 -10.5 -25.5t-25.5 -10.5z" />
    <glyph glyph-name="Agrave" unicode="&#xc0;" horiz-adv-x="521" 
d="M43 0q-4 0 -8.5 2t-7 5.5t-2.5 8.5q0 4 1 6l217 701q2 8 7 11t11 3t11.5 -3.5t7.5 -10.5l215 -701q1 -2 1 -5q0 -4 -3 -8t-7.5 -6.5t-9.5 -2.5t-9.5 3t-6.5 10l-51 164h-298l-50 -164q-2 -7 -7 -10t-11 -3zM122 213h276l-137 448zM308 860q-2 0 -4.5 1t-4.5 2l-95 54
q-10 6 -10 18q0 7 4.5 12.5t11.5 5.5q3 0 7 -2l102 -60q8 -4 8 -13q0 -7 -5.5 -12.5t-13.5 -5.5z" />
    <glyph glyph-name="Aacute" unicode="&#xc1;" horiz-adv-x="521" 
d="M43 0q-4 0 -8.5 2t-7 5.5t-2.5 8.5q0 4 1 6l217 701q2 8 7 11t11 3t11.5 -3.5t7.5 -10.5l215 -701q1 -2 1 -5q0 -4 -3 -8t-7.5 -6.5t-9.5 -2.5t-9.5 3t-6.5 10l-51 164h-298l-50 -164q-2 -7 -7 -10t-11 -3zM122 213h276l-137 448zM213 860q-7 0 -13 5.5t-6 12.5q0 9 8 13
l102 60q4 2 7 2q8 0 12 -5.5t4 -12.5q0 -12 -10 -18l-95 -54q-2 -1 -4.5 -2t-4.5 -1z" />
    <glyph glyph-name="Acircumflex" unicode="&#xc2;" horiz-adv-x="521" 
d="M43 0q-4 0 -8.5 2t-7 5.5t-2.5 8.5q0 4 1 6l217 701q2 8 7 11t11 3t11.5 -3.5t7.5 -10.5l215 -701q1 -2 1 -5q0 -4 -3 -8t-7.5 -6.5t-9.5 -2.5t-9.5 3t-6.5 10l-51 164h-298l-50 -164q-2 -7 -7 -10t-11 -3zM122 213h276l-137 448zM149 859q-7 0 -12.5 5.5t-5.5 13.5
q0 4 2.5 8t6.5 6l104 56q8 5 17 5t17 -5l104 -55q5 -2 7 -7t2 -10q0 -7 -5 -11.5t-12 -4.5q-2 0 -4.5 1t-4.5 2l-104 55l-104 -56l-4 -2t-4 -1z" />
    <glyph glyph-name="Atilde" unicode="&#xc3;" horiz-adv-x="521" 
d="M43 0q-4 0 -8.5 2t-7 5.5t-2.5 8.5q0 4 1 6l217 701q2 8 7 11t11 3t11.5 -3.5t7.5 -10.5l215 -701q1 -2 1 -5q0 -4 -3 -8t-7.5 -6.5t-9.5 -2.5t-9.5 3t-6.5 10l-51 164h-298l-50 -164q-2 -7 -7 -10t-11 -3zM122 213h276l-137 448zM324 878q-24 0 -42.5 9.5t-38.5 18.5
t-48 9q-21 0 -34 -8.5t-20.5 -17.5t-14.5 -9q-3 0 -6 2t-5 6t-2 9q0 10 8.5 19t22.5 16.5t29.5 12t28.5 4.5q25 0 44 -9t38.5 -18.5t44.5 -9.5q23 0 34 8t17 16t14 8q4 0 7 -2t5 -5t2 -8q0 -12 -8.5 -21t-21.5 -16t-27.5 -10.5t-26.5 -3.5z" />
    <glyph glyph-name="Adieresis" unicode="&#xc4;" horiz-adv-x="521" 
d="M43 0q-4 0 -8.5 2t-7 5.5t-2.5 8.5q0 4 1 6l217 701q2 8 7 11t11 3t11.5 -3.5t7.5 -10.5l215 -701q1 -2 1 -5q0 -4 -3 -8t-7.5 -6.5t-9.5 -2.5t-9.5 3t-6.5 10l-51 164h-298l-50 -164q-2 -7 -7 -10t-11 -3zM122 213h276l-137 448zM317 859q-13 0 -21.5 8.5t-8.5 21.5
t8.5 21t21.5 8t21 -8t8 -21t-8 -21.5t-21 -8.5zM206 859q-13 0 -21.5 8.5t-8.5 21.5t8.5 21t21.5 8t21 -8t8 -21t-8 -21.5t-21 -8.5z" />
    <glyph glyph-name="Aring" unicode="&#xc5;" horiz-adv-x="521" 
d="M43 0q-4 0 -8.5 2t-7 5.5t-2.5 8.5q0 4 1 6l217 701q2 8 7 11t11 3t11.5 -3.5t7.5 -10.5l215 -701q1 -2 1 -5q0 -4 -3 -8t-7.5 -6.5t-9.5 -2.5t-9.5 3t-6.5 10l-51 164h-298l-50 -164q-2 -7 -7 -10t-11 -3zM122 213h276l-137 448zM261 843q-25 0 -45.5 13t-32.5 34.5
t-12 45.5t12 44.5t32.5 33.5t45.5 13q24 0 44.5 -12.5t33 -33.5t12.5 -45t-12.5 -45.5t-33 -34.5t-44.5 -13zM261 866q26 0 45.5 22t19.5 48q0 23 -19.5 44t-45.5 21q-28 0 -47 -21t-19 -44q0 -26 19.5 -48t46.5 -22z" />
    <glyph glyph-name="AE" unicode="&#xc6;" horiz-adv-x="680" 
d="M97 0q-10 0 -14 6.5t-4 16.5v502q0 75 26 120t70.5 65.5t99.5 20.5h360q9 0 13 -5.5t4 -11.5q0 -7 -4.5 -13t-12.5 -6h-237v-311h160q8 0 12.5 -5.5t4.5 -13.5q0 -6 -4 -11.5t-13 -5.5h-160v-312h237q8 0 12.5 -5.5t4.5 -13.5q0 -6 -4 -11.5t-13 -5.5h-255
q-7 0 -12.5 4.5t-5.5 13.5v330h-247v-325q0 -10 -3 -16.5t-15 -6.5zM115 384h247v311h-87q-75 0 -117.5 -41.5t-42.5 -128.5v-141z" />
    <glyph glyph-name="Ccedilla" unicode="&#xc7;" horiz-adv-x="512" 
d="M272 -6q-53 0 -98 20.5t-71.5 65.5t-26.5 120v325q0 75 27.5 120t72.5 65.5t99 20.5q64 0 106.5 -23t64 -59t21.5 -75q0 -17 -4.5 -22.5t-13.5 -5.5q-13 0 -15.5 6.5t-2.5 11.5q-1 18 -7.5 40.5t-23 43t-47 34t-79.5 13.5q-79 0 -120.5 -41.5t-41.5 -128.5v-325
q0 -88 42 -129t124 -41q50 0 79 13t44 33t21 43t9 42q1 7 4 12.5t14 5.5q9 0 13.5 -6t4.5 -23q0 -38 -22 -74t-65.5 -59t-107.5 -23zM305 -207q-12 0 -29.5 2.5t-31 8t-13.5 13.5q0 3 2 7.5t4.5 7.5t5.5 3q5 0 18 -6.5t38 -6.5q32 0 43.5 12.5t11.5 28.5q0 23 -19 33t-51 12
l-29 2l24 99h32l-18 -74q51 -1 72.5 -22.5t21.5 -47.5q0 -18 -9.5 -34.5t-28 -27t-44.5 -10.5z" />
    <glyph glyph-name="Egrave" unicode="&#xc8;" horiz-adv-x="498" 
d="M101 0q-7 0 -12.5 4.5t-5.5 13.5v695q0 9 5.5 13.5t12.5 4.5h356q9 0 13 -5.5t4 -11.5q0 -7 -4.5 -13t-12.5 -6h-338v-311h160q8 0 12.5 -5.5t4.5 -13.5q0 -6 -4 -11.5t-13 -5.5h-160v-312h338q8 0 12.5 -5.5t4.5 -13.5q0 -6 -4 -11.5t-13 -5.5h-356zM327 860
q-2 0 -4.5 1t-4.5 2l-95 54q-10 6 -10 18q0 7 4.5 12.5t11.5 5.5q3 0 7 -2l102 -60q8 -4 8 -13q0 -7 -5.5 -12.5t-13.5 -5.5z" />
    <glyph glyph-name="Eacute" unicode="&#xc9;" horiz-adv-x="498" 
d="M101 0q-7 0 -12.5 4.5t-5.5 13.5v695q0 9 5.5 13.5t12.5 4.5h356q9 0 13 -5.5t4 -11.5q0 -7 -4.5 -13t-12.5 -6h-338v-311h160q8 0 12.5 -5.5t4.5 -13.5q0 -6 -4 -11.5t-13 -5.5h-160v-312h338q8 0 12.5 -5.5t4.5 -13.5q0 -6 -4 -11.5t-13 -5.5h-356zM232 860
q-7 0 -13 5.5t-6 12.5q0 9 8 13l102 60q4 2 7 2q8 0 12 -5.5t4 -12.5q0 -12 -10 -18l-95 -54q-2 -1 -4.5 -2t-4.5 -1z" />
    <glyph glyph-name="Ecircumflex" unicode="&#xca;" horiz-adv-x="498" 
d="M101 0q-7 0 -12.5 4.5t-5.5 13.5v695q0 9 5.5 13.5t12.5 4.5h356q9 0 13 -5.5t4 -11.5q0 -7 -4.5 -13t-12.5 -6h-338v-311h160q8 0 12.5 -5.5t4.5 -13.5q0 -6 -4 -11.5t-13 -5.5h-160v-312h338q8 0 12.5 -5.5t4.5 -13.5q0 -6 -4 -11.5t-13 -5.5h-356zM168 859
q-7 0 -12.5 5.5t-5.5 13.5q0 4 2.5 8t6.5 6l104 56q8 5 17 5t17 -5l104 -55q5 -2 7 -7t2 -10q0 -7 -5 -11.5t-12 -4.5q-2 0 -4.5 1t-4.5 2l-104 55l-104 -56l-4 -2t-4 -1z" />
    <glyph glyph-name="Edieresis" unicode="&#xcb;" horiz-adv-x="498" 
d="M101 0q-7 0 -12.5 4.5t-5.5 13.5v695q0 9 5.5 13.5t12.5 4.5h356q9 0 13 -5.5t4 -11.5q0 -7 -4.5 -13t-12.5 -6h-338v-311h160q8 0 12.5 -5.5t4.5 -13.5q0 -6 -4 -11.5t-13 -5.5h-160v-312h338q8 0 12.5 -5.5t4.5 -13.5q0 -6 -4 -11.5t-13 -5.5h-356zM336 859
q-13 0 -21.5 8.5t-8.5 21.5t8.5 21t21.5 8t21 -8t8 -21t-8 -21.5t-21 -8.5zM225 859q-13 0 -21.5 8.5t-8.5 21.5t8.5 21t21.5 8t21 -8t8 -21t-8 -21.5t-21 -8.5z" />
    <glyph glyph-name="Igrave" unicode="&#xcc;" horiz-adv-x="202" 
d="M101 0q-7 0 -12.5 4.5t-5.5 13.5v696q0 9 5.5 13t12.5 4t12.5 -4t5.5 -13v-696q0 -9 -5.5 -13.5t-12.5 -4.5zM148 860q-2 0 -4.5 1t-4.5 2l-95 54q-10 6 -10 18q0 7 4.5 12.5t11.5 5.5q3 0 7 -2l102 -60q8 -4 8 -13q0 -7 -5.5 -12.5t-13.5 -5.5z" />
    <glyph glyph-name="Iacute" unicode="&#xcd;" horiz-adv-x="202" 
d="M101 0q-7 0 -12.5 4.5t-5.5 13.5v696q0 9 5.5 13t12.5 4t12.5 -4t5.5 -13v-696q0 -9 -5.5 -13.5t-12.5 -4.5zM53 860q-7 0 -13 5.5t-6 12.5q0 9 8 13l102 60q4 2 7 2q8 0 12 -5.5t4 -12.5q0 -12 -10 -18l-95 -54q-2 -1 -4.5 -2t-4.5 -1z" />
    <glyph glyph-name="Icircumflex" unicode="&#xce;" horiz-adv-x="202" 
d="M101 0q-7 0 -12.5 4.5t-5.5 13.5v696q0 9 5.5 13t12.5 4t12.5 -4t5.5 -13v-696q0 -9 -5.5 -13.5t-12.5 -4.5zM-11 859q-7 0 -12.5 5.5t-5.5 13.5q0 4 2.5 8t6.5 6l104 56q8 5 17 5t17 -5l104 -55q5 -2 7 -7t2 -10q0 -7 -5 -11.5t-12 -4.5q-2 0 -4.5 1t-4.5 2l-104 55
l-104 -56l-4 -2t-4 -1z" />
    <glyph glyph-name="Idieresis" unicode="&#xcf;" horiz-adv-x="202" 
d="M101 0q-7 0 -12.5 4.5t-5.5 13.5v696q0 9 5.5 13t12.5 4t12.5 -4t5.5 -13v-696q0 -9 -5.5 -13.5t-12.5 -4.5zM157 859q-13 0 -21.5 8.5t-8.5 21.5t8.5 21t21.5 8t21 -8t8 -21t-8 -21.5t-21 -8.5zM46 859q-13 0 -21.5 8.5t-8.5 21.5t8.5 21t21.5 8t21 -8t8 -21t-8 -21.5
t-21 -8.5z" />
    <glyph glyph-name="Eth" unicode="&#xd0;" horiz-adv-x="560" 
d="M111 0q-8 0 -13 5t-5 12v350h-73q-7 0 -12 5t-5 12q0 8 5 13t12 5h73v312q0 7 5 12t13 5h177q55 0 99.5 -20.5t70.5 -65.5t26 -120v-319q0 -75 -26 -120t-70.5 -65.5t-99.5 -20.5h-177zM129 36h159q75 0 117.5 41.5t42.5 128.5v319q0 87 -42.5 128.5t-117.5 41.5h-159
v-293h131q7 0 12.5 -5t5.5 -13q0 -7 -5.5 -12t-12.5 -5h-131v-331z" />
    <glyph glyph-name="Ntilde" unicode="&#xd1;" horiz-adv-x="557" 
d="M101 0q-7 0 -12.5 4.5t-5.5 13.5v696q0 10 5.5 13.5t12.5 3.5t13 -7t11 -15.5t7 -13.5l306 -606v625q0 9 5.5 13t12.5 4t12.5 -4t5.5 -13v-696q0 -9 -5.5 -13.5t-12.5 -4.5q-10 0 -17 13t-12 23l-308 607v-625q0 -9 -5.5 -13.5t-12.5 -4.5zM342 878q-24 0 -42.5 9.5
t-38.5 18.5t-48 9q-21 0 -34 -8.5t-20.5 -17.5t-14.5 -9q-3 0 -6 2t-5 6t-2 9q0 10 8.5 19t22.5 16.5t29.5 12t28.5 4.5q25 0 44 -9t38.5 -18.5t44.5 -9.5q23 0 34 8t17 16t14 8q4 0 7 -2t5 -5t2 -8q0 -12 -8.5 -21t-21.5 -16t-27.5 -10.5t-26.5 -3.5z" />
    <glyph glyph-name="Ograve" unicode="&#xd2;" horiz-adv-x="543" 
d="M271 -6q-55 0 -99 20.5t-70 65.5t-26 120v325q0 75 26 120t70 65.5t99 20.5t99.5 -20.5t70.5 -65.5t26 -120v-325q0 -75 -26 -120t-70.5 -65.5t-99.5 -20.5zM271 30q75 0 117.5 41.5t42.5 128.5v325q0 87 -42.5 128.5t-117.5 41.5t-117 -41.5t-42 -128.5v-325
q0 -87 42 -128.5t117 -41.5zM319 860q-2 0 -4.5 1t-4.5 2l-95 54q-10 6 -10 18q0 7 4.5 12.5t11.5 5.5q3 0 7 -2l102 -60q8 -4 8 -13q0 -7 -5.5 -12.5t-13.5 -5.5z" />
    <glyph glyph-name="Oacute" unicode="&#xd3;" horiz-adv-x="543" 
d="M271 -6q-55 0 -99 20.5t-70 65.5t-26 120v325q0 75 26 120t70 65.5t99 20.5t99.5 -20.5t70.5 -65.5t26 -120v-325q0 -75 -26 -120t-70.5 -65.5t-99.5 -20.5zM271 30q75 0 117.5 41.5t42.5 128.5v325q0 87 -42.5 128.5t-117.5 41.5t-117 -41.5t-42 -128.5v-325
q0 -87 42 -128.5t117 -41.5zM224 860q-7 0 -13 5.5t-6 12.5q0 9 8 13l102 60q4 2 7 2q8 0 12 -5.5t4 -12.5q0 -12 -10 -18l-95 -54q-2 -1 -4.5 -2t-4.5 -1z" />
    <glyph glyph-name="Ocircumflex" unicode="&#xd4;" horiz-adv-x="543" 
d="M271 -6q-55 0 -99 20.5t-70 65.5t-26 120v325q0 75 26 120t70 65.5t99 20.5t99.5 -20.5t70.5 -65.5t26 -120v-325q0 -75 -26 -120t-70.5 -65.5t-99.5 -20.5zM271 30q75 0 117.5 41.5t42.5 128.5v325q0 87 -42.5 128.5t-117.5 41.5t-117 -41.5t-42 -128.5v-325
q0 -87 42 -128.5t117 -41.5zM160 859q-7 0 -12.5 5.5t-5.5 13.5q0 4 2.5 8t6.5 6l104 56q8 5 17 5t17 -5l104 -55q5 -2 7 -7t2 -10q0 -7 -5 -11.5t-12 -4.5q-2 0 -4.5 1t-4.5 2l-104 55l-104 -56l-4 -2t-4 -1z" />
    <glyph glyph-name="Otilde" unicode="&#xd5;" horiz-adv-x="543" 
d="M271 -6q-55 0 -99 20.5t-70 65.5t-26 120v325q0 75 26 120t70 65.5t99 20.5t99.5 -20.5t70.5 -65.5t26 -120v-325q0 -75 -26 -120t-70.5 -65.5t-99.5 -20.5zM271 30q75 0 117.5 41.5t42.5 128.5v325q0 87 -42.5 128.5t-117.5 41.5t-117 -41.5t-42 -128.5v-325
q0 -87 42 -128.5t117 -41.5zM335 878q-24 0 -42.5 9.5t-38.5 18.5t-48 9q-21 0 -34 -8.5t-20.5 -17.5t-14.5 -9q-3 0 -6 2t-5 6t-2 9q0 10 8.5 19t22.5 16.5t29.5 12t28.5 4.5q25 0 44 -9t38.5 -18.5t44.5 -9.5q23 0 34 8t17 16t14 8q4 0 7 -2t5 -5t2 -8q0 -12 -8.5 -21
t-21.5 -16t-27.5 -10.5t-26.5 -3.5z" />
    <glyph glyph-name="Odieresis" unicode="&#xd6;" horiz-adv-x="543" 
d="M271 -6q-55 0 -99 20.5t-70 65.5t-26 120v325q0 75 26 120t70 65.5t99 20.5t99.5 -20.5t70.5 -65.5t26 -120v-325q0 -75 -26 -120t-70.5 -65.5t-99.5 -20.5zM271 30q75 0 117.5 41.5t42.5 128.5v325q0 87 -42.5 128.5t-117.5 41.5t-117 -41.5t-42 -128.5v-325
q0 -87 42 -128.5t117 -41.5zM328 859q-13 0 -21.5 8.5t-8.5 21.5t8.5 21t21.5 8t21 -8t8 -21t-8 -21.5t-21 -8.5zM217 859q-13 0 -21.5 8.5t-8.5 21.5t8.5 21t21.5 8t21 -8t8 -21t-8 -21.5t-21 -8.5z" />
    <glyph glyph-name="multiply" unicode="&#xd7;" horiz-adv-x="393" 
d="M83 145q-4 0 -8 2.5t-6.5 6.5t-2.5 8q0 7 5 12l101 101l-101 101q-5 5 -5 13q0 7 5 12t12 5q8 0 13 -5l100 -101l101 101q5 5 13 5q7 0 12 -5t5 -12q0 -8 -5 -13l-101 -101l101 -101q5 -5 5 -12q0 -4 -2 -8t-6 -6.5t-9 -2.5q-7 0 -12 5l-102 101l-101 -101q-5 -5 -12 -5z
" />
    <glyph glyph-name="Oslash" unicode="&#xd8;" horiz-adv-x="543" 
d="M271 -6q-55 0 -99 20.5t-70 65.5t-26 120v325q0 75 26 120t70 65.5t99 20.5t99.5 -20.5t70.5 -65.5t26 -120v-325q0 -75 -26 -120t-70.5 -65.5t-99.5 -20.5zM271 30q75 0 117.5 41.5t42.5 128.5v325q0 87 -42.5 128.5t-117.5 41.5t-117 -41.5t-42 -128.5v-325
q0 -87 42 -128.5t117 -41.5zM75 -20q-6 0 -11 4t-5 11q0 6 2 9l391 756q4 8 13 8q6 0 12 -5.5t6 -13.5q0 -5 -3 -11l-388 -747q-3 -6 -7.5 -8.5t-9.5 -2.5z" />
    <glyph glyph-name="Ugrave" unicode="&#xd9;" horiz-adv-x="549" 
d="M274 -6q-55 0 -99 20.5t-70 65.5t-26 120v514q0 9 5.5 13t12.5 4t12.5 -4t5.5 -13v-514q0 -87 42 -128.5t117 -41.5t117.5 41.5t42.5 128.5v514q0 9 5.5 13t12.5 4t12.5 -4t5.5 -13v-514q0 -75 -26 -120t-70.5 -65.5t-99.5 -20.5zM322 860q-2 0 -4.5 1t-4.5 2l-95 54
q-10 6 -10 18q0 7 4.5 12.5t11.5 5.5q3 0 7 -2l102 -60q8 -4 8 -13q0 -7 -5.5 -12.5t-13.5 -5.5z" />
    <glyph glyph-name="Uacute" unicode="&#xda;" horiz-adv-x="549" 
d="M274 -6q-55 0 -99 20.5t-70 65.5t-26 120v514q0 9 5.5 13t12.5 4t12.5 -4t5.5 -13v-514q0 -87 42 -128.5t117 -41.5t117.5 41.5t42.5 128.5v514q0 9 5.5 13t12.5 4t12.5 -4t5.5 -13v-514q0 -75 -26 -120t-70.5 -65.5t-99.5 -20.5zM227 860q-7 0 -13 5.5t-6 12.5q0 9 8 13
l102 60q4 2 7 2q8 0 12 -5.5t4 -12.5q0 -12 -10 -18l-95 -54q-2 -1 -4.5 -2t-4.5 -1z" />
    <glyph glyph-name="Ucircumflex" unicode="&#xdb;" horiz-adv-x="549" 
d="M274 -6q-55 0 -99 20.5t-70 65.5t-26 120v514q0 9 5.5 13t12.5 4t12.5 -4t5.5 -13v-514q0 -87 42 -128.5t117 -41.5t117.5 41.5t42.5 128.5v514q0 9 5.5 13t12.5 4t12.5 -4t5.5 -13v-514q0 -75 -26 -120t-70.5 -65.5t-99.5 -20.5zM163 859q-7 0 -12.5 5.5t-5.5 13.5
q0 4 2.5 8t6.5 6l104 56q8 5 17 5t17 -5l104 -55q5 -2 7 -7t2 -10q0 -7 -5 -11.5t-12 -4.5q-2 0 -4.5 1t-4.5 2l-104 55l-104 -56l-4 -2t-4 -1z" />
    <glyph glyph-name="Udieresis" unicode="&#xdc;" horiz-adv-x="549" 
d="M274 -6q-55 0 -99 20.5t-70 65.5t-26 120v514q0 9 5.5 13t12.5 4t12.5 -4t5.5 -13v-514q0 -87 42 -128.5t117 -41.5t117.5 41.5t42.5 128.5v514q0 9 5.5 13t12.5 4t12.5 -4t5.5 -13v-514q0 -75 -26 -120t-70.5 -65.5t-99.5 -20.5zM331 859q-13 0 -21.5 8.5t-8.5 21.5
t8.5 21t21.5 8t21 -8t8 -21t-8 -21.5t-21 -8.5zM220 859q-13 0 -21.5 8.5t-8.5 21.5t8.5 21t21.5 8t21 -8t8 -21t-8 -21.5t-21 -8.5z" />
    <glyph glyph-name="Yacute" unicode="&#xdd;" horiz-adv-x="509" 
d="M254 0q-7 0 -12.5 4.5t-5.5 13.5v255q0 4 -1 6l-207 416q-3 6 -4.5 11t-1.5 9q0 5 2 8.5t4.5 5.5t6.5 2q5 0 10.5 -4t9.5 -13l199 -401l200 401q5 9 10.5 13t9.5 4t6.5 -2t4 -5.5t1.5 -8.5q0 -4 -1 -9t-4 -11l-208 -416q-1 -2 -1 -6v-255q0 -9 -5.5 -13.5t-12.5 -4.5z
M207 860q-7 0 -13 5.5t-6 12.5q0 9 8 13l102 60q4 2 7 2q8 0 12 -5.5t4 -12.5q0 -12 -10 -18l-95 -54q-2 -1 -4.5 -2t-4.5 -1z" />
    <glyph glyph-name="Thorn" unicode="&#xde;" horiz-adv-x="483" 
d="M101 0q-7 0 -12.5 5.5t-5.5 12.5v697q0 8 5 12t12 4q8 0 13 -4.5t5 -12.5v-172q17 31 52.5 53.5t90.5 22.5q44 0 83 -16t63.5 -48.5t24.5 -80.5v-192q0 -48 -25 -80.5t-63 -49.5t-78 -17q-31 0 -62 10t-54 27.5t-32 40.5v-194q0 -7 -5 -12.5t-12 -5.5zM263 169
q33 0 64 12t50.5 37t19.5 63v192q0 38 -19.5 62t-50 36t-64.5 12q-38 0 -71.5 -14t-53.5 -38.5t-20 -57.5v-192q0 -27 19 -52.5t51.5 -42.5t74.5 -17z" />
    <glyph glyph-name="germandbls" unicode="&#xdf;" horiz-adv-x="528" 
d="M319 -20q-9 0 -27 1.5t-37 5.5t-32 11t-13 18q0 5 2 8.5t5.5 6t7.5 2.5q10 0 28 -11t56 -11q65 0 104 47t39 138v19q0 35 -15 74.5t-51.5 69t-101.5 33.5q-14 1 -22.5 3.5t-8.5 12.5q0 12 9.5 15t22.5 4q32 2 51 17.5t29 38.5t13.5 48t3.5 46q0 73 -30.5 114.5
t-92.5 41.5q-44 0 -70 -20.5t-37 -53t-11 -69.5v-573q0 -7 -5.5 -12t-13.5 -5q-7 0 -11.5 5t-4.5 12v420h-81q-7 0 -12 5t-5 12q0 8 5 13t12 5h81v118q0 48 15.5 88.5t49.5 65t88 24.5q45 0 81 -19t56.5 -58.5t20.5 -101.5q0 -36 -8 -72.5t-24 -64.5t-41 -39q33 -6 65 -34
t53.5 -70.5t21.5 -93.5v-19q0 -75 -24 -122.5t-62 -70.5t-79 -23z" />
    <glyph glyph-name="agrave" unicode="&#xe0;" horiz-adv-x="423" 
d="M174 -6q-58 0 -98.5 32.5t-40.5 99.5q0 53 29.5 81.5t82 39.5t121.5 11h56v28q0 38 -13 74t-42 59.5t-77 23.5q-31 0 -52 -6.5t-33.5 -13.5t-18.5 -7q-8 0 -13 7.5t-5 12.5q0 10 18.5 19.5t47 16t58.5 6.5q62 0 98 -27.5t51.5 -71t15.5 -93.5v-268q0 -7 -4.5 -12.5
t-12.5 -5.5q-7 0 -12.5 5.5t-5.5 12.5v52q-25 -29 -62.5 -52.5t-87.5 -23.5zM173 29q38 0 72.5 18.5t56.5 44.5t22 47v84h-55q-51 0 -96.5 -6t-74 -26.5t-28.5 -64.5q0 -50 30 -73.5t73 -23.5zM259 601q-2 0 -4.5 1t-4.5 2l-95 54q-10 6 -10 18q0 7 4.5 12.5t11.5 5.5
q3 0 7 -2l102 -60q8 -4 8 -13q0 -7 -5.5 -12.5t-13.5 -5.5z" />
    <glyph glyph-name="aacute" unicode="&#xe1;" horiz-adv-x="423" 
d="M174 -6q-58 0 -98.5 32.5t-40.5 99.5q0 53 29.5 81.5t82 39.5t121.5 11h56v28q0 38 -13 74t-42 59.5t-77 23.5q-31 0 -52 -6.5t-33.5 -13.5t-18.5 -7q-8 0 -13 7.5t-5 12.5q0 10 18.5 19.5t47 16t58.5 6.5q62 0 98 -27.5t51.5 -71t15.5 -93.5v-268q0 -7 -4.5 -12.5
t-12.5 -5.5q-7 0 -12.5 5.5t-5.5 12.5v52q-25 -29 -62.5 -52.5t-87.5 -23.5zM173 29q38 0 72.5 18.5t56.5 44.5t22 47v84h-55q-51 0 -96.5 -6t-74 -26.5t-28.5 -64.5q0 -50 30 -73.5t73 -23.5zM164 601q-7 0 -13 5.5t-6 12.5q0 9 8 13l102 60q4 2 7 2q8 0 12 -5.5t4 -12.5
q0 -12 -10 -18l-95 -54q-2 -1 -4.5 -2t-4.5 -1z" />
    <glyph glyph-name="acircumflex" unicode="&#xe2;" horiz-adv-x="423" 
d="M174 -6q-58 0 -98.5 32.5t-40.5 99.5q0 53 29.5 81.5t82 39.5t121.5 11h56v28q0 38 -13 74t-42 59.5t-77 23.5q-31 0 -52 -6.5t-33.5 -13.5t-18.5 -7q-8 0 -13 7.5t-5 12.5q0 10 18.5 19.5t47 16t58.5 6.5q62 0 98 -27.5t51.5 -71t15.5 -93.5v-268q0 -7 -4.5 -12.5
t-12.5 -5.5q-7 0 -12.5 5.5t-5.5 12.5v52q-25 -29 -62.5 -52.5t-87.5 -23.5zM173 29q38 0 72.5 18.5t56.5 44.5t22 47v84h-55q-51 0 -96.5 -6t-74 -26.5t-28.5 -64.5q0 -50 30 -73.5t73 -23.5zM100 600q-7 0 -12.5 5.5t-5.5 13.5q0 4 2.5 8t6.5 6l104 56q8 5 17 5t17 -5
l104 -55q5 -2 7 -7t2 -10q0 -7 -5 -11.5t-12 -4.5q-2 0 -4.5 1t-4.5 2l-104 55l-104 -56l-4 -2t-4 -1z" />
    <glyph glyph-name="atilde" unicode="&#xe3;" horiz-adv-x="423" 
d="M174 -6q-58 0 -98.5 32.5t-40.5 99.5q0 53 29.5 81.5t82 39.5t121.5 11h56v28q0 38 -13 74t-42 59.5t-77 23.5q-31 0 -52 -6.5t-33.5 -13.5t-18.5 -7q-8 0 -13 7.5t-5 12.5q0 10 18.5 19.5t47 16t58.5 6.5q62 0 98 -27.5t51.5 -71t15.5 -93.5v-268q0 -7 -4.5 -12.5
t-12.5 -5.5q-7 0 -12.5 5.5t-5.5 12.5v52q-25 -29 -62.5 -52.5t-87.5 -23.5zM173 29q38 0 72.5 18.5t56.5 44.5t22 47v84h-55q-51 0 -96.5 -6t-74 -26.5t-28.5 -64.5q0 -50 30 -73.5t73 -23.5zM275 619q-24 0 -42.5 9.5t-38.5 18.5t-48 9q-21 0 -34 -8.5t-20.5 -17.5
t-14.5 -9q-3 0 -6 2t-5 6t-2 9q0 10 8.5 19t22.5 16.5t29.5 12t28.5 4.5q25 0 44 -9t38.5 -18.5t44.5 -9.5q23 0 34 8t17 16t14 8q4 0 7 -2t5 -5t2 -8q0 -12 -8.5 -21t-21.5 -16t-27.5 -10.5t-26.5 -3.5z" />
    <glyph glyph-name="adieresis" unicode="&#xe4;" horiz-adv-x="423" 
d="M174 -6q-58 0 -98.5 32.5t-40.5 99.5q0 53 29.5 81.5t82 39.5t121.5 11h56v28q0 38 -13 74t-42 59.5t-77 23.5q-31 0 -52 -6.5t-33.5 -13.5t-18.5 -7q-8 0 -13 7.5t-5 12.5q0 10 18.5 19.5t47 16t58.5 6.5q62 0 98 -27.5t51.5 -71t15.5 -93.5v-268q0 -7 -4.5 -12.5
t-12.5 -5.5q-7 0 -12.5 5.5t-5.5 12.5v52q-25 -29 -62.5 -52.5t-87.5 -23.5zM173 29q38 0 72.5 18.5t56.5 44.5t22 47v84h-55q-51 0 -96.5 -6t-74 -26.5t-28.5 -64.5q0 -50 30 -73.5t73 -23.5zM268 600q-13 0 -21.5 8.5t-8.5 21.5t8.5 21t21.5 8t21 -8t8 -21t-8 -21.5
t-21 -8.5zM157 600q-13 0 -21.5 8.5t-8.5 21.5t8.5 21t21.5 8t21 -8t8 -21t-8 -21.5t-21 -8.5z" />
    <glyph glyph-name="aring" unicode="&#xe5;" horiz-adv-x="423" 
d="M174 -6q-58 0 -98.5 32.5t-40.5 99.5q0 53 29.5 81.5t82 39.5t121.5 11h56v28q0 38 -13 74t-42 59.5t-77 23.5q-31 0 -52 -6.5t-33.5 -13.5t-18.5 -7q-8 0 -13 7.5t-5 12.5q0 10 18.5 19.5t47 16t58.5 6.5q62 0 98 -27.5t51.5 -71t15.5 -93.5v-268q0 -7 -4.5 -12.5
t-12.5 -5.5q-7 0 -12.5 5.5t-5.5 12.5v52q-25 -29 -62.5 -52.5t-87.5 -23.5zM173 29q38 0 72.5 18.5t56.5 44.5t22 47v84h-55q-51 0 -96.5 -6t-74 -26.5t-28.5 -64.5q0 -50 30 -73.5t73 -23.5zM212 584q-25 0 -45.5 13t-32.5 34.5t-12 45.5t12 44.5t32.5 33.5t45.5 13
q24 0 44.5 -12.5t33 -33.5t12.5 -45t-12.5 -45.5t-33 -34.5t-44.5 -13zM212 607q26 0 45.5 22t19.5 48q0 23 -19.5 44t-45.5 21q-28 0 -47 -21t-19 -44q0 -26 19.5 -48t46.5 -22z" />
    <glyph glyph-name="ae" unicode="&#xe6;" horiz-adv-x="719" 
d="M171 -6q-36 0 -67 14t-50 43.5t-19 73.5q0 54 29 82.5t81 39.5t121 11h56v29q0 38 -13 74t-42.5 59.5t-79.5 23.5q-28 0 -49 -6.5t-34 -13.5t-19 -7q-7 0 -12 7.5t-5 12.5q0 10 18.5 19.5t47 16t58.5 6.5q62 0 98.5 -28.5t52.5 -72.5q22 43 64 71.5t94 28.5q28 0 59 -10
t58 -33t44 -60t17 -91q0 -25 -6 -38.5t-24 -18t-53 -4.5h-235v-47q0 -68 47.5 -107.5t117.5 -39.5q41 0 63.5 10.5t35 20.5t21.5 10q4 0 8 -2t7 -6t3 -10q0 -14 -24 -27.5t-58.5 -22t-67.5 -8.5q-55 0 -102.5 27t-70.5 77q-31 -58 -78.5 -81t-91.5 -23zM172 29q42 0 76 19
t54 45t20 46v84h-55q-53 0 -98 -6t-72 -27t-27 -66q0 -47 29.5 -71t72.5 -24zM361 258h223q40 0 50 7.5t10 27.5q0 38 -17.5 72t-49.5 56t-75 22q-40 0 -72 -19.5t-50.5 -51.5t-18.5 -70v-44z" />
    <glyph glyph-name="ccedilla" unicode="&#xe7;" horiz-adv-x="402" 
d="M235 -6q-62 0 -102.5 24t-60.5 65t-20 93v120q0 51 19.5 92.5t60.5 65.5t103 24q40 0 69.5 -10.5t45.5 -24t16 -24.5q0 -4 -2.5 -8t-6.5 -6.5t-9 -2.5q-8 0 -19.5 10.5t-32.5 20.5t-61 10q-72 0 -110 -39.5t-38 -107.5v-120q0 -68 38 -107.5t111 -39.5q42 0 64.5 10.5
t34 20.5t20.5 10q5 0 8.5 -2.5t6 -6t2.5 -8.5q0 -10 -16.5 -24t-47 -24.5t-73.5 -10.5zM242 -207q-12 0 -29.5 2.5t-31 8t-13.5 13.5q0 3 2 7.5t4.5 7.5t5.5 3q5 0 18 -6.5t38 -6.5q32 0 43.5 12.5t11.5 28.5q0 23 -19 33t-51 12l-29 2l24 99h32l-18 -74q51 -1 72.5 -22.5
t21.5 -47.5q0 -18 -9.5 -34.5t-28 -27t-44.5 -10.5z" />
    <glyph glyph-name="egrave" unicode="&#xe8;" horiz-adv-x="445" 
d="M253 -6q-59 0 -104.5 23t-71.5 63.5t-26 95.5v125q0 48 24.5 88.5t65 64.5t88.5 24q47 0 87.5 -23.5t65 -64t24.5 -92.5q0 -36 -12 -52t-30.5 -19.5t-40.5 -3.5h-237v-47q0 -68 48 -107.5t121 -39.5q42 0 64 10.5t33.5 20.5t20.5 10q5 0 9 -3t6.5 -7t2.5 -8
q0 -9 -16.5 -23t-47.5 -24.5t-74 -10.5zM86 258h225q37 0 48.5 7t11.5 30q0 36 -17.5 70t-49.5 56t-75 22q-40 0 -72.5 -20t-51.5 -52t-19 -70v-43zM276 601q-2 0 -4.5 1t-4.5 2l-95 54q-10 6 -10 18q0 7 4.5 12.5t11.5 5.5q3 0 7 -2l102 -60q8 -4 8 -13q0 -7 -5.5 -12.5
t-13.5 -5.5z" />
    <glyph glyph-name="eacute" unicode="&#xe9;" horiz-adv-x="445" 
d="M253 -6q-59 0 -104.5 23t-71.5 63.5t-26 95.5v125q0 48 24.5 88.5t65 64.5t88.5 24q47 0 87.5 -23.5t65 -64t24.5 -92.5q0 -36 -12 -52t-30.5 -19.5t-40.5 -3.5h-237v-47q0 -68 48 -107.5t121 -39.5q42 0 64 10.5t33.5 20.5t20.5 10q5 0 9 -3t6.5 -7t2.5 -8
q0 -9 -16.5 -23t-47.5 -24.5t-74 -10.5zM86 258h225q37 0 48.5 7t11.5 30q0 36 -17.5 70t-49.5 56t-75 22q-40 0 -72.5 -20t-51.5 -52t-19 -70v-43zM181 601q-7 0 -13 5.5t-6 12.5q0 9 8 13l102 60q4 2 7 2q8 0 12 -5.5t4 -12.5q0 -12 -10 -18l-95 -54q-2 -1 -4.5 -2
t-4.5 -1z" />
    <glyph glyph-name="ecircumflex" unicode="&#xea;" horiz-adv-x="445" 
d="M253 -6q-59 0 -104.5 23t-71.5 63.5t-26 95.5v125q0 48 24.5 88.5t65 64.5t88.5 24q47 0 87.5 -23.5t65 -64t24.5 -92.5q0 -36 -12 -52t-30.5 -19.5t-40.5 -3.5h-237v-47q0 -68 48 -107.5t121 -39.5q42 0 64 10.5t33.5 20.5t20.5 10q5 0 9 -3t6.5 -7t2.5 -8
q0 -9 -16.5 -23t-47.5 -24.5t-74 -10.5zM86 258h225q37 0 48.5 7t11.5 30q0 36 -17.5 70t-49.5 56t-75 22q-40 0 -72.5 -20t-51.5 -52t-19 -70v-43zM117 600q-7 0 -12.5 5.5t-5.5 13.5q0 4 2.5 8t6.5 6l104 56q8 5 17 5t17 -5l104 -55q5 -2 7 -7t2 -10q0 -7 -5 -11.5
t-12 -4.5q-2 0 -4.5 1t-4.5 2l-104 55l-104 -56l-4 -2t-4 -1z" />
    <glyph glyph-name="edieresis" unicode="&#xeb;" horiz-adv-x="445" 
d="M253 -6q-59 0 -104.5 23t-71.5 63.5t-26 95.5v125q0 48 24.5 88.5t65 64.5t88.5 24q47 0 87.5 -23.5t65 -64t24.5 -92.5q0 -36 -12 -52t-30.5 -19.5t-40.5 -3.5h-237v-47q0 -68 48 -107.5t121 -39.5q42 0 64 10.5t33.5 20.5t20.5 10q5 0 9 -3t6.5 -7t2.5 -8
q0 -9 -16.5 -23t-47.5 -24.5t-74 -10.5zM86 258h225q37 0 48.5 7t11.5 30q0 36 -17.5 70t-49.5 56t-75 22q-40 0 -72.5 -20t-51.5 -52t-19 -70v-43zM285 600q-13 0 -21.5 8.5t-8.5 21.5t8.5 21t21.5 8t21 -8t8 -21t-8 -21.5t-21 -8.5zM174 600q-13 0 -21.5 8.5t-8.5 21.5
t8.5 21t21.5 8t21 -8t8 -21t-8 -21.5t-21 -8.5z" />
    <glyph glyph-name="igrave" unicode="&#xec;" horiz-adv-x="171" 
d="M85 0q-7 0 -12 5.5t-5 12.5v437q0 8 5 12.5t12 4.5q8 0 13 -4.5t5 -12.5v-437q0 -7 -5 -12.5t-13 -5.5zM133 601q-2 0 -4.5 1t-4.5 2l-95 54q-10 6 -10 18q0 7 4.5 12.5t11.5 5.5q3 0 7 -2l102 -60q8 -4 8 -13q0 -7 -5.5 -12.5t-13.5 -5.5z" />
    <glyph glyph-name="iacute" unicode="&#xed;" horiz-adv-x="171" 
d="M85 0q-7 0 -12 5.5t-5 12.5v437q0 8 5 12.5t12 4.5q8 0 13 -4.5t5 -12.5v-437q0 -7 -5 -12.5t-13 -5.5zM38 601q-7 0 -13 5.5t-6 12.5q0 9 8 13l102 60q4 2 7 2q8 0 12 -5.5t4 -12.5q0 -12 -10 -18l-95 -54q-2 -1 -4.5 -2t-4.5 -1z" />
    <glyph glyph-name="icircumflex" unicode="&#xee;" horiz-adv-x="171" 
d="M85 0q-7 0 -12 5.5t-5 12.5v437q0 8 5 12.5t12 4.5q8 0 13 -4.5t5 -12.5v-437q0 -7 -5 -12.5t-13 -5.5zM-26 600q-7 0 -12.5 5.5t-5.5 13.5q0 4 2.5 8t6.5 6l104 56q8 5 17 5t17 -5l104 -55q5 -2 7 -7t2 -10q0 -7 -5 -11.5t-12 -4.5q-2 0 -4.5 1t-4.5 2l-104 55l-104 -56
l-4 -2t-4 -1z" />
    <glyph glyph-name="idieresis" unicode="&#xef;" horiz-adv-x="171" 
d="M85 0q-7 0 -12 5.5t-5 12.5v437q0 8 5 12.5t12 4.5q8 0 13 -4.5t5 -12.5v-437q0 -7 -5 -12.5t-13 -5.5zM142 600q-13 0 -21.5 8.5t-8.5 21.5t8.5 21t21.5 8t21 -8t8 -21t-8 -21.5t-21 -8.5zM31 600q-13 0 -21.5 8.5t-8.5 21.5t8.5 21t21.5 8t21 -8t8 -21t-8 -21.5
t-21 -8.5z" />
    <glyph glyph-name="eth" unicode="&#xf0;" horiz-adv-x="468" 
d="M227 -6q-36 0 -67.5 14.5t-56.5 40.5t-39 58.5t-14 68.5v122q0 48 24 89t64.5 66t88.5 25q29 0 58.5 -10t53 -29t31.5 -47q-7 83 -29.5 144t-53.5 102l-98 -56q-4 -3 -9 -3q-7 0 -12 6t-5 13q0 10 9 14l92 53q-32 34 -68 50t-69 16q-6 0 -9 5t-3 12q0 5 2 9.5t7.5 7.5
t14.5 3q35 0 77 -21t80 -64l80 46q4 2 7 2q7 0 12.5 -5t5.5 -12q0 -10 -9 -15l-74 -43q38 -50 62.5 -123t24.5 -168v-189q0 -47 -24.5 -89t-65 -67.5t-88.5 -25.5zM227 29q40 0 72 21t51.5 55t19.5 71v127q0 36 -19.5 68t-52 52t-71.5 20q-40 0 -72 -21t-51 -54t-19 -70
v-122q0 -37 19 -71t51.5 -55t71.5 -21z" />
    <glyph glyph-name="ntilde" unicode="&#xf1;" horiz-adv-x="481" 
d="M85 0q-7 0 -12 5.5t-5 12.5v437q0 8 5 12.5t12 4.5q8 0 13 -4.5t5 -12.5v-53q17 29 50.5 52.5t83.5 23.5q49 0 90 -24.5t65.5 -65t24.5 -90.5v-280q0 -9 -5.5 -13.5t-12.5 -4.5q-6 0 -11.5 4.5t-5.5 13.5v280q0 37 -19.5 70t-51.5 54t-71 21q-34 0 -65.5 -17.5
t-51.5 -49.5t-20 -78v-280q0 -7 -5 -12.5t-13 -5.5zM304 619q-24 0 -42.5 9.5t-38.5 18.5t-48 9q-21 0 -34 -8.5t-20.5 -17.5t-14.5 -9q-3 0 -6 2t-5 6t-2 9q0 10 8.5 19t22.5 16.5t29.5 12t28.5 4.5q25 0 44 -9t38.5 -18.5t44.5 -9.5q23 0 34 8t17 16t14 8q4 0 7 -2t5 -5
t2 -8q0 -12 -8.5 -21t-21.5 -16t-27.5 -10.5t-26.5 -3.5z" />
    <glyph glyph-name="ograve" unicode="&#xf2;" 
d="M227 -6q-47 0 -87.5 25.5t-65 67t-24.5 89.5v122q0 48 24 89t64.5 66t88.5 25t88.5 -24.5t65 -65t24.5 -90.5v-122q0 -47 -24.5 -89t-65 -67.5t-88.5 -25.5zM227 29q40 0 72 21t51.5 55t19.5 71v122q0 37 -19 70t-51.5 54t-72.5 21t-72 -21t-51 -54t-19 -70v-122
q0 -37 19 -71t51.5 -55t71.5 -21zM275 601q-2 0 -4.5 1t-4.5 2l-95 54q-10 6 -10 18q0 7 4.5 12.5t11.5 5.5q3 0 7 -2l102 -60q8 -4 8 -13q0 -7 -5.5 -12.5t-13.5 -5.5z" />
    <glyph glyph-name="oacute" unicode="&#xf3;" 
d="M227 -6q-47 0 -87.5 25.5t-65 67t-24.5 89.5v122q0 48 24 89t64.5 66t88.5 25t88.5 -24.5t65 -65t24.5 -90.5v-122q0 -47 -24.5 -89t-65 -67.5t-88.5 -25.5zM227 29q40 0 72 21t51.5 55t19.5 71v122q0 37 -19 70t-51.5 54t-72.5 21t-72 -21t-51 -54t-19 -70v-122
q0 -37 19 -71t51.5 -55t71.5 -21zM180 601q-7 0 -13 5.5t-6 12.5q0 9 8 13l102 60q4 2 7 2q8 0 12 -5.5t4 -12.5q0 -12 -10 -18l-95 -54q-2 -1 -4.5 -2t-4.5 -1z" />
    <glyph glyph-name="ocircumflex" unicode="&#xf4;" 
d="M227 -6q-47 0 -87.5 25.5t-65 67t-24.5 89.5v122q0 48 24 89t64.5 66t88.5 25t88.5 -24.5t65 -65t24.5 -90.5v-122q0 -47 -24.5 -89t-65 -67.5t-88.5 -25.5zM227 29q40 0 72 21t51.5 55t19.5 71v122q0 37 -19 70t-51.5 54t-72.5 21t-72 -21t-51 -54t-19 -70v-122
q0 -37 19 -71t51.5 -55t71.5 -21zM116 600q-7 0 -12.5 5.5t-5.5 13.5q0 4 2.5 8t6.5 6l104 56q8 5 17 5t17 -5l104 -55q5 -2 7 -7t2 -10q0 -7 -5 -11.5t-12 -4.5q-2 0 -4.5 1t-4.5 2l-104 55l-104 -56l-4 -2t-4 -1z" />
    <glyph glyph-name="otilde" unicode="&#xf5;" 
d="M227 -6q-47 0 -87.5 25.5t-65 67t-24.5 89.5v122q0 48 24 89t64.5 66t88.5 25t88.5 -24.5t65 -65t24.5 -90.5v-122q0 -47 -24.5 -89t-65 -67.5t-88.5 -25.5zM227 29q40 0 72 21t51.5 55t19.5 71v122q0 37 -19 70t-51.5 54t-72.5 21t-72 -21t-51 -54t-19 -70v-122
q0 -37 19 -71t51.5 -55t71.5 -21zM291 619q-24 0 -42.5 9.5t-38.5 18.5t-48 9q-21 0 -34 -8.5t-20.5 -17.5t-14.5 -9q-3 0 -6 2t-5 6t-2 9q0 10 8.5 19t22.5 16.5t29.5 12t28.5 4.5q25 0 44 -9t38.5 -18.5t44.5 -9.5q23 0 34 8t17 16t14 8q4 0 7 -2t5 -5t2 -8
q0 -12 -8.5 -21t-21.5 -16t-27.5 -10.5t-26.5 -3.5z" />
    <glyph glyph-name="odieresis" unicode="&#xf6;" 
d="M227 -6q-47 0 -87.5 25.5t-65 67t-24.5 89.5v122q0 48 24 89t64.5 66t88.5 25t88.5 -24.5t65 -65t24.5 -90.5v-122q0 -47 -24.5 -89t-65 -67.5t-88.5 -25.5zM227 29q40 0 72 21t51.5 55t19.5 71v122q0 37 -19 70t-51.5 54t-72.5 21t-72 -21t-51 -54t-19 -70v-122
q0 -37 19 -71t51.5 -55t71.5 -21zM284 600q-13 0 -21.5 8.5t-8.5 21.5t8.5 21t21.5 8t21 -8t8 -21t-8 -21.5t-21 -8.5zM173 600q-13 0 -21.5 8.5t-8.5 21.5t8.5 21t21.5 8t21 -8t8 -21t-8 -21.5t-21 -8.5z" />
    <glyph glyph-name="divide" unicode="&#xf7;" horiz-adv-x="461" 
d="M70 267q-7 0 -12 5t-5 12q0 8 5 13t12 5h320q7 0 12.5 -5t5.5 -13q0 -7 -5.5 -12t-12.5 -5h-320zM227 81q-18 0 -31 13t-13 30t13 30t31 13q17 0 30 -13t13 -30t-13 -30t-30 -13zM227 402q-18 0 -31 13t-13 30t13 30t31 13q17 0 30 -13t13 -30t-13 -30t-30 -13z" />
    <glyph glyph-name="oslash" unicode="&#xf8;" 
d="M227 -6q-47 0 -87.5 25.5t-65 67t-24.5 89.5v122q0 48 24 89t64.5 66t88.5 25t88.5 -24.5t65 -65t24.5 -90.5v-122q0 -47 -24.5 -89t-65 -67.5t-88.5 -25.5zM227 29q40 0 72 21t51.5 55t19.5 71v122q0 37 -19 70t-51.5 54t-72.5 21t-72 -21t-51 -54t-19 -70v-122
q0 -37 19 -71t51.5 -55t71.5 -21zM94 -32q-6 0 -11 4t-5 11q0 6 2 9l27 53l209 408l25 48q4 8 13 8q6 0 12 -5.5t6 -13.5q0 -5 -3 -11l-25 -47l-210 -409l-23 -44q-5 -11 -17 -11z" />
    <glyph glyph-name="ugrave" unicode="&#xf9;" horiz-adv-x="483" 
d="M242 -6q-49 0 -89.5 25t-64.5 66.5t-24 88.5v280q0 7 5.5 12.5t12.5 5.5t12 -5.5t5 -12.5v-280q0 -37 19 -70t51.5 -54t72.5 -21t72 20.5t51 54t19 70.5v281q0 7 5.5 12t12.5 5q8 0 12.5 -5t4.5 -12v-281q0 -48 -24 -89t-64.5 -66t-88.5 -25zM289 601q-2 0 -4.5 1t-4.5 2
l-95 54q-10 6 -10 18q0 7 4.5 12.5t11.5 5.5q3 0 7 -2l102 -60q8 -4 8 -13q0 -7 -5.5 -12.5t-13.5 -5.5z" />
    <glyph glyph-name="uacute" unicode="&#xfa;" horiz-adv-x="483" 
d="M242 -6q-49 0 -89.5 25t-64.5 66.5t-24 88.5v280q0 7 5.5 12.5t12.5 5.5t12 -5.5t5 -12.5v-280q0 -37 19 -70t51.5 -54t72.5 -21t72 20.5t51 54t19 70.5v281q0 7 5.5 12t12.5 5q8 0 12.5 -5t4.5 -12v-281q0 -48 -24 -89t-64.5 -66t-88.5 -25zM194 601q-7 0 -13 5.5
t-6 12.5q0 9 8 13l102 60q4 2 7 2q8 0 12 -5.5t4 -12.5q0 -12 -10 -18l-95 -54q-2 -1 -4.5 -2t-4.5 -1z" />
    <glyph glyph-name="ucircumflex" unicode="&#xfb;" horiz-adv-x="483" 
d="M242 -6q-49 0 -89.5 25t-64.5 66.5t-24 88.5v280q0 7 5.5 12.5t12.5 5.5t12 -5.5t5 -12.5v-280q0 -37 19 -70t51.5 -54t72.5 -21t72 20.5t51 54t19 70.5v281q0 7 5.5 12t12.5 5q8 0 12.5 -5t4.5 -12v-281q0 -48 -24 -89t-64.5 -66t-88.5 -25zM130 600q-7 0 -12.5 5.5
t-5.5 13.5q0 4 2.5 8t6.5 6l104 56q8 5 17 5t17 -5l104 -55q5 -2 7 -7t2 -10q0 -7 -5 -11.5t-12 -4.5q-2 0 -4.5 1t-4.5 2l-104 55l-104 -56l-4 -2t-4 -1z" />
    <glyph glyph-name="udieresis" unicode="&#xfc;" horiz-adv-x="483" 
d="M242 -6q-49 0 -89.5 25t-64.5 66.5t-24 88.5v280q0 7 5.5 12.5t12.5 5.5t12 -5.5t5 -12.5v-280q0 -37 19 -70t51.5 -54t72.5 -21t72 20.5t51 54t19 70.5v281q0 7 5.5 12t12.5 5q8 0 12.5 -5t4.5 -12v-281q0 -48 -24 -89t-64.5 -66t-88.5 -25zM298 600q-13 0 -21.5 8.5
t-8.5 21.5t8.5 21t21.5 8t21 -8t8 -21t-8 -21.5t-21 -8.5zM187 600q-13 0 -21.5 8.5t-8.5 21.5t8.5 21t21.5 8t21 -8t8 -21t-8 -21.5t-21 -8.5z" />
    <glyph glyph-name="yacute" unicode="&#xfd;" horiz-adv-x="395" 
d="M36 -237q-7 0 -12 5t-5 12t3.5 12.5t11.5 5.5q27 0 48.5 19.5t39 52t31.5 70t27 73.5l-160 442q-2 4 -2 6q0 5 2.5 8.5t7 6t9.5 2.5t10 -3t6 -8l145 -400l144 400q2 5 6.5 8t9.5 3t9 -2t6.5 -5.5t2.5 -9.5q0 -4 -1 -6l-160 -442q-13 -37 -30 -80.5t-38.5 -82t-49 -63
t-61.5 -24.5zM150 601q-7 0 -13 5.5t-6 12.5q0 9 8 13l102 60q4 2 7 2q8 0 12 -5.5t4 -12.5q0 -12 -10 -18l-95 -54q-2 -1 -4.5 -2t-4.5 -1z" />
    <glyph glyph-name="thorn" unicode="&#xfe;" horiz-adv-x="468" 
d="M86 -237q-7 0 -12 5.5t-5 12.5v970q0 8 5 12.5t12 4.5q8 0 13 -4.5t5 -12.5v-349q17 29 50.5 52.5t83.5 23.5q49 0 90 -24.5t65.5 -65t24.5 -90.5v-122q0 -47 -24.5 -89t-65 -67.5t-88.5 -25.5q-46 0 -82.5 22.5t-53.5 53.5v-289q0 -7 -5 -12.5t-13 -5.5zM242 29
q38 0 70 21t51.5 55t19.5 71v122q0 37 -19.5 70t-51.5 54t-71 21q-34 0 -65.5 -17.5t-51.5 -49.5t-20 -78v-159q0 -17 18 -43t49.5 -46.5t70.5 -20.5z" />
    <glyph glyph-name="ydieresis" unicode="&#xff;" horiz-adv-x="395" 
d="M36 -237q-7 0 -12 5t-5 12t3.5 12.5t11.5 5.5q27 0 48.5 19.5t39 52t31.5 70t27 73.5l-160 442q-2 4 -2 6q0 5 2.5 8.5t7 6t9.5 2.5t10 -3t6 -8l145 -400l144 400q2 5 6.5 8t9.5 3t9 -2t6.5 -5.5t2.5 -9.5q0 -4 -1 -6l-160 -442q-13 -37 -30 -80.5t-38.5 -82t-49 -63
t-61.5 -24.5zM254 600q-13 0 -21.5 8.5t-8.5 21.5t8.5 21t21.5 8t21 -8t8 -21t-8 -21.5t-21 -8.5zM143 600q-13 0 -21.5 8.5t-8.5 21.5t8.5 21t21.5 8t21 -8t8 -21t-8 -21.5t-21 -8.5z" />
    <glyph glyph-name="Amacron" unicode="&#x100;" horiz-adv-x="521" 
d="M43 0q-4 0 -8.5 2t-7 5.5t-2.5 8.5q0 4 1 6l217 701q2 8 7 11t11 3t11.5 -3.5t7.5 -10.5l215 -701q1 -2 1 -5q0 -4 -3 -8t-7.5 -6.5t-9.5 -2.5t-9.5 3t-6.5 10l-51 164h-298l-50 -164q-2 -7 -7 -10t-11 -3zM122 213h276l-137 448zM150 906q-7 0 -12 5t-5 12q0 8 5 13
t12 5h220q7 0 12.5 -5t5.5 -13q0 -7 -5.5 -12t-12.5 -5h-220z" />
    <glyph glyph-name="amacron" unicode="&#x101;" horiz-adv-x="423" 
d="M174 -6q-58 0 -98.5 32.5t-40.5 99.5q0 53 29.5 81.5t82 39.5t121.5 11h56v28q0 38 -13 74t-42 59.5t-77 23.5q-31 0 -52 -6.5t-33.5 -13.5t-18.5 -7q-8 0 -13 7.5t-5 12.5q0 10 18.5 19.5t47 16t58.5 6.5q62 0 98 -27.5t51.5 -71t15.5 -93.5v-268q0 -7 -4.5 -12.5
t-12.5 -5.5q-7 0 -12.5 5.5t-5.5 12.5v52q-25 -29 -62.5 -52.5t-87.5 -23.5zM173 29q38 0 72.5 18.5t56.5 44.5t22 47v84h-55q-51 0 -96.5 -6t-74 -26.5t-28.5 -64.5q0 -50 30 -73.5t73 -23.5zM101 647q-7 0 -12 5t-5 12q0 8 5 13t12 5h220q7 0 12.5 -5t5.5 -13
q0 -7 -5.5 -12t-12.5 -5h-220z" />
    <glyph glyph-name="Abreve" unicode="&#x102;" horiz-adv-x="521" 
d="M43 0q-4 0 -8.5 2t-7 5.5t-2.5 8.5q0 4 1 6l217 701q2 8 7 11t11 3t11.5 -3.5t7.5 -10.5l215 -701q1 -2 1 -5q0 -4 -3 -8t-7.5 -6.5t-9.5 -2.5t-9.5 3t-6.5 10l-51 164h-298l-50 -164q-2 -7 -7 -10t-11 -3zM122 213h276l-137 448zM261 860q-39 0 -70 27t-38 65
q-1 8 3.5 12.5t11.5 4.5h2q6 0 10 -4t5 -10q5 -29 26.5 -49t49.5 -20t49.5 20t25.5 49q1 6 5 10t10 4h2q7 0 12 -5t4 -12q-7 -38 -38.5 -65t-69.5 -27z" />
    <glyph glyph-name="abreve" unicode="&#x103;" horiz-adv-x="423" 
d="M174 -6q-58 0 -98.5 32.5t-40.5 99.5q0 53 29.5 81.5t82 39.5t121.5 11h56v28q0 38 -13 74t-42 59.5t-77 23.5q-31 0 -52 -6.5t-33.5 -13.5t-18.5 -7q-8 0 -13 7.5t-5 12.5q0 10 18.5 19.5t47 16t58.5 6.5q62 0 98 -27.5t51.5 -71t15.5 -93.5v-268q0 -7 -4.5 -12.5
t-12.5 -5.5q-7 0 -12.5 5.5t-5.5 12.5v52q-25 -29 -62.5 -52.5t-87.5 -23.5zM173 29q38 0 72.5 18.5t56.5 44.5t22 47v84h-55q-51 0 -96.5 -6t-74 -26.5t-28.5 -64.5q0 -50 30 -73.5t73 -23.5zM212 601q-39 0 -70 27t-38 65q-1 8 3.5 12.5t11.5 4.5h2q6 0 10 -4t5 -10
q5 -29 26.5 -49t49.5 -20t49.5 20t25.5 49q1 6 5 10t10 4h2q7 0 12 -5t4 -12q-7 -38 -38.5 -65t-69.5 -27z" />
    <glyph glyph-name="Aogonek" unicode="&#x104;" horiz-adv-x="521" 
d="M43 0q-4 0 -8.5 2t-7 5.5t-2.5 8.5q0 4 1 6l217 701q2 8 7 11t11 3t11.5 -3.5t7.5 -10.5l215 -701q1 -2 1 -5q0 -4 -3 -8t-7.5 -6.5t-9.5 -2.5t-9.5 3t-6.5 10l-51 164h-298l-50 -164q-2 -7 -7 -10t-11 -3zM122 213h276l-137 448zM471 -194q-18 0 -38 5.5t-34.5 20
t-14.5 41.5q0 44 21 79.5t54 66.5l26 -16q-30 -29 -51 -59t-21 -69q0 -25 17.5 -34t45.5 -9q8 0 13 -2.5t5 -10.5q0 -7 -5 -10t-18 -3z" />
    <glyph glyph-name="aogonek" unicode="&#x105;" horiz-adv-x="423" 
d="M174 -6q-58 0 -98.5 32.5t-40.5 99.5q0 53 29.5 81.5t82 39.5t121.5 11h56v28q0 38 -13 74t-42 59.5t-77 23.5q-31 0 -52 -6.5t-33.5 -13.5t-18.5 -7q-8 0 -13 7.5t-5 12.5q0 10 18.5 19.5t47 16t58.5 6.5q62 0 98 -27.5t51.5 -71t15.5 -93.5v-268q0 -7 -4.5 -12.5
t-12.5 -5.5q-7 0 -12.5 5.5t-5.5 12.5v52q-25 -29 -62.5 -52.5t-87.5 -23.5zM173 29q38 0 72.5 18.5t56.5 44.5t22 47v84h-55q-51 0 -96.5 -6t-74 -26.5t-28.5 -64.5q0 -50 30 -73.5t73 -23.5zM338 -192q-18 0 -38 5.5t-34.5 20t-14.5 41.5q0 44 21 79.5t54 66.5l26 -16
q-30 -29 -51 -59t-21 -69q0 -25 17.5 -34t45.5 -9q8 0 13 -2.5t5 -10.5q0 -7 -5 -10t-18 -3z" />
    <glyph glyph-name="Cacute" unicode="&#x106;" horiz-adv-x="512" 
d="M272 -6q-53 0 -98 20.5t-71.5 65.5t-26.5 120v325q0 75 27.5 120t72.5 65.5t99 20.5q64 0 106.5 -23t64 -59t21.5 -75q0 -17 -4.5 -22.5t-13.5 -5.5q-13 0 -15.5 6.5t-2.5 11.5q-1 18 -7.5 40.5t-23 43t-47 34t-79.5 13.5q-79 0 -120.5 -41.5t-41.5 -128.5v-325
q0 -88 42 -129t124 -41q50 0 79 13t44 33t21 43t9 42q1 7 4 12.5t14 5.5q9 0 13.5 -6t4.5 -23q0 -38 -22 -74t-65.5 -59t-107.5 -23zM223 860q-7 0 -13 5.5t-6 12.5q0 9 8 13l102 60q4 2 7 2q8 0 12 -5.5t4 -12.5q0 -12 -10 -18l-95 -54q-2 -1 -4.5 -2t-4.5 -1z" />
    <glyph glyph-name="cacute" unicode="&#x107;" horiz-adv-x="402" 
d="M235 -6q-62 0 -102.5 24t-60.5 65t-20 93v120q0 51 19.5 92.5t60.5 65.5t103 24q40 0 69.5 -10.5t45.5 -24t16 -24.5q0 -4 -2.5 -8t-6.5 -6.5t-9 -2.5q-8 0 -19.5 10.5t-32.5 20.5t-61 10q-72 0 -110 -39.5t-38 -107.5v-120q0 -68 38 -107.5t111 -39.5q42 0 64.5 10.5
t34 20.5t20.5 10q5 0 8.5 -2.5t6 -6t2.5 -8.5q0 -10 -16.5 -24t-47 -24.5t-73.5 -10.5zM182 601q-7 0 -13 5.5t-6 12.5q0 9 8 13l102 60q4 2 7 2q8 0 12 -5.5t4 -12.5q0 -12 -10 -18l-95 -54q-2 -1 -4.5 -2t-4.5 -1z" />
    <glyph glyph-name="Ccircumflex" unicode="&#x108;" horiz-adv-x="512" 
d="M272 -6q-53 0 -98 20.5t-71.5 65.5t-26.5 120v325q0 75 27.5 120t72.5 65.5t99 20.5q64 0 106.5 -23t64 -59t21.5 -75q0 -17 -4.5 -22.5t-13.5 -5.5q-13 0 -15.5 6.5t-2.5 11.5q-1 18 -7.5 40.5t-23 43t-47 34t-79.5 13.5q-79 0 -120.5 -41.5t-41.5 -128.5v-325
q0 -88 42 -129t124 -41q50 0 79 13t44 33t21 43t9 42q1 7 4 12.5t14 5.5q9 0 13.5 -6t4.5 -23q0 -38 -22 -74t-65.5 -59t-107.5 -23zM159 859q-7 0 -12.5 5.5t-5.5 13.5q0 4 2.5 8t6.5 6l104 56q8 5 17 5t17 -5l104 -55q5 -2 7 -7t2 -10q0 -7 -5 -11.5t-12 -4.5q-2 0 -4.5 1
t-4.5 2l-104 55l-104 -56l-4 -2t-4 -1z" />
    <glyph glyph-name="ccircumflex" unicode="&#x109;" horiz-adv-x="402" 
d="M235 -6q-62 0 -102.5 24t-60.5 65t-20 93v120q0 51 19.5 92.5t60.5 65.5t103 24q40 0 69.5 -10.5t45.5 -24t16 -24.5q0 -4 -2.5 -8t-6.5 -6.5t-9 -2.5q-8 0 -19.5 10.5t-32.5 20.5t-61 10q-72 0 -110 -39.5t-38 -107.5v-120q0 -68 38 -107.5t111 -39.5q42 0 64.5 10.5
t34 20.5t20.5 10q5 0 8.5 -2.5t6 -6t2.5 -8.5q0 -10 -16.5 -24t-47 -24.5t-73.5 -10.5zM118 600q-7 0 -12.5 5.5t-5.5 13.5q0 4 2.5 8t6.5 6l104 56q8 5 17 5t17 -5l104 -55q5 -2 7 -7t2 -10q0 -7 -5 -11.5t-12 -4.5q-2 0 -4.5 1t-4.5 2l-104 55l-104 -56l-4 -2t-4 -1z" />
    <glyph glyph-name="Cdotaccent" unicode="&#x10a;" horiz-adv-x="512" 
d="M272 -6q-53 0 -98 20.5t-71.5 65.5t-26.5 120v325q0 75 27.5 120t72.5 65.5t99 20.5q64 0 106.5 -23t64 -59t21.5 -75q0 -17 -4.5 -22.5t-13.5 -5.5q-13 0 -15.5 6.5t-2.5 11.5q-1 18 -7.5 40.5t-23 43t-47 34t-79.5 13.5q-79 0 -120.5 -41.5t-41.5 -128.5v-325
q0 -88 42 -129t124 -41q50 0 79 13t44 33t21 43t9 42q1 7 4 12.5t14 5.5q9 0 13.5 -6t4.5 -23q0 -38 -22 -74t-65.5 -59t-107.5 -23zM271 860q-15 0 -24.5 10t-9.5 24t9.5 23.5t24.5 9.5q14 0 23.5 -9.5t9.5 -23.5t-9.5 -24t-23.5 -10z" />
    <glyph glyph-name="cdotaccent" unicode="&#x10b;" horiz-adv-x="402" 
d="M235 -6q-62 0 -102.5 24t-60.5 65t-20 93v120q0 51 19.5 92.5t60.5 65.5t103 24q40 0 69.5 -10.5t45.5 -24t16 -24.5q0 -4 -2.5 -8t-6.5 -6.5t-9 -2.5q-8 0 -19.5 10.5t-32.5 20.5t-61 10q-72 0 -110 -39.5t-38 -107.5v-120q0 -68 38 -107.5t111 -39.5q42 0 64.5 10.5
t34 20.5t20.5 10q5 0 8.5 -2.5t6 -6t2.5 -8.5q0 -10 -16.5 -24t-47 -24.5t-73.5 -10.5zM230 601q-15 0 -24.5 10t-9.5 24t9.5 23.5t24.5 9.5q14 0 23.5 -9.5t9.5 -23.5t-9.5 -24t-23.5 -10z" />
    <glyph glyph-name="Ccaron" unicode="&#x10c;" horiz-adv-x="512" 
d="M272 -6q-53 0 -98 20.5t-71.5 65.5t-26.5 120v325q0 75 27.5 120t72.5 65.5t99 20.5q64 0 106.5 -23t64 -59t21.5 -75q0 -17 -4.5 -22.5t-13.5 -5.5q-13 0 -15.5 6.5t-2.5 11.5q-1 18 -7.5 40.5t-23 43t-47 34t-79.5 13.5q-79 0 -120.5 -41.5t-41.5 -128.5v-325
q0 -88 42 -129t124 -41q50 0 79 13t44 33t21 43t9 42q1 7 4 12.5t14 5.5q9 0 13.5 -6t4.5 -23q0 -38 -22 -74t-65.5 -59t-107.5 -23zM271 847q-12 0 -21 11l-100 101q-4 5 -6 8.5t-2 7.5q0 5 4 10t11 5q9 0 16 -8l98 -103l98 103q7 8 16 8q7 0 11 -5t4 -10q0 -4 -2 -7.5
t-6 -8.5l-100 -101q-11 -11 -21 -11z" />
    <glyph glyph-name="ccaron" unicode="&#x10d;" horiz-adv-x="402" 
d="M235 -6q-62 0 -102.5 24t-60.5 65t-20 93v120q0 51 19.5 92.5t60.5 65.5t103 24q40 0 69.5 -10.5t45.5 -24t16 -24.5q0 -4 -2.5 -8t-6.5 -6.5t-9 -2.5q-8 0 -19.5 10.5t-32.5 20.5t-61 10q-72 0 -110 -39.5t-38 -107.5v-120q0 -68 38 -107.5t111 -39.5q42 0 64.5 10.5
t34 20.5t20.5 10q5 0 8.5 -2.5t6 -6t2.5 -8.5q0 -10 -16.5 -24t-47 -24.5t-73.5 -10.5zM230 588q-12 0 -21 11l-100 101q-4 5 -6 8.5t-2 7.5q0 5 4 10t11 5q9 0 16 -8l98 -103l98 103q7 8 16 8q7 0 11 -5t4 -10q0 -4 -2 -7.5t-6 -8.5l-100 -101q-11 -11 -21 -11z" />
    <glyph glyph-name="Dcaron" unicode="&#x10e;" horiz-adv-x="550" 
d="M101 0q-8 0 -13 5t-5 12v697q0 7 5 12t13 5h177q55 0 99.5 -20.5t70.5 -65.5t26 -120v-319q0 -75 -26 -120t-70.5 -65.5t-99.5 -20.5h-177zM119 36h159q75 0 117.5 41.5t42.5 128.5v319q0 87 -42.5 128.5t-117.5 41.5h-159v-659zM275 847q-12 0 -21 11l-100 101
q-4 5 -6 8.5t-2 7.5q0 5 4 10t11 5q9 0 16 -8l98 -103l98 103q7 8 16 8q7 0 11 -5t4 -10q0 -4 -2 -7.5t-6 -8.5l-100 -101q-11 -11 -21 -11z" />
    <glyph glyph-name="dcaron" unicode="&#x10f;" horiz-adv-x="468" 
d="M228 -6q-47 0 -88 25.5t-65.5 67.5t-24.5 89v122q0 50 24.5 90.5t65.5 65t90 24.5q50 0 84 -23.5t50 -52.5v349q0 8 5.5 12.5t12.5 4.5q8 0 12.5 -4.5t4.5 -12.5v-733q0 -7 -4.5 -12.5t-12.5 -5.5q-7 0 -12.5 5.5t-5.5 12.5v52q-16 -31 -53 -53.5t-83 -22.5zM226 29
q40 0 71 20.5t49 46.5t18 43v159q0 46 -20 78t-51.5 49.5t-65.5 17.5q-39 0 -71 -21t-51.5 -54t-19.5 -70v-122q0 -37 19.5 -71t51.5 -55t70 -21zM486 598q-6 0 -11 4t-5 11q0 4 1 6l18 51q-12 3 -19.5 13t-7.5 22q0 15 10 25.5t26 10.5q14 0 24.5 -10.5t10.5 -25.5
q0 -6 -3 -17.5t-7.5 -25t-10.5 -28t-12 -26.5q-2 -4 -6 -7t-8 -3z" />
    <glyph glyph-name="Dcroat" unicode="&#x110;" horiz-adv-x="560" 
d="M111 0q-8 0 -13 5t-5 12v350h-73q-7 0 -12 5t-5 12q0 8 5 13t12 5h73v312q0 7 5 12t13 5h177q55 0 99.5 -20.5t70.5 -65.5t26 -120v-319q0 -75 -26 -120t-70.5 -65.5t-99.5 -20.5h-177zM129 36h159q75 0 117.5 41.5t42.5 128.5v319q0 87 -42.5 128.5t-117.5 41.5h-159
v-293h131q7 0 12.5 -5t5.5 -13q0 -7 -5.5 -12t-12.5 -5h-131v-331z" />
    <glyph glyph-name="dcroat" unicode="&#x111;" horiz-adv-x="468" 
d="M228 -6q-47 0 -88 25.5t-65.5 67.5t-24.5 89v122q0 50 24.5 90.5t65.5 65t90 24.5q50 0 84 -23.5t50 -52.5v181h-138q-7 0 -12 5t-5 12q0 8 5 13t12 5h138v133q0 8 5.5 12.5t12.5 4.5q8 0 12.5 -4.5t4.5 -12.5v-133h57q7 0 12.5 -5t5.5 -13q0 -7 -5.5 -12t-12.5 -5h-57
v-565q0 -7 -4.5 -12.5t-12.5 -5.5q-7 0 -12.5 5.5t-5.5 12.5v52q-16 -31 -53 -53.5t-83 -22.5zM226 29q40 0 71 20.5t49 46.5t18 43v159q0 46 -20 78t-51.5 49.5t-65.5 17.5q-39 0 -71 -21t-51.5 -54t-19.5 -70v-122q0 -37 19.5 -71t51.5 -55t70 -21z" />
    <glyph glyph-name="Emacron" unicode="&#x112;" horiz-adv-x="498" 
d="M101 0q-7 0 -12.5 4.5t-5.5 13.5v695q0 9 5.5 13.5t12.5 4.5h356q9 0 13 -5.5t4 -11.5q0 -7 -4.5 -13t-12.5 -6h-338v-311h160q8 0 12.5 -5.5t4.5 -13.5q0 -6 -4 -11.5t-13 -5.5h-160v-312h338q8 0 12.5 -5.5t4.5 -13.5q0 -6 -4 -11.5t-13 -5.5h-356zM169 906q-7 0 -12 5
t-5 12q0 8 5 13t12 5h220q7 0 12.5 -5t5.5 -13q0 -7 -5.5 -12t-12.5 -5h-220z" />
    <glyph glyph-name="emacron" unicode="&#x113;" horiz-adv-x="445" 
d="M253 -6q-59 0 -104.5 23t-71.5 63.5t-26 95.5v125q0 48 24.5 88.5t65 64.5t88.5 24q47 0 87.5 -23.5t65 -64t24.5 -92.5q0 -36 -12 -52t-30.5 -19.5t-40.5 -3.5h-237v-47q0 -68 48 -107.5t121 -39.5q42 0 64 10.5t33.5 20.5t20.5 10q5 0 9 -3t6.5 -7t2.5 -8
q0 -9 -16.5 -23t-47.5 -24.5t-74 -10.5zM86 258h225q37 0 48.5 7t11.5 30q0 36 -17.5 70t-49.5 56t-75 22q-40 0 -72.5 -20t-51.5 -52t-19 -70v-43zM118 647q-7 0 -12 5t-5 12q0 8 5 13t12 5h220q7 0 12.5 -5t5.5 -13q0 -7 -5.5 -12t-12.5 -5h-220z" />
    <glyph glyph-name="Ebreve" unicode="&#x114;" horiz-adv-x="498" 
d="M101 0q-7 0 -12.5 4.5t-5.5 13.5v695q0 9 5.5 13.5t12.5 4.5h356q9 0 13 -5.5t4 -11.5q0 -7 -4.5 -13t-12.5 -6h-338v-311h160q8 0 12.5 -5.5t4.5 -13.5q0 -6 -4 -11.5t-13 -5.5h-160v-312h338q8 0 12.5 -5.5t4.5 -13.5q0 -6 -4 -11.5t-13 -5.5h-356zM280 860
q-39 0 -70 27t-38 65q-1 8 3.5 12.5t11.5 4.5h2q6 0 10 -4t5 -10q5 -29 26.5 -49t49.5 -20t49.5 20t25.5 49q1 6 5 10t10 4h2q7 0 12 -5t4 -12q-7 -38 -38.5 -65t-69.5 -27z" />
    <glyph glyph-name="ebreve" unicode="&#x115;" horiz-adv-x="445" 
d="M253 -6q-59 0 -104.5 23t-71.5 63.5t-26 95.5v125q0 48 24.5 88.5t65 64.5t88.5 24q47 0 87.5 -23.5t65 -64t24.5 -92.5q0 -36 -12 -52t-30.5 -19.5t-40.5 -3.5h-237v-47q0 -68 48 -107.5t121 -39.5q42 0 64 10.5t33.5 20.5t20.5 10q5 0 9 -3t6.5 -7t2.5 -8
q0 -9 -16.5 -23t-47.5 -24.5t-74 -10.5zM86 258h225q37 0 48.5 7t11.5 30q0 36 -17.5 70t-49.5 56t-75 22q-40 0 -72.5 -20t-51.5 -52t-19 -70v-43zM229 601q-39 0 -70 27t-38 65q-1 8 3.5 12.5t11.5 4.5h2q6 0 10 -4t5 -10q5 -29 26.5 -49t49.5 -20t49.5 20t25.5 49
q1 6 5 10t10 4h2q7 0 12 -5t4 -12q-7 -38 -38.5 -65t-69.5 -27z" />
    <glyph glyph-name="Edotaccent" unicode="&#x116;" horiz-adv-x="498" 
d="M101 0q-7 0 -12.5 4.5t-5.5 13.5v695q0 9 5.5 13.5t12.5 4.5h356q9 0 13 -5.5t4 -11.5q0 -7 -4.5 -13t-12.5 -6h-338v-311h160q8 0 12.5 -5.5t4.5 -13.5q0 -6 -4 -11.5t-13 -5.5h-160v-312h338q8 0 12.5 -5.5t4.5 -13.5q0 -6 -4 -11.5t-13 -5.5h-356zM280 860
q-15 0 -24.5 10t-9.5 24t9.5 23.5t24.5 9.5q14 0 23.5 -9.5t9.5 -23.5t-9.5 -24t-23.5 -10z" />
    <glyph glyph-name="edotaccent" unicode="&#x117;" horiz-adv-x="445" 
d="M253 -6q-59 0 -104.5 23t-71.5 63.5t-26 95.5v125q0 48 24.5 88.5t65 64.5t88.5 24q47 0 87.5 -23.5t65 -64t24.5 -92.5q0 -36 -12 -52t-30.5 -19.5t-40.5 -3.5h-237v-47q0 -68 48 -107.5t121 -39.5q42 0 64 10.5t33.5 20.5t20.5 10q5 0 9 -3t6.5 -7t2.5 -8
q0 -9 -16.5 -23t-47.5 -24.5t-74 -10.5zM86 258h225q37 0 48.5 7t11.5 30q0 36 -17.5 70t-49.5 56t-75 22q-40 0 -72.5 -20t-51.5 -52t-19 -70v-43zM229 601q-15 0 -24.5 10t-9.5 24t9.5 23.5t24.5 9.5q14 0 23.5 -9.5t9.5 -23.5t-9.5 -24t-23.5 -10z" />
    <glyph glyph-name="Eogonek" unicode="&#x118;" horiz-adv-x="498" 
d="M101 0q-7 0 -12.5 4.5t-5.5 13.5v695q0 9 5.5 13.5t12.5 4.5h356q9 0 13 -5.5t4 -11.5q0 -7 -4.5 -13t-12.5 -6h-338v-311h160q8 0 12.5 -5.5t4.5 -13.5q0 -6 -4 -11.5t-13 -5.5h-160v-312h338q8 0 12.5 -5.5t4.5 -13.5q0 -6 -4 -11.5t-13 -5.5h-356zM450 -195
q-18 0 -38 5.5t-34.5 20t-14.5 41.5q0 44 21 79.5t54 66.5l26 -16q-30 -29 -51 -59t-21 -69q0 -25 17.5 -34t45.5 -9q8 0 13 -2.5t5 -10.5q0 -7 -5 -10t-18 -3z" />
    <glyph glyph-name="eogonek" unicode="&#x119;" horiz-adv-x="445" 
d="M253 -6q-59 0 -104.5 23t-71.5 63.5t-26 95.5v125q0 48 24.5 88.5t65 64.5t88.5 24q47 0 87.5 -23.5t65 -64t24.5 -92.5q0 -36 -12 -52t-30.5 -19.5t-40.5 -3.5h-237v-47q0 -68 48 -107.5t121 -39.5q42 0 64 10.5t33.5 20.5t20.5 10q5 0 9 -3t6.5 -7t2.5 -8
q0 -9 -16.5 -23t-47.5 -24.5t-74 -10.5zM86 258h225q37 0 48.5 7t11.5 30q0 36 -17.5 70t-49.5 56t-75 22q-40 0 -72.5 -20t-51.5 -52t-19 -70v-43zM354 -169q-18 0 -38 5.5t-34.5 20t-14.5 41.5q0 44 21 79.5t54 66.5l26 -16q-30 -29 -51 -59t-21 -69q0 -25 17.5 -34
t45.5 -9q8 0 13 -2.5t5 -10.5q0 -7 -5 -10t-18 -3z" />
    <glyph glyph-name="Ecaron" unicode="&#x11a;" horiz-adv-x="498" 
d="M101 0q-7 0 -12.5 4.5t-5.5 13.5v695q0 9 5.5 13.5t12.5 4.5h356q9 0 13 -5.5t4 -11.5q0 -7 -4.5 -13t-12.5 -6h-338v-311h160q8 0 12.5 -5.5t4.5 -13.5q0 -6 -4 -11.5t-13 -5.5h-160v-312h338q8 0 12.5 -5.5t4.5 -13.5q0 -6 -4 -11.5t-13 -5.5h-356zM280 847
q-12 0 -21 11l-100 101q-4 5 -6 8.5t-2 7.5q0 5 4 10t11 5q9 0 16 -8l98 -103l98 103q7 8 16 8q7 0 11 -5t4 -10q0 -4 -2 -7.5t-6 -8.5l-100 -101q-11 -11 -21 -11z" />
    <glyph glyph-name="ecaron" unicode="&#x11b;" horiz-adv-x="445" 
d="M253 -6q-59 0 -104.5 23t-71.5 63.5t-26 95.5v125q0 48 24.5 88.5t65 64.5t88.5 24q47 0 87.5 -23.5t65 -64t24.5 -92.5q0 -36 -12 -52t-30.5 -19.5t-40.5 -3.5h-237v-47q0 -68 48 -107.5t121 -39.5q42 0 64 10.5t33.5 20.5t20.5 10q5 0 9 -3t6.5 -7t2.5 -8
q0 -9 -16.5 -23t-47.5 -24.5t-74 -10.5zM86 258h225q37 0 48.5 7t11.5 30q0 36 -17.5 70t-49.5 56t-75 22q-40 0 -72.5 -20t-51.5 -52t-19 -70v-43zM229 588q-12 0 -21 11l-100 101q-4 5 -6 8.5t-2 7.5q0 5 4 10t11 5q9 0 16 -8l98 -103l98 103q7 8 16 8q7 0 11 -5t4 -10
q0 -4 -2 -7.5t-6 -8.5l-100 -101q-11 -11 -21 -11z" />
    <glyph glyph-name="Gcircumflex" unicode="&#x11c;" horiz-adv-x="531" 
d="M271 -6q-55 0 -99 20.5t-70 65.5t-26 120v325q0 75 26 120t70 65.5t99 20.5q62 0 105.5 -22t67 -59.5t23.5 -83.5q0 -10 -5.5 -15t-12.5 -5t-12 4.5t-6 13.5q-6 45 -27 74t-55 43t-78 14q-75 0 -117 -41.5t-42 -128.5v-325q0 -87 42 -128.5t117 -41.5t117.5 41.5
t42.5 128.5v148h-159q-8 0 -12.5 5.5t-4.5 12.5t4.5 12.5t12.5 5.5h178q8 0 12.5 -5.5t4.5 -13.5v-165q0 -75 -26 -120t-70.5 -65.5t-99.5 -20.5zM162 859q-7 0 -12.5 5.5t-5.5 13.5q0 4 2.5 8t6.5 6l104 56q8 5 17 5t17 -5l104 -55q5 -2 7 -7t2 -10q0 -7 -5 -11.5t-12 -4.5
q-2 0 -4.5 1t-4.5 2l-104 55l-104 -56l-4 -2t-4 -1z" />
    <glyph glyph-name="gcircumflex" unicode="&#x11d;" horiz-adv-x="446" 
d="M226 -237q-58 0 -101.5 16t-68 45t-24.5 68q0 46 28.5 72.5t62.5 38.5q-27 8 -44 23.5t-17 47.5q0 28 13.5 43.5t35.5 25.5q-25 22 -38.5 54.5t-13.5 71.5v45q0 48 20 85t56.5 58t84.5 21q37 0 67 -12.5t52 -35.5q14 26 35 43.5t40 17.5q11 0 16 -6t5 -14q0 -9 -5.5 -14
t-12.5 -5q-13 0 -29.5 -9t-30.5 -37q13 -18 19 -42t6 -50v-45q0 -47 -20.5 -85t-57.5 -59.5t-85 -21.5q-46 0 -82 21q-15 -7 -27.5 -17.5t-12.5 -30.5q0 -25 23 -36t59 -15t76 -8t76 -15t59 -35t23 -69q0 -43 -23 -73t-64.5 -46t-99.5 -16zM226 -205q74 0 113 28t39 74
q0 36 -22.5 54.5t-56.5 26t-68.5 10t-58.5 5.5q-40 -11 -72.5 -33.5t-32.5 -64.5q0 -44 41.5 -72t117.5 -28zM221 138q59 0 92.5 37.5t33.5 93.5v45q0 55 -33.5 92t-93.5 37t-93 -37t-33 -92v-44q0 -56 33.5 -94t93.5 -38zM111 600q-7 0 -12.5 5.5t-5.5 13.5q0 4 2.5 8
t6.5 6l104 56q8 5 17 5t17 -5l104 -55q5 -2 7 -7t2 -10q0 -7 -5 -11.5t-12 -4.5q-2 0 -4.5 1t-4.5 2l-104 55l-104 -56l-4 -2t-4 -1z" />
    <glyph glyph-name="Gbreve" unicode="&#x11e;" horiz-adv-x="531" 
d="M271 -6q-55 0 -99 20.5t-70 65.5t-26 120v325q0 75 26 120t70 65.5t99 20.5q62 0 105.5 -22t67 -59.5t23.5 -83.5q0 -10 -5.5 -15t-12.5 -5t-12 4.5t-6 13.5q-6 45 -27 74t-55 43t-78 14q-75 0 -117 -41.5t-42 -128.5v-325q0 -87 42 -128.5t117 -41.5t117.5 41.5
t42.5 128.5v148h-159q-8 0 -12.5 5.5t-4.5 12.5t4.5 12.5t12.5 5.5h178q8 0 12.5 -5.5t4.5 -13.5v-165q0 -75 -26 -120t-70.5 -65.5t-99.5 -20.5zM274 860q-39 0 -70 27t-38 65q-1 8 3.5 12.5t11.5 4.5h2q6 0 10 -4t5 -10q5 -29 26.5 -49t49.5 -20t49.5 20t25.5 49q1 6 5 10
t10 4h2q7 0 12 -5t4 -12q-7 -38 -38.5 -65t-69.5 -27z" />
    <glyph glyph-name="gbreve" unicode="&#x11f;" horiz-adv-x="446" 
d="M226 -237q-58 0 -101.5 16t-68 45t-24.5 68q0 46 28.5 72.5t62.5 38.5q-27 8 -44 23.5t-17 47.5q0 28 13.5 43.5t35.5 25.5q-25 22 -38.5 54.5t-13.5 71.5v45q0 48 20 85t56.5 58t84.5 21q37 0 67 -12.5t52 -35.5q14 26 35 43.5t40 17.5q11 0 16 -6t5 -14q0 -9 -5.5 -14
t-12.5 -5q-13 0 -29.5 -9t-30.5 -37q13 -18 19 -42t6 -50v-45q0 -47 -20.5 -85t-57.5 -59.5t-85 -21.5q-46 0 -82 21q-15 -7 -27.5 -17.5t-12.5 -30.5q0 -25 23 -36t59 -15t76 -8t76 -15t59 -35t23 -69q0 -43 -23 -73t-64.5 -46t-99.5 -16zM226 -205q74 0 113 28t39 74
q0 36 -22.5 54.5t-56.5 26t-68.5 10t-58.5 5.5q-40 -11 -72.5 -33.5t-32.5 -64.5q0 -44 41.5 -72t117.5 -28zM221 138q59 0 92.5 37.5t33.5 93.5v45q0 55 -33.5 92t-93.5 37t-93 -37t-33 -92v-44q0 -56 33.5 -94t93.5 -38zM223 601q-39 0 -70 27t-38 65q-1 8 3.5 12.5
t11.5 4.5h2q6 0 10 -4t5 -10q5 -29 26.5 -49t49.5 -20t49.5 20t25.5 49q1 6 5 10t10 4h2q7 0 12 -5t4 -12q-7 -38 -38.5 -65t-69.5 -27z" />
    <glyph glyph-name="Gdotaccent" unicode="&#x120;" horiz-adv-x="531" 
d="M271 -6q-55 0 -99 20.5t-70 65.5t-26 120v325q0 75 26 120t70 65.5t99 20.5q62 0 105.5 -22t67 -59.5t23.5 -83.5q0 -10 -5.5 -15t-12.5 -5t-12 4.5t-6 13.5q-6 45 -27 74t-55 43t-78 14q-75 0 -117 -41.5t-42 -128.5v-325q0 -87 42 -128.5t117 -41.5t117.5 41.5
t42.5 128.5v148h-159q-8 0 -12.5 5.5t-4.5 12.5t4.5 12.5t12.5 5.5h178q8 0 12.5 -5.5t4.5 -13.5v-165q0 -75 -26 -120t-70.5 -65.5t-99.5 -20.5zM274 860q-15 0 -24.5 10t-9.5 24t9.5 23.5t24.5 9.5q14 0 23.5 -9.5t9.5 -23.5t-9.5 -24t-23.5 -10z" />
    <glyph glyph-name="gdotaccent" unicode="&#x121;" horiz-adv-x="446" 
d="M226 -237q-58 0 -101.5 16t-68 45t-24.5 68q0 46 28.5 72.5t62.5 38.5q-27 8 -44 23.5t-17 47.5q0 28 13.5 43.5t35.5 25.5q-25 22 -38.5 54.5t-13.5 71.5v45q0 48 20 85t56.5 58t84.5 21q37 0 67 -12.5t52 -35.5q14 26 35 43.5t40 17.5q11 0 16 -6t5 -14q0 -9 -5.5 -14
t-12.5 -5q-13 0 -29.5 -9t-30.5 -37q13 -18 19 -42t6 -50v-45q0 -47 -20.5 -85t-57.5 -59.5t-85 -21.5q-46 0 -82 21q-15 -7 -27.5 -17.5t-12.5 -30.5q0 -25 23 -36t59 -15t76 -8t76 -15t59 -35t23 -69q0 -43 -23 -73t-64.5 -46t-99.5 -16zM226 -205q74 0 113 28t39 74
q0 36 -22.5 54.5t-56.5 26t-68.5 10t-58.5 5.5q-40 -11 -72.5 -33.5t-32.5 -64.5q0 -44 41.5 -72t117.5 -28zM221 138q59 0 92.5 37.5t33.5 93.5v45q0 55 -33.5 92t-93.5 37t-93 -37t-33 -92v-44q0 -56 33.5 -94t93.5 -38zM223 601q-15 0 -24.5 10t-9.5 24t9.5 23.5
t24.5 9.5q14 0 23.5 -9.5t9.5 -23.5t-9.5 -24t-23.5 -10z" />
    <glyph glyph-name="uni0122" unicode="&#x122;" horiz-adv-x="531" 
d="M271 -6q-55 0 -99 20.5t-70 65.5t-26 120v325q0 75 26 120t70 65.5t99 20.5q62 0 105.5 -22t67 -59.5t23.5 -83.5q0 -10 -5.5 -15t-12.5 -5t-12 4.5t-6 13.5q-6 45 -27 74t-55 43t-78 14q-75 0 -117 -41.5t-42 -128.5v-325q0 -87 42 -128.5t117 -41.5t117.5 41.5
t42.5 128.5v148h-159q-8 0 -12.5 5.5t-4.5 12.5t4.5 12.5t12.5 5.5h178q8 0 12.5 -5.5t4.5 -13.5v-165q0 -75 -26 -120t-70.5 -65.5t-99.5 -20.5zM218 -141q-7 0 -13 5.5t-6 12.5q0 9 8 13l102 60q4 2 7 2q8 0 12 -5.5t4 -12.5q0 -12 -10 -18l-95 -54q-2 -1 -4.5 -2t-4.5 -1
z" />
    <glyph glyph-name="uni0123" unicode="&#x123;" horiz-adv-x="446" 
d="M226 -237q-58 0 -101.5 16t-68 45t-24.5 68q0 46 28.5 72.5t62.5 38.5q-27 8 -44 23.5t-17 47.5q0 28 13.5 43.5t35.5 25.5q-25 22 -38.5 54.5t-13.5 71.5v45q0 48 20 85t56.5 58t84.5 21q37 0 67 -12.5t52 -35.5q14 26 35 43.5t40 17.5q11 0 16 -6t5 -14q0 -9 -5.5 -14
t-12.5 -5q-13 0 -29.5 -9t-30.5 -37q13 -18 19 -42t6 -50v-45q0 -47 -20.5 -85t-57.5 -59.5t-85 -21.5q-46 0 -82 21q-15 -7 -27.5 -17.5t-12.5 -30.5q0 -25 23 -36t59 -15t76 -8t76 -15t59 -35t23 -69q0 -43 -23 -73t-64.5 -46t-99.5 -16zM226 -205q74 0 113 28t39 74
q0 36 -22.5 54.5t-56.5 26t-68.5 10t-58.5 5.5q-40 -11 -72.5 -33.5t-32.5 -64.5q0 -44 41.5 -72t117.5 -28zM221 138q59 0 92.5 37.5t33.5 93.5v45q0 55 -33.5 92t-93.5 37t-93 -37t-33 -92v-44q0 -56 33.5 -94t93.5 -38zM176 601q-7 0 -13 5.5t-6 12.5q0 9 8 13l102 60
q4 2 7 2q8 0 12 -5.5t4 -12.5q0 -12 -10 -18l-95 -54q-2 -1 -4.5 -2t-4.5 -1z" />
    <glyph glyph-name="Hcircumflex" unicode="&#x124;" horiz-adv-x="557" 
d="M101 0q-7 0 -12.5 4.5t-5.5 13.5v696q0 9 5.5 13t12.5 4t12.5 -4t5.5 -13v-317h319v317q0 9 5.5 13t12.5 4t12.5 -4t5.5 -13v-696q0 -9 -5.5 -13.5t-12.5 -4.5t-12.5 4.5t-5.5 13.5v343h-319v-343q0 -9 -5.5 -13.5t-12.5 -4.5zM167 859q-7 0 -12.5 5.5t-5.5 13.5
q0 4 2.5 8t6.5 6l104 56q8 5 17 5t17 -5l104 -55q5 -2 7 -7t2 -10q0 -7 -5 -11.5t-12 -4.5q-2 0 -4.5 1t-4.5 2l-104 55l-104 -56l-4 -2t-4 -1z" />
    <glyph glyph-name="hcircumflex" unicode="&#x125;" horiz-adv-x="482" 
d="M86 0q-7 0 -12 5.5t-5 12.5v733q0 8 5 12.5t12 4.5q8 0 13 -4.5t5 -12.5v-349q17 29 50.5 52.5t83.5 23.5q49 0 90 -24.5t65.5 -65t24.5 -90.5v-280q0 -9 -5.5 -13.5t-12.5 -4.5q-6 0 -11.5 4.5t-5.5 13.5v280q0 37 -19.5 70t-51.5 54t-71 21q-34 0 -65.5 -17.5
t-51.5 -49.5t-20 -78v-280q0 -7 -5 -12.5t-13 -5.5zM-26 886q-7 0 -12.5 5.5t-5.5 13.5q0 4 2.5 8t6.5 6l104 56q8 5 17 5t17 -5l104 -55q5 -2 7 -7t2 -10q0 -7 -5 -11.5t-12 -4.5q-2 0 -4.5 1t-4.5 2l-104 55l-104 -56l-4 -2t-4 -1z" />
    <glyph glyph-name="Hbar" unicode="&#x126;" horiz-adv-x="557" 
d="M101 0q-7 0 -12.5 4.5t-5.5 13.5v525h-45q-7 0 -12 5t-5 12q0 8 5 13t12 5h45v136q0 9 5.5 13t12.5 4t12.5 -4t5.5 -13v-136h319v136q0 9 5.5 13t12.5 4t12.5 -4t5.5 -13v-136h44q7 0 12.5 -5t5.5 -13q0 -7 -5.5 -12t-12.5 -5h-44v-525q0 -9 -5.5 -13.5t-12.5 -4.5
t-12.5 4.5t-5.5 13.5v343h-319v-343q0 -9 -5.5 -13.5t-12.5 -4.5zM119 397h319v146h-319v-146z" />
    <glyph glyph-name="hbar" unicode="&#x127;" horiz-adv-x="482" 
d="M86 0q-7 0 -12 5.5t-5 12.5v574h-32q-7 0 -12 5t-5 12q0 8 5 13t12 5h32v124q0 8 5 12.5t12 4.5q8 0 13 -4.5t5 -12.5v-124h153q7 0 12.5 -5t5.5 -13q0 -7 -5.5 -12t-12.5 -5h-153v-190q17 29 50.5 52.5t83.5 23.5q49 0 90 -24.5t65.5 -65t24.5 -90.5v-280
q0 -9 -5.5 -13.5t-12.5 -4.5q-6 0 -11.5 4.5t-5.5 13.5v280q0 37 -19.5 70t-51.5 54t-71 21q-34 0 -65.5 -17.5t-51.5 -49.5t-20 -78v-280q0 -7 -5 -12.5t-13 -5.5z" />
    <glyph glyph-name="Itilde" unicode="&#x128;" horiz-adv-x="202" 
d="M101 0q-7 0 -12.5 4.5t-5.5 13.5v696q0 9 5.5 13t12.5 4t12.5 -4t5.5 -13v-696q0 -9 -5.5 -13.5t-12.5 -4.5zM164 878q-24 0 -42.5 9.5t-38.5 18.5t-48 9q-21 0 -34 -8.5t-20.5 -17.5t-14.5 -9q-3 0 -6 2t-5 6t-2 9q0 10 8.5 19t22.5 16.5t29.5 12t28.5 4.5q25 0 44 -9
t38.5 -18.5t44.5 -9.5q23 0 34 8t17 16t14 8q4 0 7 -2t5 -5t2 -8q0 -12 -8.5 -21t-21.5 -16t-27.5 -10.5t-26.5 -3.5z" />
    <glyph glyph-name="itilde" unicode="&#x129;" horiz-adv-x="171" 
d="M85 0q-7 0 -12 5.5t-5 12.5v437q0 8 5 12.5t12 4.5q8 0 13 -4.5t5 -12.5v-437q0 -7 -5 -12.5t-13 -5.5zM149 619q-24 0 -42.5 9.5t-38.5 18.5t-48 9q-21 0 -34 -8.5t-20.5 -17.5t-14.5 -9q-3 0 -6 2t-5 6t-2 9q0 10 8.5 19t22.5 16.5t29.5 12t28.5 4.5q25 0 44 -9
t38.5 -18.5t44.5 -9.5q23 0 34 8t17 16t14 8q4 0 7 -2t5 -5t2 -8q0 -12 -8.5 -21t-21.5 -16t-27.5 -10.5t-26.5 -3.5z" />
    <glyph glyph-name="Imacron" unicode="&#x12a;" horiz-adv-x="202" 
d="M101 0q-7 0 -12.5 4.5t-5.5 13.5v696q0 9 5.5 13t12.5 4t12.5 -4t5.5 -13v-696q0 -9 -5.5 -13.5t-12.5 -4.5zM-10 906q-7 0 -12 5t-5 12q0 8 5 13t12 5h220q7 0 12.5 -5t5.5 -13q0 -7 -5.5 -12t-12.5 -5h-220z" />
    <glyph glyph-name="imacron" unicode="&#x12b;" horiz-adv-x="171" 
d="M85 0q-7 0 -12 5.5t-5 12.5v437q0 8 5 12.5t12 4.5q8 0 13 -4.5t5 -12.5v-437q0 -7 -5 -12.5t-13 -5.5zM-25 647q-7 0 -12 5t-5 12q0 8 5 13t12 5h220q7 0 12.5 -5t5.5 -13q0 -7 -5.5 -12t-12.5 -5h-220z" />
    <glyph glyph-name="Ibreve" unicode="&#x12c;" horiz-adv-x="202" 
d="M101 0q-7 0 -12.5 4.5t-5.5 13.5v696q0 9 5.5 13t12.5 4t12.5 -4t5.5 -13v-696q0 -9 -5.5 -13.5t-12.5 -4.5zM101 860q-39 0 -70 27t-38 65q-1 8 3.5 12.5t11.5 4.5h2q6 0 10 -4t5 -10q5 -29 26.5 -49t49.5 -20t49.5 20t25.5 49q1 6 5 10t10 4h2q7 0 12 -5t4 -12
q-7 -38 -38.5 -65t-69.5 -27z" />
    <glyph glyph-name="ibreve" unicode="&#x12d;" horiz-adv-x="171" 
d="M85 0q-7 0 -12 5.5t-5 12.5v437q0 8 5 12.5t12 4.5q8 0 13 -4.5t5 -12.5v-437q0 -7 -5 -12.5t-13 -5.5zM86 601q-39 0 -70 27t-38 65q-1 8 3.5 12.5t11.5 4.5h2q6 0 10 -4t5 -10q5 -29 26.5 -49t49.5 -20t49.5 20t25.5 49q1 6 5 10t10 4h2q7 0 12 -5t4 -12
q-7 -38 -38.5 -65t-69.5 -27z" />
    <glyph glyph-name="Iogonek" unicode="&#x12e;" horiz-adv-x="202" 
d="M101 0q-7 0 -12.5 4.5t-5.5 13.5v696q0 9 5.5 13t12.5 4t12.5 -4t5.5 -13v-696q0 -9 -5.5 -13.5t-12.5 -4.5zM101 -190q-18 0 -38 5.5t-34.5 20t-14.5 41.5q0 44 21 79.5t54 66.5l26 -16q-30 -29 -51 -59t-21 -69q0 -25 17.5 -34t45.5 -9q8 0 13 -2.5t5 -10.5
q0 -7 -5 -10t-18 -3z" />
    <glyph glyph-name="iogonek" unicode="&#x12f;" horiz-adv-x="171" 
d="M85 0q-7 0 -12 5.5t-5 12.5v437q0 8 5 12.5t12 4.5q8 0 13 -4.5t5 -12.5v-437q0 -7 -5 -12.5t-13 -5.5zM86 601q-15 0 -24.5 10t-9.5 24t9.5 23.5t24.5 9.5q14 0 23.5 -9.5t9.5 -23.5t-9.5 -24t-23.5 -10zM86 -189q-18 0 -38 5.5t-34.5 20t-14.5 41.5q0 44 21 79.5
t54 66.5l26 -16q-30 -29 -51 -59t-21 -69q0 -25 17.5 -34t45.5 -9q8 0 13 -2.5t5 -10.5q0 -7 -5 -10t-18 -3z" />
    <glyph glyph-name="Idotaccent" unicode="&#x130;" horiz-adv-x="202" 
d="M101 0q-7 0 -12.5 4.5t-5.5 13.5v696q0 9 5.5 13t12.5 4t12.5 -4t5.5 -13v-696q0 -9 -5.5 -13.5t-12.5 -4.5zM101 860q-15 0 -24.5 10t-9.5 24t9.5 23.5t24.5 9.5q14 0 23.5 -9.5t9.5 -23.5t-9.5 -24t-23.5 -10z" />
    <glyph glyph-name="dotlessi" unicode="&#x131;" horiz-adv-x="171" 
d="M85 0q-7 0 -12 5.5t-5 12.5v437q0 8 5 12.5t12 4.5q8 0 13 -4.5t5 -12.5v-437q0 -7 -5 -12.5t-13 -5.5z" />
    <glyph glyph-name="IJ" unicode="&#x132;" horiz-adv-x="698" 
d="M101 0q-7 0 -12.5 4.5t-5.5 13.5v696q0 9 5.5 13t12.5 4t12.5 -4t5.5 -13v-696q0 -9 -5.5 -13.5t-12.5 -4.5zM424 -6q-61 0 -105 22t-67.5 59.5t-23.5 83.5q0 11 5 15.5t12 4.5t13 -4.5t6 -13.5q0 -44 21.5 -73.5t58 -43.5t80.5 -14q75 0 117 41.5t42 128.5v495h-159
q-8 0 -12.5 6t-4.5 13q0 6 4 11.5t13 5.5h177q7 0 12.5 -4.5t5.5 -13.5v-513q0 -75 -26 -120t-70 -65.5t-99 -20.5z" />
    <glyph glyph-name="ij" unicode="&#x133;" horiz-adv-x="344" 
d="M86 628q-13 0 -22.5 9.5t-9.5 22.5t9.5 22t22.5 9t22 -9t9 -22t-9 -22.5t-22 -9.5zM85 0q-7 0 -12 5.5t-5 12.5v437q0 8 5 12.5t12 4.5q8 0 13 -4.5t5 -12.5v-437q0 -7 -5 -12.5t-13 -5.5zM153 -237q-7 0 -12.5 5.5t-5.5 12.5q0 8 5.5 12.5t12.5 4.5q39 0 57.5 20t24 55
t5.5 79v503q0 8 5 12.5t12 4.5q8 0 13 -4.5t5 -12.5v-503q0 -55 -11.5 -98t-38 -67t-72.5 -24zM257 628q-13 0 -22.5 9.5t-9.5 22.5t9.5 22t22.5 9t22 -9t9 -22t-9 -22.5t-22 -9.5z" />
    <glyph glyph-name="Jcircumflex" unicode="&#x134;" horiz-adv-x="496" 
d="M222 -6q-61 0 -105 22t-67.5 59.5t-23.5 83.5q0 11 5 15.5t12 4.5t13 -4.5t6 -13.5q0 -44 21.5 -73.5t58 -43.5t80.5 -14q75 0 117 41.5t42 128.5v495h-159q-8 0 -12.5 6t-4.5 13q0 6 4 11.5t13 5.5h177q7 0 12.5 -4.5t5.5 -13.5v-513q0 -75 -26 -120t-70 -65.5
t-99 -20.5zM136 859q-7 0 -12.5 5.5t-5.5 13.5q0 4 2.5 8t6.5 6l104 56q8 5 17 5t17 -5l104 -55q5 -2 7 -7t2 -10q0 -7 -5 -11.5t-12 -4.5q-2 0 -4.5 1t-4.5 2l-104 55l-104 -56l-4 -2t-4 -1z" />
    <glyph glyph-name="jcircumflex" unicode="&#x135;" horiz-adv-x="173" 
d="M-18 -237q-7 0 -12.5 5.5t-5.5 12.5q0 8 5.5 12.5t12.5 4.5q39 0 57.5 20t24 55t5.5 79v503q0 8 5 12.5t12 4.5q8 0 13 -4.5t5 -12.5v-503q0 -55 -11.5 -98t-38 -67t-72.5 -24zM-25 600q-7 0 -12.5 5.5t-5.5 13.5q0 4 2.5 8t6.5 6l104 56q8 5 17 5t17 -5l104 -55
q5 -2 7 -7t2 -10q0 -7 -5 -11.5t-12 -4.5q-2 0 -4.5 1t-4.5 2l-104 55l-104 -56l-4 -2t-4 -1z" />
    <glyph glyph-name="uni0136" unicode="&#x136;" horiz-adv-x="508" 
d="M101 0q-7 0 -12.5 4.5t-5.5 13.5v696q0 9 5.5 13t12.5 4t12.5 -4t5.5 -13v-392l323 403q5 6 14 6q5 0 9 -2.5t6.5 -7t2.5 -9.5q0 -2 -1 -5t-3 -5l-231 -287l258 -388q3 -4 3 -9t-2.5 -9t-7 -6.5t-9.5 -2.5q-4 0 -8 2.5t-7 6.5l-251 376l-96 -120v-247q0 -9 -5.5 -13.5
t-12.5 -4.5zM206 -141q-7 0 -13 5.5t-6 12.5q0 9 8 13l102 60q4 2 7 2q8 0 12 -5.5t4 -12.5q0 -12 -10 -18l-95 -54q-2 -1 -4.5 -2t-4.5 -1z" />
    <glyph glyph-name="uni0137" unicode="&#x137;" horiz-adv-x="437" 
d="M86 0q-7 0 -12 5.5t-5 12.5v733q0 8 5 12.5t12 4.5q8 0 13 -4.5t5 -12.5v-518l270 235q6 4 10 4q5 0 9 -1.5t7 -5t3 -9.5q0 -4 -1 -8t-5 -7l-161 -140l185 -273q3 -4 3 -10q0 -4 -2 -8.5t-6 -7t-9 -2.5q-8 0 -14 9l-184 269l-105 -92v-168q0 -7 -5 -12.5t-13 -5.5z
M171 -141q-7 0 -13 5.5t-6 12.5q0 9 8 13l102 60q4 2 7 2q8 0 12 -5.5t4 -12.5q0 -12 -10 -18l-95 -54q-2 -1 -4.5 -2t-4.5 -1z" />
    <glyph glyph-name="kgreenlandic" unicode="&#x138;" horiz-adv-x="436" 
d="M85 0q-7 0 -12 5.5t-5 12.5v437q0 8 5 12.5t12 4.5q8 0 13 -4.5t5 -12.5v-222l270 235q6 4 10 4q5 0 9 -1.5t7 -5t3 -9.5q0 -4 -1 -8t-5 -7l-161 -140l185 -273q3 -4 3 -10q0 -4 -2 -8.5t-6 -7t-9 -2.5q-8 0 -14 9l-184 269l-105 -92v-168q0 -7 -5 -12.5t-13 -5.5z" />
    <glyph glyph-name="Lacute" unicode="&#x139;" horiz-adv-x="452" 
d="M101 0q-7 0 -12.5 4.5t-5.5 13.5v696q0 9 5.5 13t12.5 4t12.5 -4t5.5 -13v-678h304q8 0 11.5 -5.5t3.5 -12.5t-3.5 -12.5t-11.5 -5.5h-322zM214 860q-7 0 -13 5.5t-6 12.5q0 9 8 13l102 60q4 2 7 2q8 0 12 -5.5t4 -12.5q0 -12 -10 -18l-95 -54q-2 -1 -4.5 -2t-4.5 -1z
" />
    <glyph glyph-name="lacute" unicode="&#x13a;" horiz-adv-x="189" 
d="M94 0q-7 0 -12 5.5t-5 12.5v733q0 8 5 12.5t12 4.5q8 0 13 -4.5t5 -12.5v-733q0 -7 -5 -12.5t-13 -5.5zM47 810q-7 0 -13 5.5t-6 12.5q0 9 8 13l102 60q4 2 7 2q8 0 12 -5.5t4 -12.5q0 -12 -10 -18l-95 -54q-2 -1 -4.5 -2t-4.5 -1z" />
    <glyph glyph-name="uni013B" unicode="&#x13b;" horiz-adv-x="452" 
d="M101 0q-7 0 -12.5 4.5t-5.5 13.5v696q0 9 5.5 13t12.5 4t12.5 -4t5.5 -13v-678h304q8 0 11.5 -5.5t3.5 -12.5t-3.5 -12.5t-11.5 -5.5h-322zM205 -141q-7 0 -13 5.5t-6 12.5q0 9 8 13l102 60q4 2 7 2q8 0 12 -5.5t4 -12.5q0 -12 -10 -18l-95 -54q-2 -1 -4.5 -2t-4.5 -1z
" />
    <glyph glyph-name="uni013C" unicode="&#x13c;" horiz-adv-x="189" 
d="M94 0q-7 0 -12 5.5t-5 12.5v733q0 8 5 12.5t12 4.5q8 0 13 -4.5t5 -12.5v-733q0 -7 -5 -12.5t-13 -5.5zM47 -141q-7 0 -13 5.5t-6 12.5q0 9 8 13l102 60q4 2 7 2q8 0 12 -5.5t4 -12.5q0 -12 -10 -18l-95 -54q-2 -1 -4.5 -2t-4.5 -1z" />
    <glyph glyph-name="Lcaron" unicode="&#x13d;" horiz-adv-x="453" 
d="M101 0q-7 0 -12.5 4.5t-5.5 13.5v696q0 9 5.5 13t12.5 4t12.5 -4t5.5 -13v-678h304q8 0 11.5 -5.5t3.5 -12.5t-3.5 -12.5t-11.5 -5.5h-322zM312 598q-6 0 -11 4t-5 11q0 4 1 6l18 51q-12 3 -19.5 13t-7.5 22q0 15 10 25.5t26 10.5q14 0 24.5 -10.5t10.5 -25.5
q0 -6 -3 -17.5t-7.5 -25t-10.5 -28t-12 -26.5q-2 -4 -6 -7t-8 -3z" />
    <glyph glyph-name="lcaron" unicode="&#x13e;" horiz-adv-x="189" 
d="M94 0q-7 0 -12 5.5t-5 12.5v733q0 8 5 12.5t12 4.5q8 0 13 -4.5t5 -12.5v-733q0 -7 -5 -12.5t-13 -5.5zM205 598q-6 0 -11 4t-5 11q0 4 1 6l18 51q-12 3 -19.5 13t-7.5 22q0 15 10 25.5t26 10.5q14 0 24.5 -10.5t10.5 -25.5q0 -6 -3 -17.5t-7.5 -25t-10.5 -28t-12 -26.5
q-2 -4 -6 -7t-8 -3z" />
    <glyph glyph-name="Ldot" unicode="&#x13f;" horiz-adv-x="453" 
d="M101 0q-7 0 -12.5 4.5t-5.5 13.5v696q0 9 5.5 13t12.5 4t12.5 -4t5.5 -13v-678h304q8 0 11.5 -5.5t3.5 -12.5t-3.5 -12.5t-11.5 -5.5h-322zM322 385q-16 0 -26 11t-10 25q0 15 10 25.5t26 10.5q14 0 24.5 -10.5t10.5 -25.5q0 -14 -10.5 -25t-24.5 -11z" />
    <glyph glyph-name="ldot" unicode="&#x140;" horiz-adv-x="286" 
d="M94 0q-7 0 -12 5.5t-5 12.5v733q0 8 5 12.5t12 4.5q8 0 13 -4.5t5 -12.5v-733q0 -7 -5 -12.5t-13 -5.5zM238 264q-16 0 -26 11t-10 25q0 15 10 25.5t26 10.5q14 0 24.5 -10.5t10.5 -25.5q0 -14 -10.5 -25t-24.5 -11z" />
    <glyph glyph-name="Lslash" unicode="&#x141;" horiz-adv-x="458" 
d="M107 0q-7 0 -12.5 4.5t-5.5 13.5v285l-57 -33q-4 -3 -9 -3q-6 0 -11.5 6t-5.5 13q0 4 2.5 8t6.5 6l74 43v371q0 9 5.5 13t12.5 4t12.5 -4t5.5 -13v-351l115 67q3 2 9 2q5 0 8.5 -2t6 -5.5t2.5 -8.5q0 -11 -9 -16l-132 -76v-288h304q8 0 11.5 -5.5t3.5 -12.5t-3.5 -12.5
t-11.5 -5.5h-322z" />
    <glyph glyph-name="lslash" unicode="&#x142;" horiz-adv-x="297" 
d="M142 0q-7 0 -12 5.5t-5 12.5v297l-79 -45q-4 -3 -9 -3q-6 0 -11.5 6t-5.5 13q0 4 2.5 8t6.5 6l96 55v396q0 8 5 12.5t12 4.5q8 0 13 -4.5t5 -12.5v-376l94 55q3 2 9 2q5 0 8.5 -2t6 -5.5t2.5 -8.5q0 -11 -9 -16l-111 -64v-318q0 -7 -5 -12.5t-13 -5.5z" />
    <glyph glyph-name="Nacute" unicode="&#x143;" horiz-adv-x="557" 
d="M101 0q-7 0 -12.5 4.5t-5.5 13.5v696q0 10 5.5 13.5t12.5 3.5t13 -7t11 -15.5t7 -13.5l306 -606v625q0 9 5.5 13t12.5 4t12.5 -4t5.5 -13v-696q0 -9 -5.5 -13.5t-12.5 -4.5q-10 0 -17 13t-12 23l-308 607v-625q0 -9 -5.5 -13.5t-12.5 -4.5zM231 860q-7 0 -13 5.5t-6 12.5
q0 9 8 13l102 60q4 2 7 2q8 0 12 -5.5t4 -12.5q0 -12 -10 -18l-95 -54q-2 -1 -4.5 -2t-4.5 -1z" />
    <glyph glyph-name="nacute" unicode="&#x144;" horiz-adv-x="481" 
d="M85 0q-7 0 -12 5.5t-5 12.5v437q0 8 5 12.5t12 4.5q8 0 13 -4.5t5 -12.5v-53q17 29 50.5 52.5t83.5 23.5q49 0 90 -24.5t65.5 -65t24.5 -90.5v-280q0 -9 -5.5 -13.5t-12.5 -4.5q-6 0 -11.5 4.5t-5.5 13.5v280q0 37 -19.5 70t-51.5 54t-71 21q-34 0 -65.5 -17.5
t-51.5 -49.5t-20 -78v-280q0 -7 -5 -12.5t-13 -5.5zM193 601q-7 0 -13 5.5t-6 12.5q0 9 8 13l102 60q4 2 7 2q8 0 12 -5.5t4 -12.5q0 -12 -10 -18l-95 -54q-2 -1 -4.5 -2t-4.5 -1z" />
    <glyph glyph-name="uni0145" unicode="&#x145;" horiz-adv-x="557" 
d="M101 0q-7 0 -12.5 4.5t-5.5 13.5v696q0 10 5.5 13.5t12.5 3.5t13 -7t11 -15.5t7 -13.5l306 -606v625q0 9 5.5 13t12.5 4t12.5 -4t5.5 -13v-696q0 -9 -5.5 -13.5t-12.5 -4.5q-10 0 -17 13t-12 23l-308 607v-625q0 -9 -5.5 -13.5t-12.5 -4.5zM231 -141q-7 0 -13 5.5
t-6 12.5q0 9 8 13l102 60q4 2 7 2q8 0 12 -5.5t4 -12.5q0 -12 -10 -18l-95 -54q-2 -1 -4.5 -2t-4.5 -1z" />
    <glyph glyph-name="uni0146" unicode="&#x146;" horiz-adv-x="481" 
d="M85 0q-7 0 -12 5.5t-5 12.5v437q0 8 5 12.5t12 4.5q8 0 13 -4.5t5 -12.5v-53q17 29 50.5 52.5t83.5 23.5q49 0 90 -24.5t65.5 -65t24.5 -90.5v-280q0 -9 -5.5 -13.5t-12.5 -4.5q-6 0 -11.5 4.5t-5.5 13.5v280q0 37 -19.5 70t-51.5 54t-71 21q-34 0 -65.5 -17.5
t-51.5 -49.5t-20 -78v-280q0 -7 -5 -12.5t-13 -5.5zM193 -141q-7 0 -13 5.5t-6 12.5q0 9 8 13l102 60q4 2 7 2q8 0 12 -5.5t4 -12.5q0 -12 -10 -18l-95 -54q-2 -1 -4.5 -2t-4.5 -1z" />
    <glyph glyph-name="Ncaron" unicode="&#x147;" horiz-adv-x="557" 
d="M101 0q-7 0 -12.5 4.5t-5.5 13.5v696q0 10 5.5 13.5t12.5 3.5t13 -7t11 -15.5t7 -13.5l306 -606v625q0 9 5.5 13t12.5 4t12.5 -4t5.5 -13v-696q0 -9 -5.5 -13.5t-12.5 -4.5q-10 0 -17 13t-12 23l-308 607v-625q0 -9 -5.5 -13.5t-12.5 -4.5zM279 847q-12 0 -21 11
l-100 101q-4 5 -6 8.5t-2 7.5q0 5 4 10t11 5q9 0 16 -8l98 -103l98 103q7 8 16 8q7 0 11 -5t4 -10q0 -4 -2 -7.5t-6 -8.5l-100 -101q-11 -11 -21 -11z" />
    <glyph glyph-name="ncaron" unicode="&#x148;" horiz-adv-x="481" 
d="M85 0q-7 0 -12 5.5t-5 12.5v437q0 8 5 12.5t12 4.5q8 0 13 -4.5t5 -12.5v-53q17 29 50.5 52.5t83.5 23.5q49 0 90 -24.5t65.5 -65t24.5 -90.5v-280q0 -9 -5.5 -13.5t-12.5 -4.5q-6 0 -11.5 4.5t-5.5 13.5v280q0 37 -19.5 70t-51.5 54t-71 21q-34 0 -65.5 -17.5
t-51.5 -49.5t-20 -78v-280q0 -7 -5 -12.5t-13 -5.5zM241 588q-12 0 -21 11l-100 101q-4 5 -6 8.5t-2 7.5q0 5 4 10t11 5q9 0 16 -8l98 -103l98 103q7 8 16 8q7 0 11 -5t4 -10q0 -4 -2 -7.5t-6 -8.5l-100 -101q-11 -11 -21 -11z" />
    <glyph glyph-name="Eng" unicode="&#x14a;" horiz-adv-x="557" 
d="M352 -237q-7 0 -12.5 5.5t-5.5 12.5q0 8 5.5 12.5t12.5 4.5q39 0 57.5 20t24 55t5.5 79v48q0 5 -2.5 14t-9.5 22l-308 607v-625q0 -9 -5.5 -13.5t-12.5 -4.5t-12.5 4.5t-5.5 13.5v696q0 10 5.5 13.5t12.5 3.5t13 -7t11 -15.5t7 -13.5l306 -606v625q0 9 5.5 13t12.5 4
t12.5 -4t5.5 -13v-762q0 -55 -11.5 -98t-38 -67t-72.5 -24z" />
    <glyph glyph-name="eng" unicode="&#x14b;" horiz-adv-x="481" 
d="M295 -237q-7 0 -12.5 5.5t-5.5 12.5q0 8 5.5 12.5t12.5 4.5q39 0 57.5 20t24 55t5.5 79v346q0 37 -19.5 70t-51.5 54t-71 21q-34 0 -65.5 -17.5t-51.5 -49.5t-20 -78v-280q0 -7 -5 -12.5t-13 -5.5q-7 0 -12 5.5t-5 12.5v437q0 8 5 12.5t12 4.5q8 0 13 -4.5t5 -12.5v-53
q17 29 50.5 52.5t83.5 23.5q49 0 90 -24.5t65.5 -65t24.5 -90.5v-346q0 -55 -11.5 -98t-38 -67t-72.5 -24z" />
    <glyph glyph-name="Omacron" unicode="&#x14c;" horiz-adv-x="543" 
d="M271 -6q-55 0 -99 20.5t-70 65.5t-26 120v325q0 75 26 120t70 65.5t99 20.5t99.5 -20.5t70.5 -65.5t26 -120v-325q0 -75 -26 -120t-70.5 -65.5t-99.5 -20.5zM271 30q75 0 117.5 41.5t42.5 128.5v325q0 87 -42.5 128.5t-117.5 41.5t-117 -41.5t-42 -128.5v-325
q0 -87 42 -128.5t117 -41.5zM161 906q-7 0 -12 5t-5 12q0 8 5 13t12 5h220q7 0 12.5 -5t5.5 -13q0 -7 -5.5 -12t-12.5 -5h-220z" />
    <glyph glyph-name="omacron" unicode="&#x14d;" 
d="M227 -6q-47 0 -87.5 25.5t-65 67t-24.5 89.5v122q0 48 24 89t64.5 66t88.5 25t88.5 -24.5t65 -65t24.5 -90.5v-122q0 -47 -24.5 -89t-65 -67.5t-88.5 -25.5zM227 29q40 0 72 21t51.5 55t19.5 71v122q0 37 -19 70t-51.5 54t-72.5 21t-72 -21t-51 -54t-19 -70v-122
q0 -37 19 -71t51.5 -55t71.5 -21zM117 647q-7 0 -12 5t-5 12q0 8 5 13t12 5h220q7 0 12.5 -5t5.5 -13q0 -7 -5.5 -12t-12.5 -5h-220z" />
    <glyph glyph-name="Obreve" unicode="&#x14e;" horiz-adv-x="543" 
d="M271 -6q-55 0 -99 20.5t-70 65.5t-26 120v325q0 75 26 120t70 65.5t99 20.5t99.5 -20.5t70.5 -65.5t26 -120v-325q0 -75 -26 -120t-70.5 -65.5t-99.5 -20.5zM271 30q75 0 117.5 41.5t42.5 128.5v325q0 87 -42.5 128.5t-117.5 41.5t-117 -41.5t-42 -128.5v-325
q0 -87 42 -128.5t117 -41.5zM272 860q-39 0 -70 27t-38 65q-1 8 3.5 12.5t11.5 4.5h2q6 0 10 -4t5 -10q5 -29 26.5 -49t49.5 -20t49.5 20t25.5 49q1 6 5 10t10 4h2q7 0 12 -5t4 -12q-7 -38 -38.5 -65t-69.5 -27z" />
    <glyph glyph-name="obreve" unicode="&#x14f;" 
d="M227 -6q-47 0 -87.5 25.5t-65 67t-24.5 89.5v122q0 48 24 89t64.5 66t88.5 25t88.5 -24.5t65 -65t24.5 -90.5v-122q0 -47 -24.5 -89t-65 -67.5t-88.5 -25.5zM227 29q40 0 72 21t51.5 55t19.5 71v122q0 37 -19 70t-51.5 54t-72.5 21t-72 -21t-51 -54t-19 -70v-122
q0 -37 19 -71t51.5 -55t71.5 -21zM228 601q-39 0 -70 27t-38 65q-1 8 3.5 12.5t11.5 4.5h2q6 0 10 -4t5 -10q5 -29 26.5 -49t49.5 -20t49.5 20t25.5 49q1 6 5 10t10 4h2q7 0 12 -5t4 -12q-7 -38 -38.5 -65t-69.5 -27z" />
    <glyph glyph-name="Ohungarumlaut" unicode="&#x150;" horiz-adv-x="543" 
d="M271 -6q-55 0 -99 20.5t-70 65.5t-26 120v325q0 75 26 120t70 65.5t99 20.5t99.5 -20.5t70.5 -65.5t26 -120v-325q0 -75 -26 -120t-70.5 -65.5t-99.5 -20.5zM271 30q75 0 117.5 41.5t42.5 128.5v325q0 87 -42.5 128.5t-117.5 41.5t-117 -41.5t-42 -128.5v-325
q0 -87 42 -128.5t117 -41.5zM315 860q-7 0 -13 5.5t-6 12.5q0 9 8 13l102 60q2 1 4 1.5t3 0.5q8 0 12 -5.5t4 -12.5q0 -12 -10 -18l-95 -54q-4 -3 -9 -3zM168 860q-7 0 -13 5.5t-6 12.5q0 9 8 13l102 60q2 1 4 1.5t3 0.5q8 0 12 -5.5t4 -12.5q0 -12 -10 -18l-95 -54
q-4 -3 -9 -3z" />
    <glyph glyph-name="ohungarumlaut" unicode="&#x151;" 
d="M227 -6q-47 0 -87.5 25.5t-65 67t-24.5 89.5v122q0 48 24 89t64.5 66t88.5 25t88.5 -24.5t65 -65t24.5 -90.5v-122q0 -47 -24.5 -89t-65 -67.5t-88.5 -25.5zM227 29q40 0 72 21t51.5 55t19.5 71v122q0 37 -19 70t-51.5 54t-72.5 21t-72 -21t-51 -54t-19 -70v-122
q0 -37 19 -71t51.5 -55t71.5 -21zM271 601q-7 0 -13 5.5t-6 12.5q0 9 8 13l102 60q2 1 4 1.5t3 0.5q8 0 12 -5.5t4 -12.5q0 -12 -10 -18l-95 -54q-4 -3 -9 -3zM124 601q-7 0 -13 5.5t-6 12.5q0 9 8 13l102 60q2 1 4 1.5t3 0.5q8 0 12 -5.5t4 -12.5q0 -12 -10 -18l-95 -54
q-4 -3 -9 -3z" />
    <glyph glyph-name="OE" unicode="&#x152;" horiz-adv-x="845" 
d="M271 -6q-55 0 -99 20.5t-70 65.5t-26 120v325q0 75 26 120t70 65.5t99 20.5q50 0 92.5 -17t68.5 -55v54q0 9 5.5 13.5t12.5 4.5h354q9 0 13 -5.5t4 -11.5q0 -7 -4.5 -13t-12.5 -6h-338v-311h160q8 0 12.5 -5.5t4.5 -13.5q0 -6 -4 -11.5t-13 -5.5h-160v-312h338
q8 0 12.5 -5.5t4.5 -13.5q0 -6 -4 -11.5t-13 -5.5h-354q-7 0 -12.5 4.5t-5.5 13.5v48q-26 -38 -68.5 -55t-92.5 -17zM271 30q75 0 117.5 41.5t42.5 128.5v325q0 87 -42.5 128.5t-117.5 41.5t-117 -41.5t-42 -128.5v-325q0 -87 42 -128.5t117 -41.5z" />
    <glyph glyph-name="oe" unicode="&#x153;" horiz-adv-x="764" 
d="M227 -6q-47 0 -87.5 25.5t-65 67t-24.5 89.5v122q0 48 24 89t64.5 66t88.5 25q51 0 94.5 -28.5t65.5 -74.5q21 45 64.5 74t96.5 29q47 0 87.5 -23.5t65 -63.5t24.5 -91q0 -37 -11.5 -53.5t-30 -20t-41.5 -3.5h-237v-47q0 -68 48 -107.5t124 -39.5q41 0 61.5 10.5
t31.5 20.5t21 10q5 0 9 -2t7 -6.5t3 -11.5q0 -9 -18 -22.5t-49 -23.5t-72 -10q-65 0 -113.5 28t-71.5 76q-22 -45 -65 -74.5t-94 -29.5zM227 29q40 0 72 21t51.5 55t19.5 71v122q0 37 -19 70t-51.5 54t-72.5 21t-72 -21t-51 -54t-19 -70v-122q0 -37 19 -71t51.5 -55
t71.5 -21zM405 258h225q37 0 48.5 7t11.5 30q0 36 -17.5 70t-49.5 56t-75 22q-40 0 -72.5 -19.5t-51.5 -50.5t-19 -68v-47z" />
    <glyph glyph-name="Racute" unicode="&#x154;" horiz-adv-x="509" 
d="M456 0q-10 0 -17 13t-12 23l-160 312h-148v-330q0 -9 -5.5 -13.5t-12.5 -4.5t-12.5 4.5t-5.5 13.5v696q0 7 5 11.5t13 5.5h167q55 0 102 -17.5t75.5 -59t28.5 -114.5q0 -64 -22.5 -104t-60.5 -60t-85 -26l165 -321q2 -3 2.5 -6t0.5 -5q0 -5 -2.5 -9t-6.5 -6.5t-9 -2.5z
M119 384h149q75 0 122.5 36.5t47.5 119.5t-47.5 119t-122.5 36h-149v-311zM227 860q-7 0 -13 5.5t-6 12.5q0 9 8 13l102 60q4 2 7 2q8 0 12 -5.5t4 -12.5q0 -12 -10 -18l-95 -54q-2 -1 -4.5 -2t-4.5 -1z" />
    <glyph glyph-name="racute" unicode="&#x155;" horiz-adv-x="308" 
d="M85 0q-7 0 -12 5.5t-5 12.5v437q0 8 5 12.5t12 4.5q8 0 13 -4.5t5 -12.5v-53q12 20 31 37t46 28t62 11h37q7 0 12 -5t5 -13q0 -7 -5 -12t-12 -5h-37q-35 0 -67 -17.5t-52 -49.5t-20 -78v-280q0 -7 -5 -12.5t-13 -5.5zM106 601q-7 0 -13 5.5t-6 12.5q0 9 8 13l102 60
q4 2 7 2q8 0 12 -5.5t4 -12.5q0 -12 -10 -18l-95 -54q-2 -1 -4.5 -2t-4.5 -1z" />
    <glyph glyph-name="uni0156" unicode="&#x156;" horiz-adv-x="509" 
d="M456 0q-10 0 -17 13t-12 23l-160 312h-148v-330q0 -9 -5.5 -13.5t-12.5 -4.5t-12.5 4.5t-5.5 13.5v696q0 7 5 11.5t13 5.5h167q55 0 102 -17.5t75.5 -59t28.5 -114.5q0 -64 -22.5 -104t-60.5 -60t-85 -26l165 -321q2 -3 2.5 -6t0.5 -5q0 -5 -2.5 -9t-6.5 -6.5t-9 -2.5z
M119 384h149q75 0 122.5 36.5t47.5 119.5t-47.5 119t-122.5 36h-149v-311zM194 -141q-7 0 -13 5.5t-6 12.5q0 9 8 13l102 60q4 2 7 2q8 0 12 -5.5t4 -12.5q0 -12 -10 -18l-95 -54q-2 -1 -4.5 -2t-4.5 -1z" />
    <glyph glyph-name="uni0157" unicode="&#x157;" horiz-adv-x="308" 
d="M85 0q-7 0 -12 5.5t-5 12.5v437q0 8 5 12.5t12 4.5q8 0 13 -4.5t5 -12.5v-53q12 20 31 37t46 28t62 11h37q7 0 12 -5t5 -13q0 -7 -5 -12t-12 -5h-37q-35 0 -67 -17.5t-52 -49.5t-20 -78v-280q0 -7 -5 -12.5t-13 -5.5zM12 -141q-7 0 -13 5.5t-6 12.5q0 9 8 13l102 60
q4 2 7 2q8 0 12 -5.5t4 -12.5q0 -12 -10 -18l-95 -54q-2 -1 -4.5 -2t-4.5 -1z" />
    <glyph glyph-name="Rcaron" unicode="&#x158;" horiz-adv-x="509" 
d="M456 0q-10 0 -17 13t-12 23l-160 312h-148v-330q0 -9 -5.5 -13.5t-12.5 -4.5t-12.5 4.5t-5.5 13.5v696q0 7 5 11.5t13 5.5h167q55 0 102 -17.5t75.5 -59t28.5 -114.5q0 -64 -22.5 -104t-60.5 -60t-85 -26l165 -321q2 -3 2.5 -6t0.5 -5q0 -5 -2.5 -9t-6.5 -6.5t-9 -2.5z
M119 384h149q75 0 122.5 36.5t47.5 119.5t-47.5 119t-122.5 36h-149v-311zM275 847q-12 0 -21 11l-100 101q-4 5 -6 8.5t-2 7.5q0 5 4 10t11 5q9 0 16 -8l98 -103l98 103q7 8 16 8q7 0 11 -5t4 -10q0 -4 -2 -7.5t-6 -8.5l-100 -101q-11 -11 -21 -11z" />
    <glyph glyph-name="rcaron" unicode="&#x159;" horiz-adv-x="308" 
d="M85 0q-7 0 -12 5.5t-5 12.5v437q0 8 5 12.5t12 4.5q8 0 13 -4.5t5 -12.5v-53q12 20 31 37t46 28t62 11h37q7 0 12 -5t5 -13q0 -7 -5 -12t-12 -5h-37q-35 0 -67 -17.5t-52 -49.5t-20 -78v-280q0 -7 -5 -12.5t-13 -5.5zM154 588q-12 0 -21 11l-100 101q-4 5 -6 8.5t-2 7.5
q0 5 4 10t11 5q9 0 16 -8l98 -103l98 103q7 8 16 8q7 0 11 -5t4 -10q0 -4 -2 -7.5t-6 -8.5l-100 -101q-11 -11 -21 -11z" />
    <glyph glyph-name="Sacute" unicode="&#x15a;" horiz-adv-x="481" 
d="M235 -6q-64 0 -107 19.5t-64.5 44t-21.5 37.5q0 5 3 10t7 8t7 3q7 0 16 -13t26 -30t47.5 -30t81.5 -13q55 0 92 18.5t56 54.5t19 89q0 55 -18.5 88t-48.5 53t-65.5 32.5t-71.5 24.5t-66 31t-48.5 51.5t-18.5 85.5q0 54 19 88t49 52.5t64 25.5t65 7t59 -5t50.5 -12.5
t35.5 -16.5t13 -18q0 -4 -2.5 -9t-6.5 -9t-9 -4q-7 0 -23 9.5t-44.5 19t-73.5 9.5q-37 0 -74 -11t-61.5 -40t-24.5 -83q0 -46 18.5 -73.5t48.5 -43.5t65.5 -27.5t71.5 -25.5t66 -36.5t48.5 -60.5t18.5 -99q0 -71 -25.5 -115.5t-70 -65t-102.5 -20.5zM193 860q-7 0 -13 5.5
t-6 12.5q0 9 8 13l102 60q4 2 7 2q8 0 12 -5.5t4 -12.5q0 -12 -10 -18l-95 -54q-2 -1 -4.5 -2t-4.5 -1z" />
    <glyph glyph-name="sacute" unicode="&#x15b;" horiz-adv-x="373" 
d="M184 -6q-45 0 -77.5 11.5t-50.5 26.5t-18 27q0 5 2 8.5t5.5 6t6.5 2.5q9 0 21.5 -11.5t37.5 -23.5t72 -12q63 0 90 24.5t27 58.5q0 39 -18 60.5t-47 33t-61 20.5t-61 21.5t-47 36t-18 64.5q0 30 15.5 60t48 50t84.5 20q30 0 58 -6.5t46 -16t18 -19.5q0 -3 -2.5 -8
t-6 -8.5t-8.5 -3.5q-6 0 -19 7t-34 13.5t-51 6.5q-42 0 -67 -15.5t-36 -37t-11 -41.5q0 -33 18 -51t47 -28t61 -19t61 -23.5t47 -41t18 -72.5q0 -55 -40 -87.5t-111 -32.5zM139 601q-7 0 -13 5.5t-6 12.5q0 9 8 13l102 60q4 2 7 2q8 0 12 -5.5t4 -12.5q0 -12 -10 -18
l-95 -54q-2 -1 -4.5 -2t-4.5 -1z" />
    <glyph glyph-name="Scircumflex" unicode="&#x15c;" horiz-adv-x="481" 
d="M235 -6q-64 0 -107 19.5t-64.5 44t-21.5 37.5q0 5 3 10t7 8t7 3q7 0 16 -13t26 -30t47.5 -30t81.5 -13q55 0 92 18.5t56 54.5t19 89q0 55 -18.5 88t-48.5 53t-65.5 32.5t-71.5 24.5t-66 31t-48.5 51.5t-18.5 85.5q0 54 19 88t49 52.5t64 25.5t65 7t59 -5t50.5 -12.5
t35.5 -16.5t13 -18q0 -4 -2.5 -9t-6.5 -9t-9 -4q-7 0 -23 9.5t-44.5 19t-73.5 9.5q-37 0 -74 -11t-61.5 -40t-24.5 -83q0 -46 18.5 -73.5t48.5 -43.5t65.5 -27.5t71.5 -25.5t66 -36.5t48.5 -60.5t18.5 -99q0 -71 -25.5 -115.5t-70 -65t-102.5 -20.5zM129 859q-7 0 -12.5 5.5
t-5.5 13.5q0 4 2.5 8t6.5 6l104 56q8 5 17 5t17 -5l104 -55q5 -2 7 -7t2 -10q0 -7 -5 -11.5t-12 -4.5q-2 0 -4.5 1t-4.5 2l-104 55l-104 -56l-4 -2t-4 -1z" />
    <glyph glyph-name="scircumflex" unicode="&#x15d;" horiz-adv-x="373" 
d="M184 -6q-45 0 -77.5 11.5t-50.5 26.5t-18 27q0 5 2 8.5t5.5 6t6.5 2.5q9 0 21.5 -11.5t37.5 -23.5t72 -12q63 0 90 24.5t27 58.5q0 39 -18 60.5t-47 33t-61 20.5t-61 21.5t-47 36t-18 64.5q0 30 15.5 60t48 50t84.5 20q30 0 58 -6.5t46 -16t18 -19.5q0 -3 -2.5 -8
t-6 -8.5t-8.5 -3.5q-6 0 -19 7t-34 13.5t-51 6.5q-42 0 -67 -15.5t-36 -37t-11 -41.5q0 -33 18 -51t47 -28t61 -19t61 -23.5t47 -41t18 -72.5q0 -55 -40 -87.5t-111 -32.5zM75 600q-7 0 -12.5 5.5t-5.5 13.5q0 4 2.5 8t6.5 6l104 56q8 5 17 5t17 -5l104 -55q5 -2 7 -7t2 -10
q0 -7 -5 -11.5t-12 -4.5q-2 0 -4.5 1t-4.5 2l-104 55l-104 -56l-4 -2t-4 -1z" />
    <glyph glyph-name="Scedilla" unicode="&#x15e;" horiz-adv-x="481" 
d="M235 -6q-64 0 -107 19.5t-64.5 44t-21.5 37.5q0 5 3 10t7 8t7 3q7 0 16 -13t26 -30t47.5 -30t81.5 -13q55 0 92 18.5t56 54.5t19 89q0 55 -18.5 88t-48.5 53t-65.5 32.5t-71.5 24.5t-66 31t-48.5 51.5t-18.5 85.5q0 54 19 88t49 52.5t64 25.5t65 7t59 -5t50.5 -12.5
t35.5 -16.5t13 -18q0 -4 -2.5 -9t-6.5 -9t-9 -4q-7 0 -23 9.5t-44.5 19t-73.5 9.5q-37 0 -74 -11t-61.5 -40t-24.5 -83q0 -46 18.5 -73.5t48.5 -43.5t65.5 -27.5t71.5 -25.5t66 -36.5t48.5 -60.5t18.5 -99q0 -71 -25.5 -115.5t-70 -65t-102.5 -20.5zM278 -207
q-12 0 -29.5 2.5t-31 8t-13.5 13.5q0 3 2 7.5t4.5 7.5t5.5 3q5 0 18 -6.5t38 -6.5q32 0 43.5 12.5t11.5 28.5q0 23 -19 33t-51 12l-29 2l24 99h32l-18 -74q51 -1 72.5 -22.5t21.5 -47.5q0 -18 -9.5 -34.5t-28 -27t-44.5 -10.5z" />
    <glyph glyph-name="scedilla" unicode="&#x15f;" horiz-adv-x="373" 
d="M184 -6q-45 0 -77.5 11.5t-50.5 26.5t-18 27q0 5 2 8.5t5.5 6t6.5 2.5q9 0 21.5 -11.5t37.5 -23.5t72 -12q63 0 90 24.5t27 58.5q0 39 -18 60.5t-47 33t-61 20.5t-61 21.5t-47 36t-18 64.5q0 30 15.5 60t48 50t84.5 20q30 0 58 -6.5t46 -16t18 -19.5q0 -3 -2.5 -8
t-6 -8.5t-8.5 -3.5q-6 0 -19 7t-34 13.5t-51 6.5q-42 0 -67 -15.5t-36 -37t-11 -41.5q0 -33 18 -51t47 -28t61 -19t61 -23.5t47 -41t18 -72.5q0 -55 -40 -87.5t-111 -32.5zM204 -207q-12 0 -29.5 2.5t-31 8t-13.5 13.5q0 3 2 7.5t4.5 7.5t5.5 3q5 0 18 -6.5t38 -6.5
q32 0 43.5 12.5t11.5 28.5q0 23 -19 33t-51 12l-29 2l24 99h32l-18 -74q51 -1 72.5 -22.5t21.5 -47.5q0 -18 -9.5 -34.5t-28 -27t-44.5 -10.5z" />
    <glyph glyph-name="Scaron" unicode="&#x160;" horiz-adv-x="481" 
d="M235 -6q-64 0 -107 19.5t-64.5 44t-21.5 37.5q0 5 3 10t7 8t7 3q7 0 16 -13t26 -30t47.5 -30t81.5 -13q55 0 92 18.5t56 54.5t19 89q0 55 -18.5 88t-48.5 53t-65.5 32.5t-71.5 24.5t-66 31t-48.5 51.5t-18.5 85.5q0 54 19 88t49 52.5t64 25.5t65 7t59 -5t50.5 -12.5
t35.5 -16.5t13 -18q0 -4 -2.5 -9t-6.5 -9t-9 -4q-7 0 -23 9.5t-44.5 19t-73.5 9.5q-37 0 -74 -11t-61.5 -40t-24.5 -83q0 -46 18.5 -73.5t48.5 -43.5t65.5 -27.5t71.5 -25.5t66 -36.5t48.5 -60.5t18.5 -99q0 -71 -25.5 -115.5t-70 -65t-102.5 -20.5zM241 847q-12 0 -21 11
l-100 101q-4 5 -6 8.5t-2 7.5q0 5 4 10t11 5q9 0 16 -8l98 -103l98 103q7 8 16 8q7 0 11 -5t4 -10q0 -4 -2 -7.5t-6 -8.5l-100 -101q-11 -11 -21 -11z" />
    <glyph glyph-name="scaron" unicode="&#x161;" horiz-adv-x="373" 
d="M184 -6q-45 0 -77.5 11.5t-50.5 26.5t-18 27q0 5 2 8.5t5.5 6t6.5 2.5q9 0 21.5 -11.5t37.5 -23.5t72 -12q63 0 90 24.5t27 58.5q0 39 -18 60.5t-47 33t-61 20.5t-61 21.5t-47 36t-18 64.5q0 30 15.5 60t48 50t84.5 20q30 0 58 -6.5t46 -16t18 -19.5q0 -3 -2.5 -8
t-6 -8.5t-8.5 -3.5q-6 0 -19 7t-34 13.5t-51 6.5q-42 0 -67 -15.5t-36 -37t-11 -41.5q0 -33 18 -51t47 -28t61 -19t61 -23.5t47 -41t18 -72.5q0 -55 -40 -87.5t-111 -32.5zM187 588q-12 0 -21 11l-100 101q-4 5 -6 8.5t-2 7.5q0 5 4 10t11 5q9 0 16 -8l98 -103l98 103
q7 8 16 8q7 0 11 -5t4 -10q0 -4 -2 -7.5t-6 -8.5l-100 -101q-11 -11 -21 -11z" />
    <glyph glyph-name="uni021A" unicode="&#x162;" 
d="M228 0q-7 0 -12.5 4.5t-5.5 13.5v677h-178q-8 0 -13 5.5t-5 12.5t5 12.5t13 5.5h391q9 0 13.5 -5t4.5 -12t-4 -13t-14 -6h-177v-677q0 -9 -5.5 -13.5t-12.5 -4.5zM180 -141q-7 0 -13 5.5t-6 12.5q0 9 8 13l102 60q4 2 7 2q8 0 12 -5.5t4 -12.5q0 -12 -10 -18l-95 -54
q-2 -1 -4.5 -2t-4.5 -1z" />
    <glyph glyph-name="uni021B" unicode="&#x163;" horiz-adv-x="272" 
d="M212 0q-71 0 -108.5 33t-37.5 106v547q0 8 5.5 12.5t11.5 4.5q7 0 12.5 -4.5t5.5 -12.5v-214h135q7 0 12 -5t5 -13q0 -7 -5 -12t-12 -5h-135v-298q0 -57 25 -80.5t86 -23.5h23q7 0 12 -4.5t5 -12.5q0 -7 -5 -12.5t-12 -5.5h-23zM88 -141q-7 0 -13 5.5t-6 12.5q0 9 8 13
l102 60q4 2 7 2q8 0 12 -5.5t4 -12.5q0 -12 -10 -18l-95 -54q-2 -1 -4.5 -2t-4.5 -1z" />
    <glyph glyph-name="Tcaron" unicode="&#x164;" 
d="M228 0q-7 0 -12.5 4.5t-5.5 13.5v677h-178q-8 0 -13 5.5t-5 12.5t5 12.5t13 5.5h391q9 0 13.5 -5t4.5 -12t-4 -13t-14 -6h-177v-677q0 -9 -5.5 -13.5t-12.5 -4.5zM228 847q-12 0 -21 11l-100 101q-4 5 -6 8.5t-2 7.5q0 5 4 10t11 5q9 0 16 -8l98 -103l98 103q7 8 16 8
q7 0 11 -5t4 -10q0 -4 -2 -7.5t-6 -8.5l-100 -101q-11 -11 -21 -11z" />
    <glyph glyph-name="tcaron" unicode="&#x165;" horiz-adv-x="272" 
d="M212 0q-71 0 -108.5 33t-37.5 106v547q0 8 5.5 12.5t11.5 4.5q7 0 12.5 -4.5t5.5 -12.5v-214h135q7 0 12 -5t5 -13q0 -7 -5 -12t-12 -5h-135v-298q0 -57 25 -80.5t86 -23.5h23q7 0 12 -4.5t5 -12.5q0 -7 -5 -12.5t-12 -5.5h-23zM200 598q-6 0 -11 4t-5 11q0 4 1 6l18 51
q-12 3 -19.5 13t-7.5 22q0 15 10 25.5t26 10.5q14 0 24.5 -10.5t10.5 -25.5q0 -6 -3 -17.5t-7.5 -25t-10.5 -28t-12 -26.5q-2 -4 -6 -7t-8 -3z" />
    <glyph glyph-name="Tbar" unicode="&#x166;" horiz-adv-x="459" 
d="M230 0q-7 0 -12.5 4.5t-5.5 13.5v329h-148q-8 0 -13 5.5t-5 12.5t5 12.5t13 5.5h148v312h-178q-8 0 -13 5.5t-5 12.5t5 12.5t13 5.5h391q9 0 13.5 -5t4.5 -12t-4 -13t-14 -6h-177v-312h147q9 0 13.5 -5t4.5 -12t-4 -13t-14 -6h-147v-329q0 -9 -5.5 -13.5t-12.5 -4.5z" />
    <glyph glyph-name="tbar" unicode="&#x167;" horiz-adv-x="276" 
d="M212 0q-71 0 -108.5 33t-37.5 106v547q0 8 5.5 12.5t11.5 4.5q7 0 12.5 -4.5t5.5 -12.5v-214h135q7 0 12 -5t5 -13q0 -7 -5 -12t-12 -5h-135v-115h135q7 0 12 -5t5 -13q0 -7 -5 -12t-12 -5h-135v-148q0 -57 25 -80.5t86 -23.5h23q7 0 12 -4.5t5 -12.5q0 -7 -5 -12.5
t-12 -5.5h-23z" />
    <glyph glyph-name="Utilde" unicode="&#x168;" horiz-adv-x="549" 
d="M274 -6q-55 0 -99 20.5t-70 65.5t-26 120v514q0 9 5.5 13t12.5 4t12.5 -4t5.5 -13v-514q0 -87 42 -128.5t117 -41.5t117.5 41.5t42.5 128.5v514q0 9 5.5 13t12.5 4t12.5 -4t5.5 -13v-514q0 -75 -26 -120t-70.5 -65.5t-99.5 -20.5zM338 878q-24 0 -42.5 9.5t-38.5 18.5
t-48 9q-21 0 -34 -8.5t-20.5 -17.5t-14.5 -9q-3 0 -6 2t-5 6t-2 9q0 10 8.5 19t22.5 16.5t29.5 12t28.5 4.5q25 0 44 -9t38.5 -18.5t44.5 -9.5q23 0 34 8t17 16t14 8q4 0 7 -2t5 -5t2 -8q0 -12 -8.5 -21t-21.5 -16t-27.5 -10.5t-26.5 -3.5z" />
    <glyph glyph-name="utilde" unicode="&#x169;" horiz-adv-x="483" 
d="M242 -6q-49 0 -89.5 25t-64.5 66.5t-24 88.5v280q0 7 5.5 12.5t12.5 5.5t12 -5.5t5 -12.5v-280q0 -37 19 -70t51.5 -54t72.5 -21t72 20.5t51 54t19 70.5v281q0 7 5.5 12t12.5 5q8 0 12.5 -5t4.5 -12v-281q0 -48 -24 -89t-64.5 -66t-88.5 -25zM305 619q-24 0 -42.5 9.5
t-38.5 18.5t-48 9q-21 0 -34 -8.5t-20.5 -17.5t-14.5 -9q-3 0 -6 2t-5 6t-2 9q0 10 8.5 19t22.5 16.5t29.5 12t28.5 4.5q25 0 44 -9t38.5 -18.5t44.5 -9.5q23 0 34 8t17 16t14 8q4 0 7 -2t5 -5t2 -8q0 -12 -8.5 -21t-21.5 -16t-27.5 -10.5t-26.5 -3.5z" />
    <glyph glyph-name="Umacron" unicode="&#x16a;" horiz-adv-x="549" 
d="M274 -6q-55 0 -99 20.5t-70 65.5t-26 120v514q0 9 5.5 13t12.5 4t12.5 -4t5.5 -13v-514q0 -87 42 -128.5t117 -41.5t117.5 41.5t42.5 128.5v514q0 9 5.5 13t12.5 4t12.5 -4t5.5 -13v-514q0 -75 -26 -120t-70.5 -65.5t-99.5 -20.5zM164 906q-7 0 -12 5t-5 12q0 8 5 13
t12 5h220q7 0 12.5 -5t5.5 -13q0 -7 -5.5 -12t-12.5 -5h-220z" />
    <glyph glyph-name="umacron" unicode="&#x16b;" horiz-adv-x="483" 
d="M242 -6q-49 0 -89.5 25t-64.5 66.5t-24 88.5v280q0 7 5.5 12.5t12.5 5.5t12 -5.5t5 -12.5v-280q0 -37 19 -70t51.5 -54t72.5 -21t72 20.5t51 54t19 70.5v281q0 7 5.5 12t12.5 5q8 0 12.5 -5t4.5 -12v-281q0 -48 -24 -89t-64.5 -66t-88.5 -25zM131 647q-7 0 -12 5t-5 12
q0 8 5 13t12 5h220q7 0 12.5 -5t5.5 -13q0 -7 -5.5 -12t-12.5 -5h-220z" />
    <glyph glyph-name="Ubreve" unicode="&#x16c;" horiz-adv-x="549" 
d="M274 -6q-55 0 -99 20.5t-70 65.5t-26 120v514q0 9 5.5 13t12.5 4t12.5 -4t5.5 -13v-514q0 -87 42 -128.5t117 -41.5t117.5 41.5t42.5 128.5v514q0 9 5.5 13t12.5 4t12.5 -4t5.5 -13v-514q0 -75 -26 -120t-70.5 -65.5t-99.5 -20.5zM275 860q-39 0 -70 27t-38 65
q-1 8 3.5 12.5t11.5 4.5h2q6 0 10 -4t5 -10q5 -29 26.5 -49t49.5 -20t49.5 20t25.5 49q1 6 5 10t10 4h2q7 0 12 -5t4 -12q-7 -38 -38.5 -65t-69.5 -27z" />
    <glyph glyph-name="ubreve" unicode="&#x16d;" horiz-adv-x="483" 
d="M242 -6q-49 0 -89.5 25t-64.5 66.5t-24 88.5v280q0 7 5.5 12.5t12.5 5.5t12 -5.5t5 -12.5v-280q0 -37 19 -70t51.5 -54t72.5 -21t72 20.5t51 54t19 70.5v281q0 7 5.5 12t12.5 5q8 0 12.5 -5t4.5 -12v-281q0 -48 -24 -89t-64.5 -66t-88.5 -25zM242 601q-39 0 -70 27
t-38 65q-1 8 3.5 12.5t11.5 4.5h2q6 0 10 -4t5 -10q5 -29 26.5 -49t49.5 -20t49.5 20t25.5 49q1 6 5 10t10 4h2q7 0 12 -5t4 -12q-7 -38 -38.5 -65t-69.5 -27z" />
    <glyph glyph-name="Uring" unicode="&#x16e;" horiz-adv-x="549" 
d="M274 -6q-55 0 -99 20.5t-70 65.5t-26 120v514q0 9 5.5 13t12.5 4t12.5 -4t5.5 -13v-514q0 -87 42 -128.5t117 -41.5t117.5 41.5t42.5 128.5v514q0 9 5.5 13t12.5 4t12.5 -4t5.5 -13v-514q0 -75 -26 -120t-70.5 -65.5t-99.5 -20.5zM275 843q-25 0 -45.5 13t-32.5 34.5
t-12 45.5t12 44.5t32.5 33.5t45.5 13q24 0 44.5 -12.5t33 -33.5t12.5 -45t-12.5 -45.5t-33 -34.5t-44.5 -13zM275 866q26 0 45.5 22t19.5 48q0 23 -19.5 44t-45.5 21q-28 0 -47 -21t-19 -44q0 -26 19.5 -48t46.5 -22z" />
    <glyph glyph-name="uring" unicode="&#x16f;" horiz-adv-x="483" 
d="M242 -6q-49 0 -89.5 25t-64.5 66.5t-24 88.5v280q0 7 5.5 12.5t12.5 5.5t12 -5.5t5 -12.5v-280q0 -37 19 -70t51.5 -54t72.5 -21t72 20.5t51 54t19 70.5v281q0 7 5.5 12t12.5 5q8 0 12.5 -5t4.5 -12v-281q0 -48 -24 -89t-64.5 -66t-88.5 -25zM242 584q-25 0 -45.5 13
t-32.5 34.5t-12 45.5t12 44.5t32.5 33.5t45.5 13q24 0 44.5 -12.5t33 -33.5t12.5 -45t-12.5 -45.5t-33 -34.5t-44.5 -13zM242 607q26 0 45.5 22t19.5 48q0 23 -19.5 44t-45.5 21q-28 0 -47 -21t-19 -44q0 -26 19.5 -48t46.5 -22z" />
    <glyph glyph-name="Uhungarumlaut" unicode="&#x170;" horiz-adv-x="549" 
d="M274 -6q-55 0 -99 20.5t-70 65.5t-26 120v514q0 9 5.5 13t12.5 4t12.5 -4t5.5 -13v-514q0 -87 42 -128.5t117 -41.5t117.5 41.5t42.5 128.5v514q0 9 5.5 13t12.5 4t12.5 -4t5.5 -13v-514q0 -75 -26 -120t-70.5 -65.5t-99.5 -20.5zM318 860q-7 0 -13 5.5t-6 12.5q0 9 8 13
l102 60q2 1 4 1.5t3 0.5q8 0 12 -5.5t4 -12.5q0 -12 -10 -18l-95 -54q-4 -3 -9 -3zM171 860q-7 0 -13 5.5t-6 12.5q0 9 8 13l102 60q2 1 4 1.5t3 0.5q8 0 12 -5.5t4 -12.5q0 -12 -10 -18l-95 -54q-4 -3 -9 -3z" />
    <glyph glyph-name="uhungarumlaut" unicode="&#x171;" horiz-adv-x="483" 
d="M242 -6q-49 0 -89.5 25t-64.5 66.5t-24 88.5v280q0 7 5.5 12.5t12.5 5.5t12 -5.5t5 -12.5v-280q0 -37 19 -70t51.5 -54t72.5 -21t72 20.5t51 54t19 70.5v281q0 7 5.5 12t12.5 5q8 0 12.5 -5t4.5 -12v-281q0 -48 -24 -89t-64.5 -66t-88.5 -25zM285 601q-7 0 -13 5.5
t-6 12.5q0 9 8 13l102 60q2 1 4 1.5t3 0.5q8 0 12 -5.5t4 -12.5q0 -12 -10 -18l-95 -54q-4 -3 -9 -3zM138 601q-7 0 -13 5.5t-6 12.5q0 9 8 13l102 60q2 1 4 1.5t3 0.5q8 0 12 -5.5t4 -12.5q0 -12 -10 -18l-95 -54q-4 -3 -9 -3z" />
    <glyph glyph-name="Uogonek" unicode="&#x172;" horiz-adv-x="549" 
d="M274 -6q-55 0 -99 20.5t-70 65.5t-26 120v514q0 9 5.5 13t12.5 4t12.5 -4t5.5 -13v-514q0 -87 42 -128.5t117 -41.5t117.5 41.5t42.5 128.5v514q0 9 5.5 13t12.5 4t12.5 -4t5.5 -13v-514q0 -75 -26 -120t-70.5 -65.5t-99.5 -20.5zM325 -195q-18 0 -38 5.5t-34.5 20
t-14.5 41.5q0 44 21 79.5t54 66.5l26 -16q-30 -29 -51 -59t-21 -69q0 -25 17.5 -34t45.5 -9q8 0 13 -2.5t5 -10.5q0 -7 -5 -10t-18 -3z" />
    <glyph glyph-name="uogonek" unicode="&#x173;" horiz-adv-x="483" 
d="M242 -6q-49 0 -89.5 25t-64.5 66.5t-24 88.5v280q0 7 5.5 12.5t12.5 5.5t12 -5.5t5 -12.5v-280q0 -37 19 -70t51.5 -54t72.5 -21t72 20.5t51 54t19 70.5v281q0 7 5.5 12t12.5 5q8 0 12.5 -5t4.5 -12v-281q0 -48 -24 -89t-64.5 -66t-88.5 -25zM278 -195q-18 0 -38 5.5
t-34.5 20t-14.5 41.5q0 44 21 79.5t54 66.5l26 -16q-30 -29 -51 -59t-21 -69q0 -25 17.5 -34t45.5 -9q8 0 13 -2.5t5 -10.5q0 -7 -5 -10t-18 -3z" />
    <glyph glyph-name="Wcircumflex" unicode="&#x174;" horiz-adv-x="739" 
d="M242 -6q-6 0 -11 3.5t-7 10.5l-197 701q-1 3 -1 6q0 6 2.5 9.5t6.5 5t8 1.5q6 0 12 -3.5t7 -9.5l180 -648l106 385q3 11 9 14t13 3q8 0 12.5 -3t7.5 -14l108 -385l179 648q2 6 7.5 9.5t11.5 3.5q5 0 8.5 -1.5t6 -5t2.5 -9.5q0 -3 -1 -6l-195 -701q-2 -7 -7 -10.5
t-12 -3.5q-6 0 -11 3.5t-7 10.5l-110 392l-109 -392q-2 -7 -7 -10.5t-12 -3.5zM258 859q-7 0 -12.5 5.5t-5.5 13.5q0 4 2.5 8t6.5 6l104 56q8 5 17 5t17 -5l104 -55q5 -2 7 -7t2 -10q0 -7 -5 -11.5t-12 -4.5q-2 0 -4.5 1t-4.5 2l-104 55l-104 -56l-4 -2t-4 -1z" />
    <glyph glyph-name="wcircumflex" unicode="&#x175;" horiz-adv-x="654" 
d="M196 -6q-7 0 -10 3.5t-7 13.5l-156 430q-1 2 -2.5 6.5t-1.5 6.5q0 5 2.5 9t6.5 6.5t9 2.5t10 -3t7 -8l141 -391l115 362q2 6 6.5 9.5t11.5 3.5t11.5 -3.5t6.5 -9.5l111 -367l144 396q3 11 16 11q5 0 9 -2t6.5 -5.5t2.5 -9.5q0 -3 -1.5 -7.5t-2.5 -6.5l-157 -435
q-2 -7 -6 -9.5t-9 -2.5q-6 0 -8.5 2.5t-5.5 8.5l-117 375l-115 -369q-3 -9 -7 -13t-10 -4zM215 600q-7 0 -12.5 5.5t-5.5 13.5q0 4 2.5 8t6.5 6l104 56q8 5 17 5t17 -5l104 -55q5 -2 7 -7t2 -10q0 -7 -5 -11.5t-12 -4.5q-2 0 -4.5 1t-4.5 2l-104 55l-104 -56l-4 -2t-4 -1z
" />
    <glyph glyph-name="Ycircumflex" unicode="&#x176;" horiz-adv-x="509" 
d="M254 0q-7 0 -12.5 4.5t-5.5 13.5v255q0 4 -1 6l-207 416q-3 6 -4.5 11t-1.5 9q0 5 2 8.5t4.5 5.5t6.5 2q5 0 10.5 -4t9.5 -13l199 -401l200 401q5 9 10.5 13t9.5 4t6.5 -2t4 -5.5t1.5 -8.5q0 -4 -1 -9t-4 -11l-208 -416q-1 -2 -1 -6v-255q0 -9 -5.5 -13.5t-12.5 -4.5z
M143 859q-7 0 -12.5 5.5t-5.5 13.5q0 4 2.5 8t6.5 6l104 56q8 5 17 5t17 -5l104 -55q5 -2 7 -7t2 -10q0 -7 -5 -11.5t-12 -4.5q-2 0 -4.5 1t-4.5 2l-104 55l-104 -56l-4 -2t-4 -1z" />
    <glyph glyph-name="ycircumflex" unicode="&#x177;" horiz-adv-x="395" 
d="M36 -237q-7 0 -12 5t-5 12t3.5 12.5t11.5 5.5q27 0 48.5 19.5t39 52t31.5 70t27 73.5l-160 442q-2 4 -2 6q0 5 2.5 8.5t7 6t9.5 2.5t10 -3t6 -8l145 -400l144 400q2 5 6.5 8t9.5 3t9 -2t6.5 -5.5t2.5 -9.5q0 -4 -1 -6l-160 -442q-13 -37 -30 -80.5t-38.5 -82t-49 -63
t-61.5 -24.5zM86 600q-7 0 -12.5 5.5t-5.5 13.5q0 4 2.5 8t6.5 6l104 56q8 5 17 5t17 -5l104 -55q5 -2 7 -7t2 -10q0 -7 -5 -11.5t-12 -4.5q-2 0 -4.5 1t-4.5 2l-104 55l-104 -56l-4 -2t-4 -1z" />
    <glyph glyph-name="Ydieresis" unicode="&#x178;" horiz-adv-x="509" 
d="M254 0q-7 0 -12.5 4.5t-5.5 13.5v255q0 4 -1 6l-207 416q-3 6 -4.5 11t-1.5 9q0 5 2 8.5t4.5 5.5t6.5 2q5 0 10.5 -4t9.5 -13l199 -401l200 401q5 9 10.5 13t9.5 4t6.5 -2t4 -5.5t1.5 -8.5q0 -4 -1 -9t-4 -11l-208 -416q-1 -2 -1 -6v-255q0 -9 -5.5 -13.5t-12.5 -4.5z
M311 859q-13 0 -21.5 8.5t-8.5 21.5t8.5 21t21.5 8t21 -8t8 -21t-8 -21.5t-21 -8.5zM200 859q-13 0 -21.5 8.5t-8.5 21.5t8.5 21t21.5 8t21 -8t8 -21t-8 -21.5t-21 -8.5z" />
    <glyph glyph-name="Zacute" unicode="&#x179;" horiz-adv-x="464" 
d="M45 0q-7 0 -12.5 5t-5.5 12q0 6 3 12l350 666h-325q-9 0 -13.5 5.5t-4.5 12.5t4.5 12.5t13.5 5.5h355q9 0 13.5 -4t4.5 -11q0 -8 -5 -16l-349 -664h346q9 0 13.5 -5.5t4.5 -12.5t-4.5 -12.5t-13.5 -5.5h-375zM174 860q-7 0 -13 5.5t-6 12.5q0 9 8 13l102 60q4 2 7 2
q8 0 12 -5.5t4 -12.5q0 -12 -10 -18l-95 -54q-2 -1 -4.5 -2t-4.5 -1z" />
    <glyph glyph-name="zacute" unicode="&#x17a;" horiz-adv-x="385" 
d="M44 0q-7 0 -12.5 4.5t-5.5 11.5q0 2 1 6t3 6l267 409h-243q-7 0 -12.5 5t-5.5 12q0 8 5.5 13t12.5 5h277q8 0 13 -5t5 -13q0 -5 -3 -10l-268 -409h263q8 0 13 -5t5 -13q0 -7 -5 -12t-13 -5h-297zM145 601q-7 0 -13 5.5t-6 12.5q0 9 8 13l102 60q4 2 7 2q8 0 12 -5.5
t4 -12.5q0 -12 -10 -18l-95 -54q-2 -1 -4.5 -2t-4.5 -1z" />
    <glyph glyph-name="Zdotaccent" unicode="&#x17b;" horiz-adv-x="464" 
d="M45 0q-7 0 -12.5 5t-5.5 12q0 6 3 12l350 666h-325q-9 0 -13.5 5.5t-4.5 12.5t4.5 12.5t13.5 5.5h355q9 0 13.5 -4t4.5 -11q0 -8 -5 -16l-349 -664h346q9 0 13.5 -5.5t4.5 -12.5t-4.5 -12.5t-13.5 -5.5h-375zM222 860q-15 0 -24.5 10t-9.5 24t9.5 23.5t24.5 9.5
q14 0 23.5 -9.5t9.5 -23.5t-9.5 -24t-23.5 -10z" />
    <glyph glyph-name="zdotaccent" unicode="&#x17c;" horiz-adv-x="385" 
d="M44 0q-7 0 -12.5 4.5t-5.5 11.5q0 2 1 6t3 6l267 409h-243q-7 0 -12.5 5t-5.5 12q0 8 5.5 13t12.5 5h277q8 0 13 -5t5 -13q0 -5 -3 -10l-268 -409h263q8 0 13 -5t5 -13q0 -7 -5 -12t-13 -5h-297zM193 601q-15 0 -24.5 10t-9.5 24t9.5 23.5t24.5 9.5q14 0 23.5 -9.5
t9.5 -23.5t-9.5 -24t-23.5 -10z" />
    <glyph glyph-name="Zcaron" unicode="&#x17d;" horiz-adv-x="464" 
d="M45 0q-7 0 -12.5 5t-5.5 12q0 6 3 12l350 666h-325q-9 0 -13.5 5.5t-4.5 12.5t4.5 12.5t13.5 5.5h355q9 0 13.5 -4t4.5 -11q0 -8 -5 -16l-349 -664h346q9 0 13.5 -5.5t4.5 -12.5t-4.5 -12.5t-13.5 -5.5h-375zM222 847q-12 0 -21 11l-100 101q-4 5 -6 8.5t-2 7.5q0 5 4 10
t11 5q9 0 16 -8l98 -103l98 103q7 8 16 8q7 0 11 -5t4 -10q0 -4 -2 -7.5t-6 -8.5l-100 -101q-11 -11 -21 -11z" />
    <glyph glyph-name="zcaron" unicode="&#x17e;" horiz-adv-x="385" 
d="M44 0q-7 0 -12.5 4.5t-5.5 11.5q0 2 1 6t3 6l267 409h-243q-7 0 -12.5 5t-5.5 12q0 8 5.5 13t12.5 5h277q8 0 13 -5t5 -13q0 -5 -3 -10l-268 -409h263q8 0 13 -5t5 -13q0 -7 -5 -12t-13 -5h-297zM193 588q-12 0 -21 11l-100 101q-4 5 -6 8.5t-2 7.5q0 5 4 10t11 5
q9 0 16 -8l98 -103l98 103q7 8 16 8q7 0 11 -5t4 -10q0 -4 -2 -7.5t-6 -8.5l-100 -101q-11 -11 -21 -11z" />
    <glyph glyph-name="florin" unicode="&#x192;" horiz-adv-x="324" 
d="M-61 -137q-7 0 -11.5 5t-4.5 11q0 8 6.5 13.5t14.5 5.5h20q26 0 43.5 22.5t28.5 57.5t16 74l76 538q7 48 37 88.5t74 65t92 24.5h4q7 0 11 -4.5t4 -11.5q0 -8 -6 -13.5t-14 -5.5h-4q-40 0 -75.5 -20.5t-58.5 -53t-29 -69.5l-27 -188h153q8 0 12 -4.5t4 -10.5
q0 -8 -6.5 -14t-14.5 -6h-153l-44 -315q-7 -48 -21.5 -91.5t-40.5 -70.5t-66 -27h-20z" />
    <glyph glyph-name="Ohorn" unicode="&#x1a0;" horiz-adv-x="543" 
d="M271 -6q-55 0 -99 20.5t-70 65.5t-26 120v325q0 75 26 120t70 65.5t99 20.5t99.5 -20.5t70.5 -65.5t26 -120v-325q0 -75 -26 -120t-70.5 -65.5t-99.5 -20.5zM271 30q75 0 117.5 41.5t42.5 128.5v325q0 87 -42.5 128.5t-117.5 41.5t-117 -41.5t-42 -128.5v-325
q0 -87 42 -128.5t117 -41.5zM298 699v32q50 0 75 18.5t25 50.5q0 12 2.5 21t12.5 9q12 0 15 -10t3 -20q0 -30 -12 -53t-41 -35.5t-80 -12.5z" />
    <glyph glyph-name="ohorn" unicode="&#x1a1;" 
d="M227 -6q-47 0 -87.5 25.5t-65 67t-24.5 89.5v122q0 48 24 89t64.5 66t88.5 25t88.5 -24.5t65 -65t24.5 -90.5v-122q0 -47 -24.5 -89t-65 -67.5t-88.5 -25.5zM227 29q40 0 72 21t51.5 55t19.5 71v122q0 37 -19 70t-51.5 54t-72.5 21t-72 -21t-51 -54t-19 -70v-122
q0 -37 19 -71t51.5 -55t71.5 -21zM273 440v32q50 0 75 18.5t25 50.5q0 12 2.5 21t12.5 9q12 0 15 -10t3 -20q0 -30 -12 -53t-41 -35.5t-80 -12.5z" />
    <glyph glyph-name="Uhorn" unicode="&#x1af;" horiz-adv-x="549" 
d="M274 -6q-55 0 -99 20.5t-70 65.5t-26 120v514q0 9 5.5 13t12.5 4t12.5 -4t5.5 -13v-514q0 -87 42 -128.5t117 -41.5t117.5 41.5t42.5 128.5v514q0 9 5.5 13t12.5 4t12.5 -4t5.5 -13v-514q0 -75 -26 -120t-70.5 -65.5t-99.5 -20.5zM451 699v32q50 0 75 18.5t25 50.5
q0 12 2.5 21t12.5 9q12 0 15 -10t3 -20q0 -30 -12 -53t-41 -35.5t-80 -12.5z" />
    <glyph glyph-name="uhorn" unicode="&#x1b0;" horiz-adv-x="483" 
d="M242 -6q-49 0 -89.5 25t-64.5 66.5t-24 88.5v280q0 7 5.5 12.5t12.5 5.5t12 -5.5t5 -12.5v-280q0 -37 19 -70t51.5 -54t72.5 -21t72 20.5t51 54t19 70.5v281q0 7 5.5 12t12.5 5q8 0 12.5 -5t4.5 -12v-281q0 -48 -24 -89t-64.5 -66t-88.5 -25zM400 440v32q50 0 75 18.5
t25 50.5q0 12 2.5 21t12.5 9q12 0 15 -10t3 -20q0 -30 -12 -53t-41 -35.5t-80 -12.5z" />
    <glyph glyph-name="AEacute" unicode="&#x1fc;" horiz-adv-x="680" 
d="M97 0q-10 0 -14 6.5t-4 16.5v502q0 75 26 120t70.5 65.5t99.5 20.5h360q9 0 13 -5.5t4 -11.5q0 -7 -4.5 -13t-12.5 -6h-237v-311h160q8 0 12.5 -5.5t4.5 -13.5q0 -6 -4 -11.5t-13 -5.5h-160v-312h237q8 0 12.5 -5.5t4.5 -13.5q0 -6 -4 -11.5t-13 -5.5h-255
q-7 0 -12.5 4.5t-5.5 13.5v330h-247v-325q0 -10 -3 -16.5t-15 -6.5zM115 384h247v311h-87q-75 0 -117.5 -41.5t-42.5 -128.5v-141zM295 860q-7 0 -13 5.5t-6 12.5q0 9 8 13l102 60q4 2 7 2q8 0 12 -5.5t4 -12.5q0 -12 -10 -18l-95 -54q-2 -1 -4.5 -2t-4.5 -1z" />
    <glyph glyph-name="aeacute" unicode="&#x1fd;" horiz-adv-x="719" 
d="M171 -6q-36 0 -67 14t-50 43.5t-19 73.5q0 54 29 82.5t81 39.5t121 11h56v29q0 38 -13 74t-42.5 59.5t-79.5 23.5q-28 0 -49 -6.5t-34 -13.5t-19 -7q-7 0 -12 7.5t-5 12.5q0 10 18.5 19.5t47 16t58.5 6.5q62 0 98.5 -28.5t52.5 -72.5q22 43 64 71.5t94 28.5q28 0 59 -10
t58 -33t44 -60t17 -91q0 -25 -6 -38.5t-24 -18t-53 -4.5h-235v-47q0 -68 47.5 -107.5t117.5 -39.5q41 0 63.5 10.5t35 20.5t21.5 10q4 0 8 -2t7 -6t3 -10q0 -14 -24 -27.5t-58.5 -22t-67.5 -8.5q-55 0 -102.5 27t-70.5 77q-31 -58 -78.5 -81t-91.5 -23zM172 29q42 0 76 19
t54 45t20 46v84h-55q-53 0 -98 -6t-72 -27t-27 -66q0 -47 29.5 -71t72.5 -24zM361 258h223q40 0 50 7.5t10 27.5q0 38 -17.5 72t-49.5 56t-75 22q-40 0 -72 -19.5t-50.5 -51.5t-18.5 -70v-44zM312 601q-7 0 -13 5.5t-6 12.5q0 9 8 13l102 60q4 2 7 2q8 0 12 -5.5t4 -12.5
q0 -12 -10 -18l-95 -54q-2 -1 -4.5 -2t-4.5 -1z" />
    <glyph glyph-name="Oslashacute" unicode="&#x1fe;" horiz-adv-x="543" 
d="M271 -6q-55 0 -99 20.5t-70 65.5t-26 120v325q0 75 26 120t70 65.5t99 20.5t99.5 -20.5t70.5 -65.5t26 -120v-325q0 -75 -26 -120t-70.5 -65.5t-99.5 -20.5zM271 30q75 0 117.5 41.5t42.5 128.5v325q0 87 -42.5 128.5t-117.5 41.5t-117 -41.5t-42 -128.5v-325
q0 -87 42 -128.5t117 -41.5zM75 -20q-6 0 -11 4t-5 11q0 6 2 9l391 756q4 8 13 8q6 0 12 -5.5t6 -13.5q0 -5 -3 -11l-388 -747q-3 -6 -7.5 -8.5t-9.5 -2.5zM224 860q-7 0 -13 5.5t-6 12.5q0 9 8 13l102 60q4 2 7 2q8 0 12 -5.5t4 -12.5q0 -12 -10 -18l-95 -54q-2 -1 -4.5 -2
t-4.5 -1z" />
    <glyph glyph-name="oslashacute" unicode="&#x1ff;" 
d="M227 -6q-47 0 -87.5 25.5t-65 67t-24.5 89.5v122q0 48 24 89t64.5 66t88.5 25t88.5 -24.5t65 -65t24.5 -90.5v-122q0 -47 -24.5 -89t-65 -67.5t-88.5 -25.5zM227 29q40 0 72 21t51.5 55t19.5 71v122q0 37 -19 70t-51.5 54t-72.5 21t-72 -21t-51 -54t-19 -70v-122
q0 -37 19 -71t51.5 -55t71.5 -21zM94 -32q-6 0 -11 4t-5 11q0 6 2 9l27 53l209 408l25 48q4 8 13 8q6 0 12 -5.5t6 -13.5q0 -5 -3 -11l-25 -47l-210 -409l-23 -44q-5 -11 -17 -11zM180 601q-7 0 -13 5.5t-6 12.5q0 9 8 13l102 60q4 2 7 2q8 0 12 -5.5t4 -12.5q0 -12 -10 -18
l-95 -54q-2 -1 -4.5 -2t-4.5 -1z" />
    <glyph glyph-name="uni0218" unicode="&#x218;" horiz-adv-x="481" 
d="M235 -6q-64 0 -107 19.5t-64.5 44t-21.5 37.5q0 5 3 10t7 8t7 3q7 0 16 -13t26 -30t47.5 -30t81.5 -13q55 0 92 18.5t56 54.5t19 89q0 55 -18.5 88t-48.5 53t-65.5 32.5t-71.5 24.5t-66 31t-48.5 51.5t-18.5 85.5q0 54 19 88t49 52.5t64 25.5t65 7t59 -5t50.5 -12.5
t35.5 -16.5t13 -18q0 -4 -2.5 -9t-6.5 -9t-9 -4q-7 0 -23 9.5t-44.5 19t-73.5 9.5q-37 0 -74 -11t-61.5 -40t-24.5 -83q0 -46 18.5 -73.5t48.5 -43.5t65.5 -27.5t71.5 -25.5t66 -36.5t48.5 -60.5t18.5 -99q0 -71 -25.5 -115.5t-70 -65t-102.5 -20.5zM218 -141q-7 0 -13 5.5
t-6 12.5q0 9 8 13l102 60q4 2 7 2q8 0 12 -5.5t4 -12.5q0 -12 -10 -18l-95 -54q-2 -1 -4.5 -2t-4.5 -1z" />
    <glyph glyph-name="uni0219" unicode="&#x219;" horiz-adv-x="373" 
d="M184 -6q-45 0 -77.5 11.5t-50.5 26.5t-18 27q0 5 2 8.5t5.5 6t6.5 2.5q9 0 21.5 -11.5t37.5 -23.5t72 -12q63 0 90 24.5t27 58.5q0 39 -18 60.5t-47 33t-61 20.5t-61 21.5t-47 36t-18 64.5q0 30 15.5 60t48 50t84.5 20q30 0 58 -6.5t46 -16t18 -19.5q0 -3 -2.5 -8
t-6 -8.5t-8.5 -3.5q-6 0 -19 7t-34 13.5t-51 6.5q-42 0 -67 -15.5t-36 -37t-11 -41.5q0 -33 18 -51t47 -28t61 -19t61 -23.5t47 -41t18 -72.5q0 -55 -40 -87.5t-111 -32.5zM144 -141q-7 0 -13 5.5t-6 12.5q0 9 8 13l102 60q4 2 7 2q8 0 12 -5.5t4 -12.5q0 -12 -10 -18
l-95 -54q-2 -1 -4.5 -2t-4.5 -1z" />
    <glyph glyph-name="uni0237" unicode="&#x237;" horiz-adv-x="173" 
d="M-18 -237q-7 0 -12.5 5.5t-5.5 12.5q0 8 5.5 12.5t12.5 4.5q39 0 57.5 20t24 55t5.5 79v503q0 8 5 12.5t12 4.5q8 0 13 -4.5t5 -12.5v-503q0 -55 -11.5 -98t-38 -67t-72.5 -24z" />
    <glyph glyph-name="uni0259" unicode="&#x259;" horiz-adv-x="445" 
d="M216 -6q-47 0 -87.5 23.5t-65 64t-24.5 92.5q0 37 12 52.5t31 19t40 3.5h237v47q0 68 -47.5 107.5t-121.5 39.5q-42 0 -64 -10t-33 -20.5t-21 -10.5q-4 0 -8.5 3t-7 7t-2.5 8q0 10 16.5 23.5t47.5 24t74 10.5q59 0 104.5 -23t71.5 -63.5t26 -95.5v-125q0 -48 -24.5 -88
t-64.5 -64.5t-89 -24.5zM216 29q41 0 73 20t51 52.5t19 69.5v43h-225q-37 0 -48.5 -7t-11.5 -30q0 -36 17.5 -70t49.5 -56t75 -22z" />
    <glyph glyph-name="circumflex" unicode="&#x2c6;" horiz-adv-x="260" 
d="M18 600q-7 0 -12.5 5.5t-5.5 13.5q0 4 2.5 8t6.5 6l104 56q8 5 17 5t17 -5l104 -55q5 -2 7 -7t2 -10q0 -7 -5 -11.5t-12 -4.5q-2 0 -4.5 1t-4.5 2l-104 55l-104 -56l-4 -2t-4 -1z" />
    <glyph glyph-name="caron" unicode="&#x2c7;" horiz-adv-x="258" 
d="M129 588q-12 0 -21 11l-100 101q-4 5 -6 8.5t-2 7.5q0 5 4 10t11 5q9 0 16 -8l98 -103l98 103q7 8 16 8q7 0 11 -5t4 -10q0 -4 -2 -7.5t-6 -8.5l-100 -101q-11 -11 -21 -11z" />
    <glyph glyph-name="breve" unicode="&#x2d8;" horiz-adv-x="216" 
d="M108 601q-39 0 -70 27t-38 65q-1 8 3.5 12.5t11.5 4.5h2q6 0 10 -4t5 -10q5 -29 26.5 -49t49.5 -20t49.5 20t25.5 49q1 6 5 10t10 4h2q7 0 12 -5t4 -12q-7 -38 -38.5 -65t-69.5 -27z" />
    <glyph glyph-name="dotaccent" unicode="&#x2d9;" horiz-adv-x="219" 
d="M110 601q-15 0 -24.5 10t-9.5 24t9.5 23.5t24.5 9.5q14 0 23.5 -9.5t9.5 -23.5t-9.5 -24t-23.5 -10z" />
    <glyph glyph-name="uni030A" unicode="&#x2da;" horiz-adv-x="0" 
d="M90 584q-25 0 -45.5 13t-32.5 34.5t-12 45.5t12 44.5t32.5 33.5t45.5 13q24 0 44.5 -12.5t33 -33.5t12.5 -45t-12.5 -45.5t-33 -34.5t-44.5 -13zM90 607q26 0 45.5 22t19.5 48q0 23 -19.5 44t-45.5 21q-28 0 -47 -21t-19 -44q0 -26 19.5 -48t46.5 -22z" />
    <glyph glyph-name="ogonek" unicode="&#x2db;" horiz-adv-x="110" 
d="M87 -195q-18 0 -38 5.5t-34.5 20t-14.5 41.5q0 44 21 79.5t54 66.5l26 -16q-30 -29 -51 -59t-21 -69q0 -25 17.5 -34t45.5 -9q8 0 13 -2.5t5 -10.5q0 -7 -5 -10t-18 -3z" />
    <glyph glyph-name="tilde" unicode="&#x2dc;" horiz-adv-x="295" 
d="M211 619q-24 0 -42.5 9.5t-38.5 18.5t-48 9q-21 0 -34 -8.5t-20.5 -17.5t-14.5 -9q-3 0 -6 2t-5 6t-2 9q0 10 8.5 19t22.5 16.5t29.5 12t28.5 4.5q25 0 44 -9t38.5 -18.5t44.5 -9.5q23 0 34 8t17 16t14 8q4 0 7 -2t5 -5t2 -8q0 -12 -8.5 -21t-21.5 -16t-27.5 -10.5
t-26.5 -3.5z" />
    <glyph glyph-name="uni030B" unicode="&#x2dd;" horiz-adv-x="0" 
d="M166 601q-7 0 -13 5.5t-6 12.5q0 9 8 13l102 60q2 1 4 1.5t3 0.5q8 0 12 -5.5t4 -12.5q0 -12 -10 -18l-95 -54q-4 -3 -9 -3zM19 601q-7 0 -13 5.5t-6 12.5q0 9 8 13l102 60q2 1 4 1.5t3 0.5q8 0 12 -5.5t4 -12.5q0 -12 -10 -18l-95 -54q-4 -3 -9 -3z" />
    <glyph glyph-name="gravecomb" unicode="&#x300;" horiz-adv-x="0" 
d="M114 601q-2 0 -4.5 1t-4.5 2l-95 54q-10 6 -10 18q0 7 4.5 12.5t11.5 5.5q3 0 7 -2l102 -60q8 -4 8 -13q0 -7 -5.5 -12.5t-13.5 -5.5z" />
    <glyph glyph-name="acutecomb" unicode="&#x301;" horiz-adv-x="0" 
d="M19 601q-7 0 -13 5.5t-6 12.5q0 9 8 13l102 60q4 2 7 2q8 0 12 -5.5t4 -12.5q0 -12 -10 -18l-95 -54q-2 -1 -4.5 -2t-4.5 -1z" />
    <glyph glyph-name="uni0302" unicode="&#x302;" horiz-adv-x="0" 
d="M18 600q-7 0 -12.5 5.5t-5.5 13.5q0 4 2.5 8t6.5 6l104 56q8 5 17 5t17 -5l104 -55q5 -2 7 -7t2 -10q0 -7 -5 -11.5t-12 -4.5q-2 0 -4.5 1t-4.5 2l-104 55l-104 -56l-4 -2t-4 -1z" />
    <glyph glyph-name="tildecomb" unicode="&#x303;" horiz-adv-x="0" 
d="M211 619q-24 0 -42.5 9.5t-38.5 18.5t-48 9q-21 0 -34 -8.5t-20.5 -17.5t-14.5 -9q-3 0 -6 2t-5 6t-2 9q0 10 8.5 19t22.5 16.5t29.5 12t28.5 4.5q25 0 44 -9t38.5 -18.5t44.5 -9.5q23 0 34 8t17 16t14 8q4 0 7 -2t5 -5t2 -8q0 -12 -8.5 -21t-21.5 -16t-27.5 -10.5
t-26.5 -3.5z" />
    <glyph glyph-name="uni0306" unicode="&#x306;" horiz-adv-x="0" 
d="M109 601q-39 0 -70 27t-38 65q-1 8 3.5 12.5t11.5 4.5h2q6 0 10 -4t5 -10q5 -29 26.5 -49t49.5 -20t49.5 20t25.5 49q1 6 5 10t10 4h2q7 0 12 -5t4 -12q-7 -38 -38.5 -65t-69.5 -27z" />
    <glyph glyph-name="uni0307" unicode="&#x307;" horiz-adv-x="0" 
d="M110 601q-15 0 -24.5 10t-9.5 24t9.5 23.5t24.5 9.5q14 0 23.5 -9.5t9.5 -23.5t-9.5 -24t-23.5 -10z" />
    <glyph glyph-name="uni0308" unicode="&#x308;" horiz-adv-x="0" 
d="M141 600q-13 0 -21.5 8.5t-8.5 21.5t8.5 21t21.5 8t21 -8t8 -21t-8 -21.5t-21 -8.5zM30 600q-13 0 -21.5 8.5t-8.5 21.5t8.5 21t21.5 8t21 -8t8 -21t-8 -21.5t-21 -8.5z" />
    <glyph glyph-name="hookabovecomb" unicode="&#x309;" horiz-adv-x="0" 
d="M106 673q14 14 31 21.5t36 7.5q25 0 39.5 -10.5t21 -24.5t6.5 -27q0 -16 -10 -29.5t-25 -28.5q-3 -3 -5 -8t-3 -13q-1 -6 -5 -9t-10 -3q-7 0 -11 4.5t-4 9.5q0 7 2 17t11 20q12 13 20 21t8 19q0 13 -10 21.5t-24 8.5q-13 0 -23.5 -6t-18.5 -12q-7 -6 -15 -7.5t-13 5.5
q-4 5 -4.5 10.5t6.5 12.5z" />
    <glyph glyph-name="uni030C" unicode="&#x30c;" horiz-adv-x="0" 
d="M140 588q-12 0 -21 11l-100 101q-4 5 -6 8.5t-2 7.5q0 5 4 10t11 5q9 0 16 -8l98 -103l98 103q7 8 16 8q7 0 11 -5t4 -10q0 -4 -2 -7.5t-6 -8.5l-100 -101q-11 -11 -21 -11z" />
    <glyph glyph-name="uni0312" unicode="&#x312;" horiz-adv-x="0" 
d="M176 601q-7 0 -13 5.5t-6 12.5q0 9 8 13l102 60q4 2 7 2q8 0 12 -5.5t4 -12.5q0 -12 -10 -18l-95 -54q-2 -1 -4.5 -2t-4.5 -1z" />
    <glyph glyph-name="uni031B" unicode="&#x31b;" horiz-adv-x="0" 
d="M100 440v32q50 0 75 18.5t25 50.5q0 12 2.5 21t12.5 9q12 0 15 -10t3 -20q0 -30 -12 -53t-41 -35.5t-80 -12.5z" />
    <glyph glyph-name="dotbelowcomb" unicode="&#x323;" horiz-adv-x="0" 
d="M81 -132q-16 0 -26 11t-10 25q0 15 10 25.5t26 10.5q14 0 24.5 -10.5t10.5 -25.5q0 -14 -10.5 -25t-24.5 -11z" />
    <glyph glyph-name="uni0326" unicode="&#x326;" horiz-adv-x="0" 
d="M47 -141q-7 0 -13 5.5t-6 12.5q0 9 8 13l102 60q4 2 7 2q8 0 12 -5.5t4 -12.5q0 -12 -10 -18l-95 -54q-2 -1 -4.5 -2t-4.5 -1z" />
    <glyph glyph-name="uni0327" unicode="&#x327;" horiz-adv-x="0" 
d="M74 -207q-12 0 -29.5 2.5t-31 8t-13.5 13.5q0 3 2 7.5t4.5 7.5t5.5 3q5 0 18 -6.5t38 -6.5q32 0 43.5 12.5t11.5 28.5q0 23 -19 33t-51 12l-29 2l24 99h32l-18 -74q51 -1 72.5 -22.5t21.5 -47.5q0 -18 -9.5 -34.5t-28 -27t-44.5 -10.5z" />
    <glyph glyph-name="uni0328" unicode="&#x328;" horiz-adv-x="0" 
d="M87 -195q-18 0 -38 5.5t-34.5 20t-14.5 41.5q0 44 21 79.5t54 66.5l26 -16q-30 -29 -51 -59t-21 -69q0 -25 17.5 -34t45.5 -9q8 0 13 -2.5t5 -10.5q0 -7 -5 -10t-18 -3z" />
    <glyph glyph-name="uni0335" unicode="&#x335;" horiz-adv-x="0" 
d="M67 223q-7 0 -12 5t-5 12q0 8 5 13t12 5h260q7 0 12.5 -5t5.5 -13q0 -7 -5.5 -12t-12.5 -5h-260z" />
    <glyph glyph-name="pi" unicode="&#x3c0;" horiz-adv-x="467" 
d="M86 0q-7 0 -12.5 4t-5.5 13v437q0 9 5.5 13.5t12.5 4.5h295q7 0 12.5 -4.5t5.5 -13.5v-437q0 -9 -5.5 -13t-12.5 -4t-12.5 4t-5.5 13v419h-259v-419q0 -9 -5.5 -13t-12.5 -4z" />
    <glyph glyph-name="Wgrave" unicode="&#x1e80;" horiz-adv-x="739" 
d="M242 -6q-6 0 -11 3.5t-7 10.5l-197 701q-1 3 -1 6q0 6 2.5 9.5t6.5 5t8 1.5q6 0 12 -3.5t7 -9.5l180 -648l106 385q3 11 9 14t13 3q8 0 12.5 -3t7.5 -14l108 -385l179 648q2 6 7.5 9.5t11.5 3.5q5 0 8.5 -1.5t6 -5t2.5 -9.5q0 -3 -1 -6l-195 -701q-2 -7 -7 -10.5
t-12 -3.5q-6 0 -11 3.5t-7 10.5l-110 392l-109 -392q-2 -7 -7 -10.5t-12 -3.5zM417 860q-2 0 -4.5 1t-4.5 2l-95 54q-10 6 -10 18q0 7 4.5 12.5t11.5 5.5q3 0 7 -2l102 -60q8 -4 8 -13q0 -7 -5.5 -12.5t-13.5 -5.5z" />
    <glyph glyph-name="wgrave" unicode="&#x1e81;" horiz-adv-x="654" 
d="M196 -6q-7 0 -10 3.5t-7 13.5l-156 430q-1 2 -2.5 6.5t-1.5 6.5q0 5 2.5 9t6.5 6.5t9 2.5t10 -3t7 -8l141 -391l115 362q2 6 6.5 9.5t11.5 3.5t11.5 -3.5t6.5 -9.5l111 -367l144 396q3 11 16 11q5 0 9 -2t6.5 -5.5t2.5 -9.5q0 -3 -1.5 -7.5t-2.5 -6.5l-157 -435
q-2 -7 -6 -9.5t-9 -2.5q-6 0 -8.5 2.5t-5.5 8.5l-117 375l-115 -369q-3 -9 -7 -13t-10 -4zM374 601q-2 0 -4.5 1t-4.5 2l-95 54q-10 6 -10 18q0 7 4.5 12.5t11.5 5.5q3 0 7 -2l102 -60q8 -4 8 -13q0 -7 -5.5 -12.5t-13.5 -5.5z" />
    <glyph glyph-name="Wacute" unicode="&#x1e82;" horiz-adv-x="739" 
d="M242 -6q-6 0 -11 3.5t-7 10.5l-197 701q-1 3 -1 6q0 6 2.5 9.5t6.5 5t8 1.5q6 0 12 -3.5t7 -9.5l180 -648l106 385q3 11 9 14t13 3q8 0 12.5 -3t7.5 -14l108 -385l179 648q2 6 7.5 9.5t11.5 3.5q5 0 8.5 -1.5t6 -5t2.5 -9.5q0 -3 -1 -6l-195 -701q-2 -7 -7 -10.5
t-12 -3.5q-6 0 -11 3.5t-7 10.5l-110 392l-109 -392q-2 -7 -7 -10.5t-12 -3.5zM322 860q-7 0 -13 5.5t-6 12.5q0 9 8 13l102 60q4 2 7 2q8 0 12 -5.5t4 -12.5q0 -12 -10 -18l-95 -54q-2 -1 -4.5 -2t-4.5 -1z" />
    <glyph glyph-name="wacute" unicode="&#x1e83;" horiz-adv-x="654" 
d="M196 -6q-7 0 -10 3.5t-7 13.5l-156 430q-1 2 -2.5 6.5t-1.5 6.5q0 5 2.5 9t6.5 6.5t9 2.5t10 -3t7 -8l141 -391l115 362q2 6 6.5 9.5t11.5 3.5t11.5 -3.5t6.5 -9.5l111 -367l144 396q3 11 16 11q5 0 9 -2t6.5 -5.5t2.5 -9.5q0 -3 -1.5 -7.5t-2.5 -6.5l-157 -435
q-2 -7 -6 -9.5t-9 -2.5q-6 0 -8.5 2.5t-5.5 8.5l-117 375l-115 -369q-3 -9 -7 -13t-10 -4zM279 601q-7 0 -13 5.5t-6 12.5q0 9 8 13l102 60q4 2 7 2q8 0 12 -5.5t4 -12.5q0 -12 -10 -18l-95 -54q-2 -1 -4.5 -2t-4.5 -1z" />
    <glyph glyph-name="Wdieresis" unicode="&#x1e84;" horiz-adv-x="739" 
d="M242 -6q-6 0 -11 3.5t-7 10.5l-197 701q-1 3 -1 6q0 6 2.5 9.5t6.5 5t8 1.5q6 0 12 -3.5t7 -9.5l180 -648l106 385q3 11 9 14t13 3q8 0 12.5 -3t7.5 -14l108 -385l179 648q2 6 7.5 9.5t11.5 3.5q5 0 8.5 -1.5t6 -5t2.5 -9.5q0 -3 -1 -6l-195 -701q-2 -7 -7 -10.5
t-12 -3.5q-6 0 -11 3.5t-7 10.5l-110 392l-109 -392q-2 -7 -7 -10.5t-12 -3.5zM426 859q-13 0 -21.5 8.5t-8.5 21.5t8.5 21t21.5 8t21 -8t8 -21t-8 -21.5t-21 -8.5zM315 859q-13 0 -21.5 8.5t-8.5 21.5t8.5 21t21.5 8t21 -8t8 -21t-8 -21.5t-21 -8.5z" />
    <glyph glyph-name="wdieresis" unicode="&#x1e85;" horiz-adv-x="654" 
d="M196 -6q-7 0 -10 3.5t-7 13.5l-156 430q-1 2 -2.5 6.5t-1.5 6.5q0 5 2.5 9t6.5 6.5t9 2.5t10 -3t7 -8l141 -391l115 362q2 6 6.5 9.5t11.5 3.5t11.5 -3.5t6.5 -9.5l111 -367l144 396q3 11 16 11q5 0 9 -2t6.5 -5.5t2.5 -9.5q0 -3 -1.5 -7.5t-2.5 -6.5l-157 -435
q-2 -7 -6 -9.5t-9 -2.5q-6 0 -8.5 2.5t-5.5 8.5l-117 375l-115 -369q-3 -9 -7 -13t-10 -4zM383 600q-13 0 -21.5 8.5t-8.5 21.5t8.5 21t21.5 8t21 -8t8 -21t-8 -21.5t-21 -8.5zM272 600q-13 0 -21.5 8.5t-8.5 21.5t8.5 21t21.5 8t21 -8t8 -21t-8 -21.5t-21 -8.5z" />
    <glyph glyph-name="uni1EA0" unicode="&#x1ea0;" horiz-adv-x="521" 
d="M43 0q-4 0 -8.5 2t-7 5.5t-2.5 8.5q0 4 1 6l217 701q2 8 7 11t11 3t11.5 -3.5t7.5 -10.5l215 -701q1 -2 1 -5q0 -4 -3 -8t-7.5 -6.5t-9.5 -2.5t-9.5 3t-6.5 10l-51 164h-298l-50 -164q-2 -7 -7 -10t-11 -3zM122 213h276l-137 448zM261 -132q-16 0 -26 11t-10 25
q0 15 10 25.5t26 10.5q14 0 24.5 -10.5t10.5 -25.5q0 -14 -10.5 -25t-24.5 -11z" />
    <glyph glyph-name="uni1EA1" unicode="&#x1ea1;" horiz-adv-x="423" 
d="M174 -6q-58 0 -98.5 32.5t-40.5 99.5q0 53 29.5 81.5t82 39.5t121.5 11h56v28q0 38 -13 74t-42 59.5t-77 23.5q-31 0 -52 -6.5t-33.5 -13.5t-18.5 -7q-8 0 -13 7.5t-5 12.5q0 10 18.5 19.5t47 16t58.5 6.5q62 0 98 -27.5t51.5 -71t15.5 -93.5v-268q0 -7 -4.5 -12.5
t-12.5 -5.5q-7 0 -12.5 5.5t-5.5 12.5v52q-25 -29 -62.5 -52.5t-87.5 -23.5zM173 29q38 0 72.5 18.5t56.5 44.5t22 47v84h-55q-51 0 -96.5 -6t-74 -26.5t-28.5 -64.5q0 -50 30 -73.5t73 -23.5zM212 -132q-16 0 -26 11t-10 25q0 15 10 25.5t26 10.5q14 0 24.5 -10.5
t10.5 -25.5q0 -14 -10.5 -25t-24.5 -11z" />
    <glyph glyph-name="uni1EA2" unicode="&#x1ea2;" horiz-adv-x="521" 
d="M43 0q-4 0 -8.5 2t-7 5.5t-2.5 8.5q0 4 1 6l217 701q2 8 7 11t11 3t11.5 -3.5t7.5 -10.5l215 -701q1 -2 1 -5q0 -4 -3 -8t-7.5 -6.5t-9.5 -2.5t-9.5 3t-6.5 10l-51 164h-298l-50 -164q-2 -7 -7 -10t-11 -3zM122 213h276l-137 448zM197 932q14 14 31 21.5t36 7.5
q25 0 39.5 -10.5t21 -24.5t6.5 -27q0 -16 -10 -29.5t-25 -28.5q-3 -3 -5 -8t-3 -13q-1 -6 -5 -9t-10 -3q-7 0 -11 4.5t-4 9.5q0 7 2 17t11 20q12 13 20 21t8 19q0 13 -10 21.5t-24 8.5q-13 0 -23.5 -6t-18.5 -12q-7 -6 -15 -7.5t-13 5.5q-4 5 -4.5 10.5t6.5 12.5z" />
    <glyph glyph-name="uni1EA3" unicode="&#x1ea3;" horiz-adv-x="423" 
d="M174 -6q-58 0 -98.5 32.5t-40.5 99.5q0 53 29.5 81.5t82 39.5t121.5 11h56v28q0 38 -13 74t-42 59.5t-77 23.5q-31 0 -52 -6.5t-33.5 -13.5t-18.5 -7q-8 0 -13 7.5t-5 12.5q0 10 18.5 19.5t47 16t58.5 6.5q62 0 98 -27.5t51.5 -71t15.5 -93.5v-268q0 -7 -4.5 -12.5
t-12.5 -5.5q-7 0 -12.5 5.5t-5.5 12.5v52q-25 -29 -62.5 -52.5t-87.5 -23.5zM173 29q38 0 72.5 18.5t56.5 44.5t22 47v84h-55q-51 0 -96.5 -6t-74 -26.5t-28.5 -64.5q0 -50 30 -73.5t73 -23.5zM148 673q14 14 31 21.5t36 7.5q25 0 39.5 -10.5t21 -24.5t6.5 -27
q0 -16 -10 -29.5t-25 -28.5q-3 -3 -5 -8t-3 -13q-1 -6 -5 -9t-10 -3q-7 0 -11 4.5t-4 9.5q0 7 2 17t11 20q12 13 20 21t8 19q0 13 -10 21.5t-24 8.5q-13 0 -23.5 -6t-18.5 -12q-7 -6 -15 -7.5t-13 5.5q-4 5 -4.5 10.5t6.5 12.5z" />
    <glyph glyph-name="uni1EA4" unicode="&#x1ea4;" horiz-adv-x="521" 
d="M43 0q-4 0 -8.5 2t-7 5.5t-2.5 8.5q0 4 1 6l217 701q2 8 7 11t11 3t11.5 -3.5t7.5 -10.5l215 -701q1 -2 1 -5q0 -4 -3 -8t-7.5 -6.5t-9.5 -2.5t-9.5 3t-6.5 10l-51 164h-298l-50 -164q-2 -7 -7 -10t-11 -3zM122 213h276l-137 448zM179 812q-7 0 -12.5 5.5t-5.5 13.5t9 14
l74 56q8 5 17 5t17 -5l74 -55q9 -6 9 -17q0 -7 -5 -11.5t-12 -4.5q-2 0 -4.5 1t-4.5 2l-74 55l-74 -56l-4 -2t-4 -1zM217 922q-7 0 -13 5.5t-6 12.5q0 9 8 13l102 60q4 2 7 2q8 0 12 -5.5t4 -12.5q0 -12 -10 -18l-95 -54q-2 -1 -4.5 -2t-4.5 -1z" />
    <glyph glyph-name="uni1EA5" unicode="&#x1ea5;" horiz-adv-x="423" 
d="M174 -6q-58 0 -98.5 32.5t-40.5 99.5q0 53 29.5 81.5t82 39.5t121.5 11h56v28q0 38 -13 74t-42 59.5t-77 23.5q-31 0 -52 -6.5t-33.5 -13.5t-18.5 -7q-8 0 -13 7.5t-5 12.5q0 10 18.5 19.5t47 16t58.5 6.5q62 0 98 -27.5t51.5 -71t15.5 -93.5v-268q0 -7 -4.5 -12.5
t-12.5 -5.5q-7 0 -12.5 5.5t-5.5 12.5v52q-25 -29 -62.5 -52.5t-87.5 -23.5zM173 29q38 0 72.5 18.5t56.5 44.5t22 47v84h-55q-51 0 -96.5 -6t-74 -26.5t-28.5 -64.5q0 -50 30 -73.5t73 -23.5zM130 553q-7 0 -12.5 5.5t-5.5 13.5t9 14l74 56q8 5 17 5t17 -5l74 -55
q9 -6 9 -17q0 -7 -5 -11.5t-12 -4.5q-2 0 -4.5 1t-4.5 2l-74 55l-74 -56l-4 -2t-4 -1zM168 663q-7 0 -13 5.5t-6 12.5q0 9 8 13l102 60q4 2 7 2q8 0 12 -5.5t4 -12.5q0 -12 -10 -18l-95 -54q-2 -1 -4.5 -2t-4.5 -1z" />
    <glyph glyph-name="uni1EA6" unicode="&#x1ea6;" horiz-adv-x="521" 
d="M43 0q-4 0 -8.5 2t-7 5.5t-2.5 8.5q0 4 1 6l217 701q2 8 7 11t11 3t11.5 -3.5t7.5 -10.5l215 -701q1 -2 1 -5q0 -4 -3 -8t-7.5 -6.5t-9.5 -2.5t-9.5 3t-6.5 10l-51 164h-298l-50 -164q-2 -7 -7 -10t-11 -3zM122 213h276l-137 448zM179 814q-7 0 -12.5 5.5t-5.5 13.5t9 14
l74 56q8 5 17 5t17 -5l74 -55q9 -6 9 -17q0 -7 -5 -11.5t-12 -4.5q-2 0 -4.5 1t-4.5 2l-74 55l-74 -56l-4 -2t-4 -1zM319 920q-2 0 -4.5 1t-4.5 2l-95 54q-10 6 -10 18q0 7 4.5 12.5t11.5 5.5q3 0 7 -2l102 -60q8 -4 8 -13q0 -7 -5.5 -12.5t-13.5 -5.5z" />
    <glyph glyph-name="uni1EA7" unicode="&#x1ea7;" horiz-adv-x="423" 
d="M174 -6q-58 0 -98.5 32.5t-40.5 99.5q0 53 29.5 81.5t82 39.5t121.5 11h56v28q0 38 -13 74t-42 59.5t-77 23.5q-31 0 -52 -6.5t-33.5 -13.5t-18.5 -7q-8 0 -13 7.5t-5 12.5q0 10 18.5 19.5t47 16t58.5 6.5q62 0 98 -27.5t51.5 -71t15.5 -93.5v-268q0 -7 -4.5 -12.5
t-12.5 -5.5q-7 0 -12.5 5.5t-5.5 12.5v52q-25 -29 -62.5 -52.5t-87.5 -23.5zM173 29q38 0 72.5 18.5t56.5 44.5t22 47v84h-55q-51 0 -96.5 -6t-74 -26.5t-28.5 -64.5q0 -50 30 -73.5t73 -23.5zM130 555q-7 0 -12.5 5.5t-5.5 13.5t9 14l74 56q8 5 17 5t17 -5l74 -55
q9 -6 9 -17q0 -7 -5 -11.5t-12 -4.5q-2 0 -4.5 1t-4.5 2l-74 55l-74 -56l-4 -2t-4 -1zM270 661q-2 0 -4.5 1t-4.5 2l-95 54q-10 6 -10 18q0 7 4.5 12.5t11.5 5.5q3 0 7 -2l102 -60q8 -4 8 -13q0 -7 -5.5 -12.5t-13.5 -5.5z" />
    <glyph glyph-name="uni1EA8" unicode="&#x1ea8;" horiz-adv-x="521" 
d="M43 0q-4 0 -8.5 2t-7 5.5t-2.5 8.5q0 4 1 6l217 701q2 8 7 11t11 3t11.5 -3.5t7.5 -10.5l215 -701q1 -2 1 -5q0 -4 -3 -8t-7.5 -6.5t-9.5 -2.5t-9.5 3t-6.5 10l-51 164h-298l-50 -164q-2 -7 -7 -10t-11 -3zM122 213h276l-137 448zM177 813q-7 0 -12.5 5.5t-5.5 13.5t9 14
l74 56q8 5 17 5t17 -5l74 -55q9 -6 9 -17q0 -7 -5 -11.5t-12 -4.5q-2 0 -4.5 1t-4.5 2l-74 55l-74 -56l-4 -2t-4 -1zM295 980q14 14 31 21.5t36 7.5q25 0 39.5 -10.5t21 -24.5t6.5 -27q0 -16 -10 -29.5t-25 -28.5q-3 -3 -5 -8t-3 -13q-1 -6 -5 -9t-10 -3q-7 0 -11 4.5
t-4 9.5q0 7 2 17t11 20q12 13 20 21t8 19q0 13 -10 21.5t-24 8.5q-13 0 -23.5 -6t-18.5 -12q-7 -6 -15 -7.5t-13 5.5q-4 5 -4.5 10.5t6.5 12.5z" />
    <glyph glyph-name="uni1EA9" unicode="&#x1ea9;" horiz-adv-x="423" 
d="M174 -6q-58 0 -98.5 32.5t-40.5 99.5q0 53 29.5 81.5t82 39.5t121.5 11h56v28q0 38 -13 74t-42 59.5t-77 23.5q-31 0 -52 -6.5t-33.5 -13.5t-18.5 -7q-8 0 -13 7.5t-5 12.5q0 10 18.5 19.5t47 16t58.5 6.5q62 0 98 -27.5t51.5 -71t15.5 -93.5v-268q0 -7 -4.5 -12.5
t-12.5 -5.5q-7 0 -12.5 5.5t-5.5 12.5v52q-25 -29 -62.5 -52.5t-87.5 -23.5zM173 29q38 0 72.5 18.5t56.5 44.5t22 47v84h-55q-51 0 -96.5 -6t-74 -26.5t-28.5 -64.5q0 -50 30 -73.5t73 -23.5zM128 554q-7 0 -12.5 5.5t-5.5 13.5t9 14l74 56q8 5 17 5t17 -5l74 -55
q9 -6 9 -17q0 -7 -5 -11.5t-12 -4.5q-2 0 -4.5 1t-4.5 2l-74 55l-74 -56l-4 -2t-4 -1zM246 721q14 14 31 21.5t36 7.5q25 0 39.5 -10.5t21 -24.5t6.5 -27q0 -16 -10 -29.5t-25 -28.5q-3 -3 -5 -8t-3 -13q-1 -6 -5 -9t-10 -3q-7 0 -11 4.5t-4 9.5q0 7 2 17t11 20q12 13 20 21
t8 19q0 13 -10 21.5t-24 8.5q-13 0 -23.5 -6t-18.5 -12q-7 -6 -15 -7.5t-13 5.5q-4 5 -4.5 10.5t6.5 12.5z" />
    <glyph glyph-name="uni1EAA" unicode="&#x1eaa;" horiz-adv-x="521" 
d="M43 0q-4 0 -8.5 2t-7 5.5t-2.5 8.5q0 4 1 6l217 701q2 8 7 11t11 3t11.5 -3.5t7.5 -10.5l215 -701q1 -2 1 -5q0 -4 -3 -8t-7.5 -6.5t-9.5 -2.5t-9.5 3t-6.5 10l-51 164h-298l-50 -164q-2 -7 -7 -10t-11 -3zM122 213h276l-137 448zM179 812q-7 0 -12.5 5.5t-5.5 13.5t9 14
l74 56q8 5 17 5t17 -5l74 -55q9 -6 9 -17q0 -7 -5 -11.5t-12 -4.5q-2 0 -4.5 1t-4.5 2l-74 55l-74 -56l-4 -2t-4 -1zM324 915q-24 0 -42.5 9.5t-38.5 18.5t-48 9q-21 0 -34 -8.5t-20.5 -17.5t-14.5 -9q-3 0 -6 2t-5 6t-2 9q0 10 8.5 19t22.5 16.5t29.5 12t28.5 4.5
q25 0 44 -9t38.5 -18.5t44.5 -9.5q23 0 34 8t17 16t14 8q4 0 7 -2t5 -5t2 -8q0 -12 -8.5 -21t-21.5 -16t-27.5 -10.5t-26.5 -3.5z" />
    <glyph glyph-name="uni1EAB" unicode="&#x1eab;" horiz-adv-x="423" 
d="M174 -6q-58 0 -98.5 32.5t-40.5 99.5q0 53 29.5 81.5t82 39.5t121.5 11h56v28q0 38 -13 74t-42 59.5t-77 23.5q-31 0 -52 -6.5t-33.5 -13.5t-18.5 -7q-8 0 -13 7.5t-5 12.5q0 10 18.5 19.5t47 16t58.5 6.5q62 0 98 -27.5t51.5 -71t15.5 -93.5v-268q0 -7 -4.5 -12.5
t-12.5 -5.5q-7 0 -12.5 5.5t-5.5 12.5v52q-25 -29 -62.5 -52.5t-87.5 -23.5zM173 29q38 0 72.5 18.5t56.5 44.5t22 47v84h-55q-51 0 -96.5 -6t-74 -26.5t-28.5 -64.5q0 -50 30 -73.5t73 -23.5zM130 553q-7 0 -12.5 5.5t-5.5 13.5t9 14l74 56q8 5 17 5t17 -5l74 -55
q9 -6 9 -17q0 -7 -5 -11.5t-12 -4.5q-2 0 -4.5 1t-4.5 2l-74 55l-74 -56l-4 -2t-4 -1zM275 656q-24 0 -42.5 9.5t-38.5 18.5t-48 9q-21 0 -34 -8.5t-20.5 -17.5t-14.5 -9q-3 0 -6 2t-5 6t-2 9q0 10 8.5 19t22.5 16.5t29.5 12t28.5 4.5q25 0 44 -9t38.5 -18.5t44.5 -9.5
q23 0 34 8t17 16t14 8q4 0 7 -2t5 -5t2 -8q0 -12 -8.5 -21t-21.5 -16t-27.5 -10.5t-26.5 -3.5z" />
    <glyph glyph-name="uni1EAC" unicode="&#x1eac;" horiz-adv-x="521" 
d="M43 0q-4 0 -8.5 2t-7 5.5t-2.5 8.5q0 4 1 6l217 701q2 8 7 11t11 3t11.5 -3.5t7.5 -10.5l215 -701q1 -2 1 -5q0 -4 -3 -8t-7.5 -6.5t-9.5 -2.5t-9.5 3t-6.5 10l-51 164h-298l-50 -164q-2 -7 -7 -10t-11 -3zM122 213h276l-137 448zM261 -132q-16 0 -26 11t-10 25
q0 15 10 25.5t26 10.5q14 0 24.5 -10.5t10.5 -25.5q0 -14 -10.5 -25t-24.5 -11zM149 859q-7 0 -12.5 5.5t-5.5 13.5q0 4 2.5 8t6.5 6l104 56q8 5 17 5t17 -5l104 -55q5 -2 7 -7t2 -10q0 -7 -5 -11.5t-12 -4.5q-2 0 -4.5 1t-4.5 2l-104 55l-104 -56l-4 -2t-4 -1z" />
    <glyph glyph-name="uni1EAD" unicode="&#x1ead;" horiz-adv-x="423" 
d="M174 -6q-58 0 -98.5 32.5t-40.5 99.5q0 53 29.5 81.5t82 39.5t121.5 11h56v28q0 38 -13 74t-42 59.5t-77 23.5q-31 0 -52 -6.5t-33.5 -13.5t-18.5 -7q-8 0 -13 7.5t-5 12.5q0 10 18.5 19.5t47 16t58.5 6.5q62 0 98 -27.5t51.5 -71t15.5 -93.5v-268q0 -7 -4.5 -12.5
t-12.5 -5.5q-7 0 -12.5 5.5t-5.5 12.5v52q-25 -29 -62.5 -52.5t-87.5 -23.5zM173 29q38 0 72.5 18.5t56.5 44.5t22 47v84h-55q-51 0 -96.5 -6t-74 -26.5t-28.5 -64.5q0 -50 30 -73.5t73 -23.5zM212 -132q-16 0 -26 11t-10 25q0 15 10 25.5t26 10.5q14 0 24.5 -10.5
t10.5 -25.5q0 -14 -10.5 -25t-24.5 -11zM100 600q-7 0 -12.5 5.5t-5.5 13.5q0 4 2.5 8t6.5 6l104 56q8 5 17 5t17 -5l104 -55q5 -2 7 -7t2 -10q0 -7 -5 -11.5t-12 -4.5q-2 0 -4.5 1t-4.5 2l-104 55l-104 -56l-4 -2t-4 -1z" />
    <glyph glyph-name="uni1EAE" unicode="&#x1eae;" horiz-adv-x="521" 
d="M43 0q-4 0 -8.5 2t-7 5.5t-2.5 8.5q0 4 1 6l217 701q2 8 7 11t11 3t11.5 -3.5t7.5 -10.5l215 -701q1 -2 1 -5q0 -4 -3 -8t-7.5 -6.5t-9.5 -2.5t-9.5 3t-6.5 10l-51 164h-298l-50 -164q-2 -7 -7 -10t-11 -3zM122 213h276l-137 448zM261 811q-39 0 -70 27t-38 65
q-1 8 3.5 12.5t11.5 4.5h2q6 0 10 -4t5 -10q5 -29 26.5 -49t49.5 -20t49.5 20t25.5 49q1 6 5 10t10 4h2q7 0 12 -5t4 -12q-7 -38 -38.5 -65t-69.5 -27zM256 964q-7 0 -13 5.5t-6 12.5q0 9 8 13l102 60q4 2 7 2q8 0 12 -5.5t4 -12.5q0 -12 -10 -18l-95 -54q-2 -1 -4.5 -2
t-4.5 -1z" />
    <glyph glyph-name="uni1EAF" unicode="&#x1eaf;" horiz-adv-x="423" 
d="M174 -6q-58 0 -98.5 32.5t-40.5 99.5q0 53 29.5 81.5t82 39.5t121.5 11h56v28q0 38 -13 74t-42 59.5t-77 23.5q-31 0 -52 -6.5t-33.5 -13.5t-18.5 -7q-8 0 -13 7.5t-5 12.5q0 10 18.5 19.5t47 16t58.5 6.5q62 0 98 -27.5t51.5 -71t15.5 -93.5v-268q0 -7 -4.5 -12.5
t-12.5 -5.5q-7 0 -12.5 5.5t-5.5 12.5v52q-25 -29 -62.5 -52.5t-87.5 -23.5zM173 29q38 0 72.5 18.5t56.5 44.5t22 47v84h-55q-51 0 -96.5 -6t-74 -26.5t-28.5 -64.5q0 -50 30 -73.5t73 -23.5zM212 552q-39 0 -70 27t-38 65q-1 8 3.5 12.5t11.5 4.5h2q6 0 10 -4t5 -10
q5 -29 26.5 -49t49.5 -20t49.5 20t25.5 49q1 6 5 10t10 4h2q7 0 12 -5t4 -12q-7 -38 -38.5 -65t-69.5 -27zM207 705q-7 0 -13 5.5t-6 12.5q0 9 8 13l102 60q4 2 7 2q8 0 12 -5.5t4 -12.5q0 -12 -10 -18l-95 -54q-2 -1 -4.5 -2t-4.5 -1z" />
    <glyph glyph-name="uni1EB0" unicode="&#x1eb0;" horiz-adv-x="521" 
d="M43 0q-4 0 -8.5 2t-7 5.5t-2.5 8.5q0 4 1 6l217 701q2 8 7 11t11 3t11.5 -3.5t7.5 -10.5l215 -701q1 -2 1 -5q0 -4 -3 -8t-7.5 -6.5t-9.5 -2.5t-9.5 3t-6.5 10l-51 164h-298l-50 -164q-2 -7 -7 -10t-11 -3zM122 213h276l-137 448zM258 812q-39 0 -70 27t-38 65
q-1 8 3.5 12.5t11.5 4.5h2q6 0 10 -4t5 -10q5 -29 26.5 -49t49.5 -20t49.5 20t25.5 49q1 6 5 10t10 4h2q7 0 12 -5t4 -12q-7 -38 -38.5 -65t-69.5 -27zM256 957q-2 0 -4.5 1t-4.5 2l-95 54q-10 6 -10 18q0 7 4.5 12.5t11.5 5.5q3 0 7 -2l102 -60q8 -4 8 -13q0 -7 -5.5 -12.5
t-13.5 -5.5z" />
    <glyph glyph-name="uni1EB1" unicode="&#x1eb1;" horiz-adv-x="423" 
d="M174 -6q-58 0 -98.5 32.5t-40.5 99.5q0 53 29.5 81.5t82 39.5t121.5 11h56v28q0 38 -13 74t-42 59.5t-77 23.5q-31 0 -52 -6.5t-33.5 -13.5t-18.5 -7q-8 0 -13 7.5t-5 12.5q0 10 18.5 19.5t47 16t58.5 6.5q62 0 98 -27.5t51.5 -71t15.5 -93.5v-268q0 -7 -4.5 -12.5
t-12.5 -5.5q-7 0 -12.5 5.5t-5.5 12.5v52q-25 -29 -62.5 -52.5t-87.5 -23.5zM173 29q38 0 72.5 18.5t56.5 44.5t22 47v84h-55q-51 0 -96.5 -6t-74 -26.5t-28.5 -64.5q0 -50 30 -73.5t73 -23.5zM209 553q-39 0 -70 27t-38 65q-1 8 3.5 12.5t11.5 4.5h2q6 0 10 -4t5 -10
q5 -29 26.5 -49t49.5 -20t49.5 20t25.5 49q1 6 5 10t10 4h2q7 0 12 -5t4 -12q-7 -38 -38.5 -65t-69.5 -27zM207 698q-2 0 -4.5 1t-4.5 2l-95 54q-10 6 -10 18q0 7 4.5 12.5t11.5 5.5q3 0 7 -2l102 -60q8 -4 8 -13q0 -7 -5.5 -12.5t-13.5 -5.5z" />
    <glyph glyph-name="uni1EB2" unicode="&#x1eb2;" horiz-adv-x="521" 
d="M43 0q-4 0 -8.5 2t-7 5.5t-2.5 8.5q0 4 1 6l217 701q2 8 7 11t11 3t11.5 -3.5t7.5 -10.5l215 -701q1 -2 1 -5q0 -4 -3 -8t-7.5 -6.5t-9.5 -2.5t-9.5 3t-6.5 10l-51 164h-298l-50 -164q-2 -7 -7 -10t-11 -3zM122 213h276l-137 448zM261 812q-39 0 -70 27t-38 65
q-1 8 3.5 12.5t11.5 4.5h2q6 0 10 -4t5 -10q5 -29 26.5 -49t49.5 -20t49.5 20t25.5 49q1 6 5 10t10 4h2q7 0 12 -5t4 -12q-7 -38 -38.5 -65t-69.5 -27zM184 1020q14 14 31 21.5t36 7.5q25 0 39.5 -10.5t21 -24.5t6.5 -27q0 -16 -10 -29.5t-25 -28.5q-3 -3 -5 -8t-3 -13
q-1 -6 -5 -9t-10 -3q-7 0 -11 4.5t-4 9.5q0 7 2 17t11 20q12 13 20 21t8 19q0 13 -10 21.5t-24 8.5q-13 0 -23.5 -6t-18.5 -12q-7 -6 -15 -7.5t-13 5.5q-4 5 -4.5 10.5t6.5 12.5z" />
    <glyph glyph-name="uni1EB3" unicode="&#x1eb3;" horiz-adv-x="423" 
d="M174 -6q-58 0 -98.5 32.5t-40.5 99.5q0 53 29.5 81.5t82 39.5t121.5 11h56v28q0 38 -13 74t-42 59.5t-77 23.5q-31 0 -52 -6.5t-33.5 -13.5t-18.5 -7q-8 0 -13 7.5t-5 12.5q0 10 18.5 19.5t47 16t58.5 6.5q62 0 98 -27.5t51.5 -71t15.5 -93.5v-268q0 -7 -4.5 -12.5
t-12.5 -5.5q-7 0 -12.5 5.5t-5.5 12.5v52q-25 -29 -62.5 -52.5t-87.5 -23.5zM173 29q38 0 72.5 18.5t56.5 44.5t22 47v84h-55q-51 0 -96.5 -6t-74 -26.5t-28.5 -64.5q0 -50 30 -73.5t73 -23.5zM212 553q-39 0 -70 27t-38 65q-1 8 3.5 12.5t11.5 4.5h2q6 0 10 -4t5 -10
q5 -29 26.5 -49t49.5 -20t49.5 20t25.5 49q1 6 5 10t10 4h2q7 0 12 -5t4 -12q-7 -38 -38.5 -65t-69.5 -27zM135 761q14 14 31 21.5t36 7.5q25 0 39.5 -10.5t21 -24.5t6.5 -27q0 -16 -10 -29.5t-25 -28.5q-3 -3 -5 -8t-3 -13q-1 -6 -5 -9t-10 -3q-7 0 -11 4.5t-4 9.5
q0 7 2 17t11 20q12 13 20 21t8 19q0 13 -10 21.5t-24 8.5q-13 0 -23.5 -6t-18.5 -12q-7 -6 -15 -7.5t-13 5.5q-4 5 -4.5 10.5t6.5 12.5z" />
    <glyph glyph-name="uni1EB4" unicode="&#x1eb4;" horiz-adv-x="521" 
d="M43 0q-4 0 -8.5 2t-7 5.5t-2.5 8.5q0 4 1 6l217 701q2 8 7 11t11 3t11.5 -3.5t7.5 -10.5l215 -701q1 -2 1 -5q0 -4 -3 -8t-7.5 -6.5t-9.5 -2.5t-9.5 3t-6.5 10l-51 164h-298l-50 -164q-2 -7 -7 -10t-11 -3zM122 213h276l-137 448zM261 813q-39 0 -70 27t-38 65
q-1 8 3.5 12.5t11.5 4.5h2q6 0 10 -4t5 -10q5 -29 26.5 -49t49.5 -20t49.5 20t25.5 49q1 6 5 10t10 4h2q7 0 12 -5t4 -12q-7 -38 -38.5 -65t-69.5 -27zM324 948q-24 0 -42.5 9.5t-38.5 18.5t-48 9q-21 0 -34 -8.5t-20.5 -17.5t-14.5 -9q-3 0 -6 2t-5 6t-2 9q0 10 8.5 19
t22.5 16.5t29.5 12t28.5 4.5q25 0 44 -9t38.5 -18.5t44.5 -9.5q23 0 34 8t17 16t14 8q4 0 7 -2t5 -5t2 -8q0 -12 -8.5 -21t-21.5 -16t-27.5 -10.5t-26.5 -3.5z" />
    <glyph glyph-name="uni1EB5" unicode="&#x1eb5;" horiz-adv-x="423" 
d="M174 -6q-58 0 -98.5 32.5t-40.5 99.5q0 53 29.5 81.5t82 39.5t121.5 11h56v28q0 38 -13 74t-42 59.5t-77 23.5q-31 0 -52 -6.5t-33.5 -13.5t-18.5 -7q-8 0 -13 7.5t-5 12.5q0 10 18.5 19.5t47 16t58.5 6.5q62 0 98 -27.5t51.5 -71t15.5 -93.5v-268q0 -7 -4.5 -12.5
t-12.5 -5.5q-7 0 -12.5 5.5t-5.5 12.5v52q-25 -29 -62.5 -52.5t-87.5 -23.5zM173 29q38 0 72.5 18.5t56.5 44.5t22 47v84h-55q-51 0 -96.5 -6t-74 -26.5t-28.5 -64.5q0 -50 30 -73.5t73 -23.5zM212 554q-39 0 -70 27t-38 65q-1 8 3.5 12.5t11.5 4.5h2q6 0 10 -4t5 -10
q5 -29 26.5 -49t49.5 -20t49.5 20t25.5 49q1 6 5 10t10 4h2q7 0 12 -5t4 -12q-7 -38 -38.5 -65t-69.5 -27zM275 689q-24 0 -42.5 9.5t-38.5 18.5t-48 9q-21 0 -34 -8.5t-20.5 -17.5t-14.5 -9q-3 0 -6 2t-5 6t-2 9q0 10 8.5 19t22.5 16.5t29.5 12t28.5 4.5q25 0 44 -9
t38.5 -18.5t44.5 -9.5q23 0 34 8t17 16t14 8q4 0 7 -2t5 -5t2 -8q0 -12 -8.5 -21t-21.5 -16t-27.5 -10.5t-26.5 -3.5z" />
    <glyph glyph-name="uni1EB6" unicode="&#x1eb6;" horiz-adv-x="521" 
d="M43 0q-4 0 -8.5 2t-7 5.5t-2.5 8.5q0 4 1 6l217 701q2 8 7 11t11 3t11.5 -3.5t7.5 -10.5l215 -701q1 -2 1 -5q0 -4 -3 -8t-7.5 -6.5t-9.5 -2.5t-9.5 3t-6.5 10l-51 164h-298l-50 -164q-2 -7 -7 -10t-11 -3zM122 213h276l-137 448zM261 -132q-16 0 -26 11t-10 25
q0 15 10 25.5t26 10.5q14 0 24.5 -10.5t10.5 -25.5q0 -14 -10.5 -25t-24.5 -11zM261 860q-39 0 -70 27t-38 65q-1 8 3.5 12.5t11.5 4.5h2q6 0 10 -4t5 -10q5 -29 26.5 -49t49.5 -20t49.5 20t25.5 49q1 6 5 10t10 4h2q7 0 12 -5t4 -12q-7 -38 -38.5 -65t-69.5 -27z" />
    <glyph glyph-name="uni1EB7" unicode="&#x1eb7;" horiz-adv-x="423" 
d="M174 -6q-58 0 -98.5 32.5t-40.5 99.5q0 53 29.5 81.5t82 39.5t121.5 11h56v28q0 38 -13 74t-42 59.5t-77 23.5q-31 0 -52 -6.5t-33.5 -13.5t-18.5 -7q-8 0 -13 7.5t-5 12.5q0 10 18.5 19.5t47 16t58.5 6.5q62 0 98 -27.5t51.5 -71t15.5 -93.5v-268q0 -7 -4.5 -12.5
t-12.5 -5.5q-7 0 -12.5 5.5t-5.5 12.5v52q-25 -29 -62.5 -52.5t-87.5 -23.5zM173 29q38 0 72.5 18.5t56.5 44.5t22 47v84h-55q-51 0 -96.5 -6t-74 -26.5t-28.5 -64.5q0 -50 30 -73.5t73 -23.5zM212 -132q-16 0 -26 11t-10 25q0 15 10 25.5t26 10.5q14 0 24.5 -10.5
t10.5 -25.5q0 -14 -10.5 -25t-24.5 -11zM212 601q-39 0 -70 27t-38 65q-1 8 3.5 12.5t11.5 4.5h2q6 0 10 -4t5 -10q5 -29 26.5 -49t49.5 -20t49.5 20t25.5 49q1 6 5 10t10 4h2q7 0 12 -5t4 -12q-7 -38 -38.5 -65t-69.5 -27z" />
    <glyph glyph-name="uni1EB8" unicode="&#x1eb8;" horiz-adv-x="498" 
d="M101 0q-7 0 -12.5 4.5t-5.5 13.5v695q0 9 5.5 13.5t12.5 4.5h356q9 0 13 -5.5t4 -11.5q0 -7 -4.5 -13t-12.5 -6h-338v-311h160q8 0 12.5 -5.5t4.5 -13.5q0 -6 -4 -11.5t-13 -5.5h-160v-312h338q8 0 12.5 -5.5t4.5 -13.5q0 -6 -4 -11.5t-13 -5.5h-356zM249 -132
q-16 0 -26 11t-10 25q0 15 10 25.5t26 10.5q14 0 24.5 -10.5t10.5 -25.5q0 -14 -10.5 -25t-24.5 -11z" />
    <glyph glyph-name="uni1EB9" unicode="&#x1eb9;" horiz-adv-x="445" 
d="M253 -6q-59 0 -104.5 23t-71.5 63.5t-26 95.5v125q0 48 24.5 88.5t65 64.5t88.5 24q47 0 87.5 -23.5t65 -64t24.5 -92.5q0 -36 -12 -52t-30.5 -19.5t-40.5 -3.5h-237v-47q0 -68 48 -107.5t121 -39.5q42 0 64 10.5t33.5 20.5t20.5 10q5 0 9 -3t6.5 -7t2.5 -8
q0 -9 -16.5 -23t-47.5 -24.5t-74 -10.5zM86 258h225q37 0 48.5 7t11.5 30q0 36 -17.5 70t-49.5 56t-75 22q-40 0 -72.5 -20t-51.5 -52t-19 -70v-43zM229 -132q-16 0 -26 11t-10 25q0 15 10 25.5t26 10.5q14 0 24.5 -10.5t10.5 -25.5q0 -14 -10.5 -25t-24.5 -11z" />
    <glyph glyph-name="uni1EBA" unicode="&#x1eba;" horiz-adv-x="498" 
d="M101 0q-7 0 -12.5 4.5t-5.5 13.5v695q0 9 5.5 13.5t12.5 4.5h356q9 0 13 -5.5t4 -11.5q0 -7 -4.5 -13t-12.5 -6h-338v-311h160q8 0 12.5 -5.5t4.5 -13.5q0 -6 -4 -11.5t-13 -5.5h-160v-312h338q8 0 12.5 -5.5t4.5 -13.5q0 -6 -4 -11.5t-13 -5.5h-356zM216 932
q14 14 31 21.5t36 7.5q25 0 39.5 -10.5t21 -24.5t6.5 -27q0 -16 -10 -29.5t-25 -28.5q-3 -3 -5 -8t-3 -13q-1 -6 -5 -9t-10 -3q-7 0 -11 4.5t-4 9.5q0 7 2 17t11 20q12 13 20 21t8 19q0 13 -10 21.5t-24 8.5q-13 0 -23.5 -6t-18.5 -12q-7 -6 -15 -7.5t-13 5.5
q-4 5 -4.5 10.5t6.5 12.5z" />
    <glyph glyph-name="uni1EBB" unicode="&#x1ebb;" horiz-adv-x="445" 
d="M253 -6q-59 0 -104.5 23t-71.5 63.5t-26 95.5v125q0 48 24.5 88.5t65 64.5t88.5 24q47 0 87.5 -23.5t65 -64t24.5 -92.5q0 -36 -12 -52t-30.5 -19.5t-40.5 -3.5h-237v-47q0 -68 48 -107.5t121 -39.5q42 0 64 10.5t33.5 20.5t20.5 10q5 0 9 -3t6.5 -7t2.5 -8
q0 -9 -16.5 -23t-47.5 -24.5t-74 -10.5zM86 258h225q37 0 48.5 7t11.5 30q0 36 -17.5 70t-49.5 56t-75 22q-40 0 -72.5 -20t-51.5 -52t-19 -70v-43zM165 673q14 14 31 21.5t36 7.5q25 0 39.5 -10.5t21 -24.5t6.5 -27q0 -16 -10 -29.5t-25 -28.5q-3 -3 -5 -8t-3 -13
q-1 -6 -5 -9t-10 -3q-7 0 -11 4.5t-4 9.5q0 7 2 17t11 20q12 13 20 21t8 19q0 13 -10 21.5t-24 8.5q-13 0 -23.5 -6t-18.5 -12q-7 -6 -15 -7.5t-13 5.5q-4 5 -4.5 10.5t6.5 12.5z" />
    <glyph glyph-name="uni1EBC" unicode="&#x1ebc;" horiz-adv-x="498" 
d="M101 0q-7 0 -12.5 4.5t-5.5 13.5v695q0 9 5.5 13.5t12.5 4.5h356q9 0 13 -5.5t4 -11.5q0 -7 -4.5 -13t-12.5 -6h-338v-311h160q8 0 12.5 -5.5t4.5 -13.5q0 -6 -4 -11.5t-13 -5.5h-160v-312h338q8 0 12.5 -5.5t4.5 -13.5q0 -6 -4 -11.5t-13 -5.5h-356zM343 878
q-24 0 -42.5 9.5t-38.5 18.5t-48 9q-21 0 -34 -8.5t-20.5 -17.5t-14.5 -9q-3 0 -6 2t-5 6t-2 9q0 10 8.5 19t22.5 16.5t29.5 12t28.5 4.5q25 0 44 -9t38.5 -18.5t44.5 -9.5q23 0 34 8t17 16t14 8q4 0 7 -2t5 -5t2 -8q0 -12 -8.5 -21t-21.5 -16t-27.5 -10.5t-26.5 -3.5z" />
    <glyph glyph-name="uni1EBD" unicode="&#x1ebd;" horiz-adv-x="445" 
d="M253 -6q-59 0 -104.5 23t-71.5 63.5t-26 95.5v125q0 48 24.5 88.5t65 64.5t88.5 24q47 0 87.5 -23.5t65 -64t24.5 -92.5q0 -36 -12 -52t-30.5 -19.5t-40.5 -3.5h-237v-47q0 -68 48 -107.5t121 -39.5q42 0 64 10.5t33.5 20.5t20.5 10q5 0 9 -3t6.5 -7t2.5 -8
q0 -9 -16.5 -23t-47.5 -24.5t-74 -10.5zM86 258h225q37 0 48.5 7t11.5 30q0 36 -17.5 70t-49.5 56t-75 22q-40 0 -72.5 -20t-51.5 -52t-19 -70v-43zM292 619q-24 0 -42.5 9.5t-38.5 18.5t-48 9q-21 0 -34 -8.5t-20.5 -17.5t-14.5 -9q-3 0 -6 2t-5 6t-2 9q0 10 8.5 19
t22.5 16.5t29.5 12t28.5 4.5q25 0 44 -9t38.5 -18.5t44.5 -9.5q23 0 34 8t17 16t14 8q4 0 7 -2t5 -5t2 -8q0 -12 -8.5 -21t-21.5 -16t-27.5 -10.5t-26.5 -3.5z" />
    <glyph glyph-name="uni1EBE" unicode="&#x1ebe;" horiz-adv-x="498" 
d="M101 0q-7 0 -12.5 4.5t-5.5 13.5v695q0 9 5.5 13.5t12.5 4.5h356q9 0 13 -5.5t4 -11.5q0 -7 -4.5 -13t-12.5 -6h-338v-311h160q8 0 12.5 -5.5t4.5 -13.5q0 -6 -4 -11.5t-13 -5.5h-160v-312h338q8 0 12.5 -5.5t4.5 -13.5q0 -6 -4 -11.5t-13 -5.5h-356zM198 812
q-7 0 -12.5 5.5t-5.5 13.5t9 14l74 56q8 5 17 5t17 -5l74 -55q9 -6 9 -17q0 -7 -5 -11.5t-12 -4.5q-2 0 -4.5 1t-4.5 2l-74 55l-74 -56l-4 -2t-4 -1zM236 922q-7 0 -13 5.5t-6 12.5q0 9 8 13l102 60q4 2 7 2q8 0 12 -5.5t4 -12.5q0 -12 -10 -18l-95 -54q-2 -1 -4.5 -2
t-4.5 -1z" />
    <glyph glyph-name="uni1EBF" unicode="&#x1ebf;" horiz-adv-x="445" 
d="M253 -6q-59 0 -104.5 23t-71.5 63.5t-26 95.5v125q0 48 24.5 88.5t65 64.5t88.5 24q47 0 87.5 -23.5t65 -64t24.5 -92.5q0 -36 -12 -52t-30.5 -19.5t-40.5 -3.5h-237v-47q0 -68 48 -107.5t121 -39.5q42 0 64 10.5t33.5 20.5t20.5 10q5 0 9 -3t6.5 -7t2.5 -8
q0 -9 -16.5 -23t-47.5 -24.5t-74 -10.5zM86 258h225q37 0 48.5 7t11.5 30q0 36 -17.5 70t-49.5 56t-75 22q-40 0 -72.5 -20t-51.5 -52t-19 -70v-43zM147 553q-7 0 -12.5 5.5t-5.5 13.5t9 14l74 56q8 5 17 5t17 -5l74 -55q9 -6 9 -17q0 -7 -5 -11.5t-12 -4.5q-2 0 -4.5 1
t-4.5 2l-74 55l-74 -56l-4 -2t-4 -1zM185 663q-7 0 -13 5.5t-6 12.5q0 9 8 13l102 60q4 2 7 2q8 0 12 -5.5t4 -12.5q0 -12 -10 -18l-95 -54q-2 -1 -4.5 -2t-4.5 -1z" />
    <glyph glyph-name="uni1EC0" unicode="&#x1ec0;" horiz-adv-x="498" 
d="M101 0q-7 0 -12.5 4.5t-5.5 13.5v695q0 9 5.5 13.5t12.5 4.5h356q9 0 13 -5.5t4 -11.5q0 -7 -4.5 -13t-12.5 -6h-338v-311h160q8 0 12.5 -5.5t4.5 -13.5q0 -6 -4 -11.5t-13 -5.5h-160v-312h338q8 0 12.5 -5.5t4.5 -13.5q0 -6 -4 -11.5t-13 -5.5h-356zM198 814
q-7 0 -12.5 5.5t-5.5 13.5t9 14l74 56q8 5 17 5t17 -5l74 -55q9 -6 9 -17q0 -7 -5 -11.5t-12 -4.5q-2 0 -4.5 1t-4.5 2l-74 55l-74 -56l-4 -2t-4 -1zM338 920q-2 0 -4.5 1t-4.5 2l-95 54q-10 6 -10 18q0 7 4.5 12.5t11.5 5.5q3 0 7 -2l102 -60q8 -4 8 -13q0 -7 -5.5 -12.5
t-13.5 -5.5z" />
    <glyph glyph-name="uni1EC1" unicode="&#x1ec1;" horiz-adv-x="445" 
d="M253 -6q-59 0 -104.5 23t-71.5 63.5t-26 95.5v125q0 48 24.5 88.5t65 64.5t88.5 24q47 0 87.5 -23.5t65 -64t24.5 -92.5q0 -36 -12 -52t-30.5 -19.5t-40.5 -3.5h-237v-47q0 -68 48 -107.5t121 -39.5q42 0 64 10.5t33.5 20.5t20.5 10q5 0 9 -3t6.5 -7t2.5 -8
q0 -9 -16.5 -23t-47.5 -24.5t-74 -10.5zM86 258h225q37 0 48.5 7t11.5 30q0 36 -17.5 70t-49.5 56t-75 22q-40 0 -72.5 -20t-51.5 -52t-19 -70v-43zM147 555q-7 0 -12.5 5.5t-5.5 13.5t9 14l74 56q8 5 17 5t17 -5l74 -55q9 -6 9 -17q0 -7 -5 -11.5t-12 -4.5q-2 0 -4.5 1
t-4.5 2l-74 55l-74 -56l-4 -2t-4 -1zM287 661q-2 0 -4.5 1t-4.5 2l-95 54q-10 6 -10 18q0 7 4.5 12.5t11.5 5.5q3 0 7 -2l102 -60q8 -4 8 -13q0 -7 -5.5 -12.5t-13.5 -5.5z" />
    <glyph glyph-name="uni1EC2" unicode="&#x1ec2;" horiz-adv-x="498" 
d="M101 0q-7 0 -12.5 4.5t-5.5 13.5v695q0 9 5.5 13.5t12.5 4.5h356q9 0 13 -5.5t4 -11.5q0 -7 -4.5 -13t-12.5 -6h-338v-311h160q8 0 12.5 -5.5t4.5 -13.5q0 -6 -4 -11.5t-13 -5.5h-160v-312h338q8 0 12.5 -5.5t4.5 -13.5q0 -6 -4 -11.5t-13 -5.5h-356zM196 813
q-7 0 -12.5 5.5t-5.5 13.5t9 14l74 56q8 5 17 5t17 -5l74 -55q9 -6 9 -17q0 -7 -5 -11.5t-12 -4.5q-2 0 -4.5 1t-4.5 2l-74 55l-74 -56l-4 -2t-4 -1zM314 980q14 14 31 21.5t36 7.5q25 0 39.5 -10.5t21 -24.5t6.5 -27q0 -16 -10 -29.5t-25 -28.5q-3 -3 -5 -8t-3 -13
q-1 -6 -5 -9t-10 -3q-7 0 -11 4.5t-4 9.5q0 7 2 17t11 20q12 13 20 21t8 19q0 13 -10 21.5t-24 8.5q-13 0 -23.5 -6t-18.5 -12q-7 -6 -15 -7.5t-13 5.5q-4 5 -4.5 10.5t6.5 12.5z" />
    <glyph glyph-name="uni1EC3" unicode="&#x1ec3;" horiz-adv-x="445" 
d="M253 -6q-59 0 -104.5 23t-71.5 63.5t-26 95.5v125q0 48 24.5 88.5t65 64.5t88.5 24q47 0 87.5 -23.5t65 -64t24.5 -92.5q0 -36 -12 -52t-30.5 -19.5t-40.5 -3.5h-237v-47q0 -68 48 -107.5t121 -39.5q42 0 64 10.5t33.5 20.5t20.5 10q5 0 9 -3t6.5 -7t2.5 -8
q0 -9 -16.5 -23t-47.5 -24.5t-74 -10.5zM86 258h225q37 0 48.5 7t11.5 30q0 36 -17.5 70t-49.5 56t-75 22q-40 0 -72.5 -20t-51.5 -52t-19 -70v-43zM145 554q-7 0 -12.5 5.5t-5.5 13.5t9 14l74 56q8 5 17 5t17 -5l74 -55q9 -6 9 -17q0 -7 -5 -11.5t-12 -4.5q-2 0 -4.5 1
t-4.5 2l-74 55l-74 -56l-4 -2t-4 -1zM263 721q14 14 31 21.5t36 7.5q25 0 39.5 -10.5t21 -24.5t6.5 -27q0 -16 -10 -29.5t-25 -28.5q-3 -3 -5 -8t-3 -13q-1 -6 -5 -9t-10 -3q-7 0 -11 4.5t-4 9.5q0 7 2 17t11 20q12 13 20 21t8 19q0 13 -10 21.5t-24 8.5q-13 0 -23.5 -6
t-18.5 -12q-7 -6 -15 -7.5t-13 5.5q-4 5 -4.5 10.5t6.5 12.5z" />
    <glyph glyph-name="uni1EC4" unicode="&#x1ec4;" horiz-adv-x="498" 
d="M101 0q-7 0 -12.5 4.5t-5.5 13.5v695q0 9 5.5 13.5t12.5 4.5h356q9 0 13 -5.5t4 -11.5q0 -7 -4.5 -13t-12.5 -6h-338v-311h160q8 0 12.5 -5.5t4.5 -13.5q0 -6 -4 -11.5t-13 -5.5h-160v-312h338q8 0 12.5 -5.5t4.5 -13.5q0 -6 -4 -11.5t-13 -5.5h-356zM198 812
q-7 0 -12.5 5.5t-5.5 13.5t9 14l74 56q8 5 17 5t17 -5l74 -55q9 -6 9 -17q0 -7 -5 -11.5t-12 -4.5q-2 0 -4.5 1t-4.5 2l-74 55l-74 -56l-4 -2t-4 -1zM343 915q-24 0 -42.5 9.5t-38.5 18.5t-48 9q-21 0 -34 -8.5t-20.5 -17.5t-14.5 -9q-3 0 -6 2t-5 6t-2 9q0 10 8.5 19
t22.5 16.5t29.5 12t28.5 4.5q25 0 44 -9t38.5 -18.5t44.5 -9.5q23 0 34 8t17 16t14 8q4 0 7 -2t5 -5t2 -8q0 -12 -8.5 -21t-21.5 -16t-27.5 -10.5t-26.5 -3.5z" />
    <glyph glyph-name="uni1EC5" unicode="&#x1ec5;" horiz-adv-x="445" 
d="M253 -6q-59 0 -104.5 23t-71.5 63.5t-26 95.5v125q0 48 24.5 88.5t65 64.5t88.5 24q47 0 87.5 -23.5t65 -64t24.5 -92.5q0 -36 -12 -52t-30.5 -19.5t-40.5 -3.5h-237v-47q0 -68 48 -107.5t121 -39.5q42 0 64 10.5t33.5 20.5t20.5 10q5 0 9 -3t6.5 -7t2.5 -8
q0 -9 -16.5 -23t-47.5 -24.5t-74 -10.5zM86 258h225q37 0 48.5 7t11.5 30q0 36 -17.5 70t-49.5 56t-75 22q-40 0 -72.5 -20t-51.5 -52t-19 -70v-43zM147 553q-7 0 -12.5 5.5t-5.5 13.5t9 14l74 56q8 5 17 5t17 -5l74 -55q9 -6 9 -17q0 -7 -5 -11.5t-12 -4.5q-2 0 -4.5 1
t-4.5 2l-74 55l-74 -56l-4 -2t-4 -1zM292 656q-24 0 -42.5 9.5t-38.5 18.5t-48 9q-21 0 -34 -8.5t-20.5 -17.5t-14.5 -9q-3 0 -6 2t-5 6t-2 9q0 10 8.5 19t22.5 16.5t29.5 12t28.5 4.5q25 0 44 -9t38.5 -18.5t44.5 -9.5q23 0 34 8t17 16t14 8q4 0 7 -2t5 -5t2 -8
q0 -12 -8.5 -21t-21.5 -16t-27.5 -10.5t-26.5 -3.5z" />
    <glyph glyph-name="uni1EC6" unicode="&#x1ec6;" horiz-adv-x="498" 
d="M101 0q-7 0 -12.5 4.5t-5.5 13.5v695q0 9 5.5 13.5t12.5 4.5h356q9 0 13 -5.5t4 -11.5q0 -7 -4.5 -13t-12.5 -6h-338v-311h160q8 0 12.5 -5.5t4.5 -13.5q0 -6 -4 -11.5t-13 -5.5h-160v-312h338q8 0 12.5 -5.5t4.5 -13.5q0 -6 -4 -11.5t-13 -5.5h-356zM249 -132
q-16 0 -26 11t-10 25q0 15 10 25.5t26 10.5q14 0 24.5 -10.5t10.5 -25.5q0 -14 -10.5 -25t-24.5 -11zM168 859q-7 0 -12.5 5.5t-5.5 13.5q0 4 2.5 8t6.5 6l104 56q8 5 17 5t17 -5l104 -55q5 -2 7 -7t2 -10q0 -7 -5 -11.5t-12 -4.5q-2 0 -4.5 1t-4.5 2l-104 55l-104 -56
l-4 -2t-4 -1z" />
    <glyph glyph-name="uni1EC7" unicode="&#x1ec7;" horiz-adv-x="445" 
d="M253 -6q-59 0 -104.5 23t-71.5 63.5t-26 95.5v125q0 48 24.5 88.5t65 64.5t88.5 24q47 0 87.5 -23.5t65 -64t24.5 -92.5q0 -36 -12 -52t-30.5 -19.5t-40.5 -3.5h-237v-47q0 -68 48 -107.5t121 -39.5q42 0 64 10.5t33.5 20.5t20.5 10q5 0 9 -3t6.5 -7t2.5 -8
q0 -9 -16.5 -23t-47.5 -24.5t-74 -10.5zM86 258h225q37 0 48.5 7t11.5 30q0 36 -17.5 70t-49.5 56t-75 22q-40 0 -72.5 -20t-51.5 -52t-19 -70v-43zM229 -132q-16 0 -26 11t-10 25q0 15 10 25.5t26 10.5q14 0 24.5 -10.5t10.5 -25.5q0 -14 -10.5 -25t-24.5 -11zM117 600
q-7 0 -12.5 5.5t-5.5 13.5q0 4 2.5 8t6.5 6l104 56q8 5 17 5t17 -5l104 -55q5 -2 7 -7t2 -10q0 -7 -5 -11.5t-12 -4.5q-2 0 -4.5 1t-4.5 2l-104 55l-104 -56l-4 -2t-4 -1z" />
    <glyph glyph-name="uni1EC8" unicode="&#x1ec8;" horiz-adv-x="202" 
d="M101 0q-7 0 -12.5 4.5t-5.5 13.5v696q0 9 5.5 13t12.5 4t12.5 -4t5.5 -13v-696q0 -9 -5.5 -13.5t-12.5 -4.5zM37 932q14 14 31 21.5t36 7.5q25 0 39.5 -10.5t21 -24.5t6.5 -27q0 -16 -10 -29.5t-25 -28.5q-3 -3 -5 -8t-3 -13q-1 -6 -5 -9t-10 -3q-7 0 -11 4.5t-4 9.5
q0 7 2 17t11 20q12 13 20 21t8 19q0 13 -10 21.5t-24 8.5q-13 0 -23.5 -6t-18.5 -12q-7 -6 -15 -7.5t-13 5.5q-4 5 -4.5 10.5t6.5 12.5z" />
    <glyph glyph-name="uni1EC9" unicode="&#x1ec9;" horiz-adv-x="171" 
d="M85 0q-7 0 -12 5.5t-5 12.5v437q0 8 5 12.5t12 4.5q8 0 13 -4.5t5 -12.5v-437q0 -7 -5 -12.5t-13 -5.5zM22 673q14 14 31 21.5t36 7.5q25 0 39.5 -10.5t21 -24.5t6.5 -27q0 -16 -10 -29.5t-25 -28.5q-3 -3 -5 -8t-3 -13q-1 -6 -5 -9t-10 -3q-7 0 -11 4.5t-4 9.5q0 7 2 17
t11 20q12 13 20 21t8 19q0 13 -10 21.5t-24 8.5q-13 0 -23.5 -6t-18.5 -12q-7 -6 -15 -7.5t-13 5.5q-4 5 -4.5 10.5t6.5 12.5z" />
    <glyph glyph-name="uni1ECA" unicode="&#x1eca;" horiz-adv-x="202" 
d="M101 0q-7 0 -12.5 4.5t-5.5 13.5v696q0 9 5.5 13t12.5 4t12.5 -4t5.5 -13v-696q0 -9 -5.5 -13.5t-12.5 -4.5zM101 -132q-16 0 -26 11t-10 25q0 15 10 25.5t26 10.5q14 0 24.5 -10.5t10.5 -25.5q0 -14 -10.5 -25t-24.5 -11z" />
    <glyph glyph-name="uni1ECB" unicode="&#x1ecb;" horiz-adv-x="171" 
d="M86 628q-13 0 -22.5 9.5t-9.5 22.5t9.5 22t22.5 9t22 -9t9 -22t-9 -22.5t-22 -9.5zM85 0q-7 0 -12 5.5t-5 12.5v437q0 8 5 12.5t12 4.5q8 0 13 -4.5t5 -12.5v-437q0 -7 -5 -12.5t-13 -5.5zM86 -132q-16 0 -26 11t-10 25q0 15 10 25.5t26 10.5q14 0 24.5 -10.5t10.5 -25.5
q0 -14 -10.5 -25t-24.5 -11z" />
    <glyph glyph-name="uni1ECC" unicode="&#x1ecc;" horiz-adv-x="543" 
d="M271 -6q-55 0 -99 20.5t-70 65.5t-26 120v325q0 75 26 120t70 65.5t99 20.5t99.5 -20.5t70.5 -65.5t26 -120v-325q0 -75 -26 -120t-70.5 -65.5t-99.5 -20.5zM271 30q75 0 117.5 41.5t42.5 128.5v325q0 87 -42.5 128.5t-117.5 41.5t-117 -41.5t-42 -128.5v-325
q0 -87 42 -128.5t117 -41.5zM272 -132q-16 0 -26 11t-10 25q0 15 10 25.5t26 10.5q14 0 24.5 -10.5t10.5 -25.5q0 -14 -10.5 -25t-24.5 -11z" />
    <glyph glyph-name="uni1ECD" unicode="&#x1ecd;" 
d="M227 -6q-47 0 -87.5 25.5t-65 67t-24.5 89.5v122q0 48 24 89t64.5 66t88.5 25t88.5 -24.5t65 -65t24.5 -90.5v-122q0 -47 -24.5 -89t-65 -67.5t-88.5 -25.5zM227 29q40 0 72 21t51.5 55t19.5 71v122q0 37 -19 70t-51.5 54t-72.5 21t-72 -21t-51 -54t-19 -70v-122
q0 -37 19 -71t51.5 -55t71.5 -21zM228 -132q-16 0 -26 11t-10 25q0 15 10 25.5t26 10.5q14 0 24.5 -10.5t10.5 -25.5q0 -14 -10.5 -25t-24.5 -11z" />
    <glyph glyph-name="uni1ECE" unicode="&#x1ece;" horiz-adv-x="543" 
d="M271 -6q-55 0 -99 20.5t-70 65.5t-26 120v325q0 75 26 120t70 65.5t99 20.5t99.5 -20.5t70.5 -65.5t26 -120v-325q0 -75 -26 -120t-70.5 -65.5t-99.5 -20.5zM271 30q75 0 117.5 41.5t42.5 128.5v325q0 87 -42.5 128.5t-117.5 41.5t-117 -41.5t-42 -128.5v-325
q0 -87 42 -128.5t117 -41.5zM208 932q14 14 31 21.5t36 7.5q25 0 39.5 -10.5t21 -24.5t6.5 -27q0 -16 -10 -29.5t-25 -28.5q-3 -3 -5 -8t-3 -13q-1 -6 -5 -9t-10 -3q-7 0 -11 4.5t-4 9.5q0 7 2 17t11 20q12 13 20 21t8 19q0 13 -10 21.5t-24 8.5q-13 0 -23.5 -6t-18.5 -12
q-7 -6 -15 -7.5t-13 5.5q-4 5 -4.5 10.5t6.5 12.5z" />
    <glyph glyph-name="uni1ECF" unicode="&#x1ecf;" 
d="M227 -6q-47 0 -87.5 25.5t-65 67t-24.5 89.5v122q0 48 24 89t64.5 66t88.5 25t88.5 -24.5t65 -65t24.5 -90.5v-122q0 -47 -24.5 -89t-65 -67.5t-88.5 -25.5zM227 29q40 0 72 21t51.5 55t19.5 71v122q0 37 -19 70t-51.5 54t-72.5 21t-72 -21t-51 -54t-19 -70v-122
q0 -37 19 -71t51.5 -55t71.5 -21zM164 673q14 14 31 21.5t36 7.5q25 0 39.5 -10.5t21 -24.5t6.5 -27q0 -16 -10 -29.5t-25 -28.5q-3 -3 -5 -8t-3 -13q-1 -6 -5 -9t-10 -3q-7 0 -11 4.5t-4 9.5q0 7 2 17t11 20q12 13 20 21t8 19q0 13 -10 21.5t-24 8.5q-13 0 -23.5 -6
t-18.5 -12q-7 -6 -15 -7.5t-13 5.5q-4 5 -4.5 10.5t6.5 12.5z" />
    <glyph glyph-name="uni1ED0" unicode="&#x1ed0;" horiz-adv-x="543" 
d="M271 -6q-55 0 -99 20.5t-70 65.5t-26 120v325q0 75 26 120t70 65.5t99 20.5t99.5 -20.5t70.5 -65.5t26 -120v-325q0 -75 -26 -120t-70.5 -65.5t-99.5 -20.5zM271 30q75 0 117.5 41.5t42.5 128.5v325q0 87 -42.5 128.5t-117.5 41.5t-117 -41.5t-42 -128.5v-325
q0 -87 42 -128.5t117 -41.5zM190 812q-7 0 -12.5 5.5t-5.5 13.5t9 14l74 56q8 5 17 5t17 -5l74 -55q9 -6 9 -17q0 -7 -5 -11.5t-12 -4.5q-2 0 -4.5 1t-4.5 2l-74 55l-74 -56l-4 -2t-4 -1zM228 922q-7 0 -13 5.5t-6 12.5q0 9 8 13l102 60q4 2 7 2q8 0 12 -5.5t4 -12.5
q0 -12 -10 -18l-95 -54q-2 -1 -4.5 -2t-4.5 -1z" />
    <glyph glyph-name="uni1ED1" unicode="&#x1ed1;" 
d="M227 -6q-47 0 -87.5 25.5t-65 67t-24.5 89.5v122q0 48 24 89t64.5 66t88.5 25t88.5 -24.5t65 -65t24.5 -90.5v-122q0 -47 -24.5 -89t-65 -67.5t-88.5 -25.5zM227 29q40 0 72 21t51.5 55t19.5 71v122q0 37 -19 70t-51.5 54t-72.5 21t-72 -21t-51 -54t-19 -70v-122
q0 -37 19 -71t51.5 -55t71.5 -21zM146 553q-7 0 -12.5 5.5t-5.5 13.5t9 14l74 56q8 5 17 5t17 -5l74 -55q9 -6 9 -17q0 -7 -5 -11.5t-12 -4.5q-2 0 -4.5 1t-4.5 2l-74 55l-74 -56l-4 -2t-4 -1zM184 663q-7 0 -13 5.5t-6 12.5q0 9 8 13l102 60q4 2 7 2q8 0 12 -5.5t4 -12.5
q0 -12 -10 -18l-95 -54q-2 -1 -4.5 -2t-4.5 -1z" />
    <glyph glyph-name="uni1ED2" unicode="&#x1ed2;" horiz-adv-x="543" 
d="M271 -6q-55 0 -99 20.5t-70 65.5t-26 120v325q0 75 26 120t70 65.5t99 20.5t99.5 -20.5t70.5 -65.5t26 -120v-325q0 -75 -26 -120t-70.5 -65.5t-99.5 -20.5zM271 30q75 0 117.5 41.5t42.5 128.5v325q0 87 -42.5 128.5t-117.5 41.5t-117 -41.5t-42 -128.5v-325
q0 -87 42 -128.5t117 -41.5zM190 814q-7 0 -12.5 5.5t-5.5 13.5t9 14l74 56q8 5 17 5t17 -5l74 -55q9 -6 9 -17q0 -7 -5 -11.5t-12 -4.5q-2 0 -4.5 1t-4.5 2l-74 55l-74 -56l-4 -2t-4 -1zM330 920q-2 0 -4.5 1t-4.5 2l-95 54q-10 6 -10 18q0 7 4.5 12.5t11.5 5.5q3 0 7 -2
l102 -60q8 -4 8 -13q0 -7 -5.5 -12.5t-13.5 -5.5z" />
    <glyph glyph-name="uni1ED3" unicode="&#x1ed3;" 
d="M227 -6q-47 0 -87.5 25.5t-65 67t-24.5 89.5v122q0 48 24 89t64.5 66t88.5 25t88.5 -24.5t65 -65t24.5 -90.5v-122q0 -47 -24.5 -89t-65 -67.5t-88.5 -25.5zM227 29q40 0 72 21t51.5 55t19.5 71v122q0 37 -19 70t-51.5 54t-72.5 21t-72 -21t-51 -54t-19 -70v-122
q0 -37 19 -71t51.5 -55t71.5 -21zM146 555q-7 0 -12.5 5.5t-5.5 13.5t9 14l74 56q8 5 17 5t17 -5l74 -55q9 -6 9 -17q0 -7 -5 -11.5t-12 -4.5q-2 0 -4.5 1t-4.5 2l-74 55l-74 -56l-4 -2t-4 -1zM286 661q-2 0 -4.5 1t-4.5 2l-95 54q-10 6 -10 18q0 7 4.5 12.5t11.5 5.5
q3 0 7 -2l102 -60q8 -4 8 -13q0 -7 -5.5 -12.5t-13.5 -5.5z" />
    <glyph glyph-name="uni1ED4" unicode="&#x1ed4;" horiz-adv-x="543" 
d="M271 -6q-55 0 -99 20.5t-70 65.5t-26 120v325q0 75 26 120t70 65.5t99 20.5t99.5 -20.5t70.5 -65.5t26 -120v-325q0 -75 -26 -120t-70.5 -65.5t-99.5 -20.5zM271 30q75 0 117.5 41.5t42.5 128.5v325q0 87 -42.5 128.5t-117.5 41.5t-117 -41.5t-42 -128.5v-325
q0 -87 42 -128.5t117 -41.5zM188 813q-7 0 -12.5 5.5t-5.5 13.5t9 14l74 56q8 5 17 5t17 -5l74 -55q9 -6 9 -17q0 -7 -5 -11.5t-12 -4.5q-2 0 -4.5 1t-4.5 2l-74 55l-74 -56l-4 -2t-4 -1zM306 980q14 14 31 21.5t36 7.5q25 0 39.5 -10.5t21 -24.5t6.5 -27q0 -16 -10 -29.5
t-25 -28.5q-3 -3 -5 -8t-3 -13q-1 -6 -5 -9t-10 -3q-7 0 -11 4.5t-4 9.5q0 7 2 17t11 20q12 13 20 21t8 19q0 13 -10 21.5t-24 8.5q-13 0 -23.5 -6t-18.5 -12q-7 -6 -15 -7.5t-13 5.5q-4 5 -4.5 10.5t6.5 12.5z" />
    <glyph glyph-name="uni1ED5" unicode="&#x1ed5;" 
d="M227 -6q-47 0 -87.5 25.5t-65 67t-24.5 89.5v122q0 48 24 89t64.5 66t88.5 25t88.5 -24.5t65 -65t24.5 -90.5v-122q0 -47 -24.5 -89t-65 -67.5t-88.5 -25.5zM227 29q40 0 72 21t51.5 55t19.5 71v122q0 37 -19 70t-51.5 54t-72.5 21t-72 -21t-51 -54t-19 -70v-122
q0 -37 19 -71t51.5 -55t71.5 -21zM144 554q-7 0 -12.5 5.5t-5.5 13.5t9 14l74 56q8 5 17 5t17 -5l74 -55q9 -6 9 -17q0 -7 -5 -11.5t-12 -4.5q-2 0 -4.5 1t-4.5 2l-74 55l-74 -56l-4 -2t-4 -1zM262 721q14 14 31 21.5t36 7.5q25 0 39.5 -10.5t21 -24.5t6.5 -27
q0 -16 -10 -29.5t-25 -28.5q-3 -3 -5 -8t-3 -13q-1 -6 -5 -9t-10 -3q-7 0 -11 4.5t-4 9.5q0 7 2 17t11 20q12 13 20 21t8 19q0 13 -10 21.5t-24 8.5q-13 0 -23.5 -6t-18.5 -12q-7 -6 -15 -7.5t-13 5.5q-4 5 -4.5 10.5t6.5 12.5z" />
    <glyph glyph-name="uni1ED6" unicode="&#x1ed6;" horiz-adv-x="543" 
d="M271 -6q-55 0 -99 20.5t-70 65.5t-26 120v325q0 75 26 120t70 65.5t99 20.5t99.5 -20.5t70.5 -65.5t26 -120v-325q0 -75 -26 -120t-70.5 -65.5t-99.5 -20.5zM271 30q75 0 117.5 41.5t42.5 128.5v325q0 87 -42.5 128.5t-117.5 41.5t-117 -41.5t-42 -128.5v-325
q0 -87 42 -128.5t117 -41.5zM190 812q-7 0 -12.5 5.5t-5.5 13.5t9 14l74 56q8 5 17 5t17 -5l74 -55q9 -6 9 -17q0 -7 -5 -11.5t-12 -4.5q-2 0 -4.5 1t-4.5 2l-74 55l-74 -56l-4 -2t-4 -1zM335 915q-24 0 -42.5 9.5t-38.5 18.5t-48 9q-21 0 -34 -8.5t-20.5 -17.5t-14.5 -9
q-3 0 -6 2t-5 6t-2 9q0 10 8.5 19t22.5 16.5t29.5 12t28.5 4.5q25 0 44 -9t38.5 -18.5t44.5 -9.5q23 0 34 8t17 16t14 8q4 0 7 -2t5 -5t2 -8q0 -12 -8.5 -21t-21.5 -16t-27.5 -10.5t-26.5 -3.5z" />
    <glyph glyph-name="uni1ED7" unicode="&#x1ed7;" 
d="M227 -6q-47 0 -87.5 25.5t-65 67t-24.5 89.5v122q0 48 24 89t64.5 66t88.5 25t88.5 -24.5t65 -65t24.5 -90.5v-122q0 -47 -24.5 -89t-65 -67.5t-88.5 -25.5zM227 29q40 0 72 21t51.5 55t19.5 71v122q0 37 -19 70t-51.5 54t-72.5 21t-72 -21t-51 -54t-19 -70v-122
q0 -37 19 -71t51.5 -55t71.5 -21zM146 553q-7 0 -12.5 5.5t-5.5 13.5t9 14l74 56q8 5 17 5t17 -5l74 -55q9 -6 9 -17q0 -7 -5 -11.5t-12 -4.5q-2 0 -4.5 1t-4.5 2l-74 55l-74 -56l-4 -2t-4 -1zM291 656q-24 0 -42.5 9.5t-38.5 18.5t-48 9q-21 0 -34 -8.5t-20.5 -17.5
t-14.5 -9q-3 0 -6 2t-5 6t-2 9q0 10 8.5 19t22.5 16.5t29.5 12t28.5 4.5q25 0 44 -9t38.5 -18.5t44.5 -9.5q23 0 34 8t17 16t14 8q4 0 7 -2t5 -5t2 -8q0 -12 -8.5 -21t-21.5 -16t-27.5 -10.5t-26.5 -3.5z" />
    <glyph glyph-name="uni1ED8" unicode="&#x1ed8;" horiz-adv-x="543" 
d="M271 -6q-55 0 -99 20.5t-70 65.5t-26 120v325q0 75 26 120t70 65.5t99 20.5t99.5 -20.5t70.5 -65.5t26 -120v-325q0 -75 -26 -120t-70.5 -65.5t-99.5 -20.5zM271 30q75 0 117.5 41.5t42.5 128.5v325q0 87 -42.5 128.5t-117.5 41.5t-117 -41.5t-42 -128.5v-325
q0 -87 42 -128.5t117 -41.5zM272 -132q-16 0 -26 11t-10 25q0 15 10 25.5t26 10.5q14 0 24.5 -10.5t10.5 -25.5q0 -14 -10.5 -25t-24.5 -11zM160 859q-7 0 -12.5 5.5t-5.5 13.5q0 4 2.5 8t6.5 6l104 56q8 5 17 5t17 -5l104 -55q5 -2 7 -7t2 -10q0 -7 -5 -11.5t-12 -4.5
q-2 0 -4.5 1t-4.5 2l-104 55l-104 -56l-4 -2t-4 -1z" />
    <glyph glyph-name="uni1ED9" unicode="&#x1ed9;" 
d="M227 -6q-47 0 -87.5 25.5t-65 67t-24.5 89.5v122q0 48 24 89t64.5 66t88.5 25t88.5 -24.5t65 -65t24.5 -90.5v-122q0 -47 -24.5 -89t-65 -67.5t-88.5 -25.5zM227 29q40 0 72 21t51.5 55t19.5 71v122q0 37 -19 70t-51.5 54t-72.5 21t-72 -21t-51 -54t-19 -70v-122
q0 -37 19 -71t51.5 -55t71.5 -21zM228 -132q-16 0 -26 11t-10 25q0 15 10 25.5t26 10.5q14 0 24.5 -10.5t10.5 -25.5q0 -14 -10.5 -25t-24.5 -11zM116 600q-7 0 -12.5 5.5t-5.5 13.5q0 4 2.5 8t6.5 6l104 56q8 5 17 5t17 -5l104 -55q5 -2 7 -7t2 -10q0 -7 -5 -11.5t-12 -4.5
q-2 0 -4.5 1t-4.5 2l-104 55l-104 -56l-4 -2t-4 -1z" />
    <glyph glyph-name="uni1EDA" unicode="&#x1eda;" horiz-adv-x="543" 
d="M271 -6q-55 0 -99 20.5t-70 65.5t-26 120v325q0 75 26 120t70 65.5t99 20.5t99.5 -20.5t70.5 -65.5t26 -120v-325q0 -75 -26 -120t-70.5 -65.5t-99.5 -20.5zM271 30q75 0 117.5 41.5t42.5 128.5v325q0 87 -42.5 128.5t-117.5 41.5t-117 -41.5t-42 -128.5v-325
q0 -87 42 -128.5t117 -41.5zM298 699v32q50 0 75 18.5t25 50.5q0 12 2.5 21t12.5 9q12 0 15 -10t3 -20q0 -30 -12 -53t-41 -35.5t-80 -12.5zM224 860q-7 0 -13 5.5t-6 12.5q0 9 8 13l102 60q4 2 7 2q8 0 12 -5.5t4 -12.5q0 -12 -10 -18l-95 -54q-2 -1 -4.5 -2t-4.5 -1z" />
    <glyph glyph-name="uni1EDB" unicode="&#x1edb;" 
d="M227 -6q-47 0 -87.5 25.5t-65 67t-24.5 89.5v122q0 48 24 89t64.5 66t88.5 25t88.5 -24.5t65 -65t24.5 -90.5v-122q0 -47 -24.5 -89t-65 -67.5t-88.5 -25.5zM227 29q40 0 72 21t51.5 55t19.5 71v122q0 37 -19 70t-51.5 54t-72.5 21t-72 -21t-51 -54t-19 -70v-122
q0 -37 19 -71t51.5 -55t71.5 -21zM273 440v32q50 0 75 18.5t25 50.5q0 12 2.5 21t12.5 9q12 0 15 -10t3 -20q0 -30 -12 -53t-41 -35.5t-80 -12.5zM180 601q-7 0 -13 5.5t-6 12.5q0 9 8 13l102 60q4 2 7 2q8 0 12 -5.5t4 -12.5q0 -12 -10 -18l-95 -54q-2 -1 -4.5 -2t-4.5 -1z
" />
    <glyph glyph-name="uni1EDC" unicode="&#x1edc;" horiz-adv-x="543" 
d="M271 -6q-55 0 -99 20.5t-70 65.5t-26 120v325q0 75 26 120t70 65.5t99 20.5t99.5 -20.5t70.5 -65.5t26 -120v-325q0 -75 -26 -120t-70.5 -65.5t-99.5 -20.5zM271 30q75 0 117.5 41.5t42.5 128.5v325q0 87 -42.5 128.5t-117.5 41.5t-117 -41.5t-42 -128.5v-325
q0 -87 42 -128.5t117 -41.5zM298 699v32q50 0 75 18.5t25 50.5q0 12 2.5 21t12.5 9q12 0 15 -10t3 -20q0 -30 -12 -53t-41 -35.5t-80 -12.5zM319 860q-2 0 -4.5 1t-4.5 2l-95 54q-10 6 -10 18q0 7 4.5 12.5t11.5 5.5q3 0 7 -2l102 -60q8 -4 8 -13q0 -7 -5.5 -12.5
t-13.5 -5.5z" />
    <glyph glyph-name="uni1EDD" unicode="&#x1edd;" 
d="M227 -6q-47 0 -87.5 25.5t-65 67t-24.5 89.5v122q0 48 24 89t64.5 66t88.5 25t88.5 -24.5t65 -65t24.5 -90.5v-122q0 -47 -24.5 -89t-65 -67.5t-88.5 -25.5zM227 29q40 0 72 21t51.5 55t19.5 71v122q0 37 -19 70t-51.5 54t-72.5 21t-72 -21t-51 -54t-19 -70v-122
q0 -37 19 -71t51.5 -55t71.5 -21zM273 440v32q50 0 75 18.5t25 50.5q0 12 2.5 21t12.5 9q12 0 15 -10t3 -20q0 -30 -12 -53t-41 -35.5t-80 -12.5zM275 601q-2 0 -4.5 1t-4.5 2l-95 54q-10 6 -10 18q0 7 4.5 12.5t11.5 5.5q3 0 7 -2l102 -60q8 -4 8 -13q0 -7 -5.5 -12.5
t-13.5 -5.5z" />
    <glyph glyph-name="uni1EDE" unicode="&#x1ede;" horiz-adv-x="543" 
d="M271 -6q-55 0 -99 20.5t-70 65.5t-26 120v325q0 75 26 120t70 65.5t99 20.5t99.5 -20.5t70.5 -65.5t26 -120v-325q0 -75 -26 -120t-70.5 -65.5t-99.5 -20.5zM271 30q75 0 117.5 41.5t42.5 128.5v325q0 87 -42.5 128.5t-117.5 41.5t-117 -41.5t-42 -128.5v-325
q0 -87 42 -128.5t117 -41.5zM298 699v32q50 0 75 18.5t25 50.5q0 12 2.5 21t12.5 9q12 0 15 -10t3 -20q0 -30 -12 -53t-41 -35.5t-80 -12.5zM208 932q14 14 31 21.5t36 7.5q25 0 39.5 -10.5t21 -24.5t6.5 -27q0 -16 -10 -29.5t-25 -28.5q-3 -3 -5 -8t-3 -13q-1 -6 -5 -9
t-10 -3q-7 0 -11 4.5t-4 9.5q0 7 2 17t11 20q12 13 20 21t8 19q0 13 -10 21.5t-24 8.5q-13 0 -23.5 -6t-18.5 -12q-7 -6 -15 -7.5t-13 5.5q-4 5 -4.5 10.5t6.5 12.5z" />
    <glyph glyph-name="uni1EDF" unicode="&#x1edf;" 
d="M227 -6q-47 0 -87.5 25.5t-65 67t-24.5 89.5v122q0 48 24 89t64.5 66t88.5 25t88.5 -24.5t65 -65t24.5 -90.5v-122q0 -47 -24.5 -89t-65 -67.5t-88.5 -25.5zM227 29q40 0 72 21t51.5 55t19.5 71v122q0 37 -19 70t-51.5 54t-72.5 21t-72 -21t-51 -54t-19 -70v-122
q0 -37 19 -71t51.5 -55t71.5 -21zM273 440v32q50 0 75 18.5t25 50.5q0 12 2.5 21t12.5 9q12 0 15 -10t3 -20q0 -30 -12 -53t-41 -35.5t-80 -12.5zM164 673q14 14 31 21.5t36 7.5q25 0 39.5 -10.5t21 -24.5t6.5 -27q0 -16 -10 -29.5t-25 -28.5q-3 -3 -5 -8t-3 -13
q-1 -6 -5 -9t-10 -3q-7 0 -11 4.5t-4 9.5q0 7 2 17t11 20q12 13 20 21t8 19q0 13 -10 21.5t-24 8.5q-13 0 -23.5 -6t-18.5 -12q-7 -6 -15 -7.5t-13 5.5q-4 5 -4.5 10.5t6.5 12.5z" />
    </font>
</defs>
</svg>
